osu file format v14

[General]
AudioFilename: audio.mp3
AudioLeadIn: 0
PreviewTime: 110217
Countdown: 0
SampleSet: Soft
StackLeniency: 0.7
Mode: 0
LetterboxInBreaks: 0
EpilepsyWarning: 1
WidescreenStoryboard: 1

[Editor]
Bookmarks: 143387,268073
DistanceSpacing: 0.4
BeatDivisor: 4
GridSize: 32
TimelineZoom: 2.699999

[Metadata]
Title:Ringo Uri no Utakata Shoujo
TitleUnicode:林檎売りの泡沫少女
Artist:Himeringo
ArtistUnicode:ひめりんご
Creator:Half
Version:Happy Cursed
Source:
Tags:歌幡メイジ The Transient Apple Salesgirl UTAUカバー utaite [C_u_r_i] curi Down supporter_plz
BeatmapID:1583228
BeatmapSetID:752073

[Difficulty]
HPDrainRate:5
CircleSize:4.2
OverallDifficulty:9.5
ApproachRate:9.8
SliderMultiplier:1.5
SliderTickRate:1

[Events]
//Background and Video events
0,0,"BG.jpg",0,0
//Break Periods
2,135060,142774
2,215521,224433
//Storyboard Layer 0 (Background)
//Storyboard Layer 1 (Fail)
//Storyboard Layer 2 (Pass)
//Storyboard Layer 3 (Foreground)
//Storyboard Sound Samples

[TimingPoints]
6177,266.429840142096,3,2,1,30,1,0
6177,-200,3,2,1,30,0,0
44809,-100,3,2,1,60,0,0
45275,-100,3,2,0,5,0,0
45342,266.429840142096,4,2,1,70,1,0
53867,-111.111111111111,4,2,1,60,0,0
79445,-111.111111111111,4,2,1,60,0,0
96496,266.429840142096,3,2,1,60,1,0
96496,-125,3,2,1,60,0,0
106087,266.429840142096,4,2,1,70,1,0
106087,-111.111111111111,4,2,1,70,0,0
110349,-90.9090909090909,4,2,1,80,0,1
110816,-90.9090909090909,4,2,0,5,0,1
110882,-90.9090909090909,4,2,1,80,0,1
112681,-90.9090909090909,4,2,0,5,0,1
112747,-90.9090909090909,4,2,1,80,0,1
117476,-90.9090909090909,4,2,0,5,0,1
117543,-90.9090909090909,4,2,1,80,0,1
120407,-90.9090909090909,4,2,0,5,0,1
120474,-90.9090909090909,4,2,1,80,0,1
126269,-90.9090909090909,4,2,0,5,0,1
126335,-90.9090909090909,4,2,1,80,0,1
127401,266.429840142096,3,2,1,70,1,0
127401,-111.111111111111,4,2,1,70,0,0
130598,266.429840142096,4,2,1,80,1,1
130598,-90.9090909090909,4,2,1,80,0,1
132729,-90.9090909090909,4,2,1,65,0,1
132995,-90.9090909090909,4,2,1,70,0,1
133262,-90.9090909090909,4,2,1,75,0,1
133528,-90.9090909090909,4,2,1,80,0,1
133795,-200,4,2,1,80,0,0
134328,-200,4,2,1,40,0,0
134860,-100,4,2,1,70,0,0
143386,-100,4,2,1,60,0,0
146783,-100,4,2,0,5,0,0
146850,-100,4,2,1,60,0,0
160438,266.429840142096,3,2,1,60,1,0
160438,-125,4,2,1,60,0,0
172826,-125,4,2,0,5,0,0
172960,-125,4,2,1,60,0,0
173093,-125,4,2,0,5,0,0
173226,-125,4,2,1,60,0,0
173759,266.429840142096,3,2,1,60,1,0
173759,-125,3,2,1,60,0,0
174092,-125,3,2,0,5,0,0
174158,-125,3,2,1,60,0,0
177289,-125,3,2,0,5,0,0
177355,-125,3,2,1,60,0,0
180153,-111.111111111111,3,2,1,60,0,0
180486,-111.111111111111,3,2,0,5,0,0
180552,-111.111111111111,3,2,1,60,0,0
180952,-111.111111111111,3,2,1,65,0,0
181751,-111.111111111111,3,2,1,70,0,0
182084,-111.111111111111,3,2,0,5,0,0
182151,-111.111111111111,3,2,1,70,0,0
182551,-111.111111111111,3,2,1,75,0,0
182817,-111.111111111111,3,2,1,70,0,0
183084,-111.111111111111,3,2,1,65,0,0
183350,266.429840142096,4,2,1,50,1,0
183350,-125,3,2,1,50,0,0
185481,-125,3,2,1,60,0,0
186547,-125,3,2,1,70,0,0
187612,-90.9090909090908,3,2,1,80,0,1
188079,-90.9090909090908,3,2,0,5,0,1
188146,-90.9090909090908,3,2,1,80,0,1
193141,-90.9090909090908,3,2,0,5,0,1
193207,-90.9090909090908,3,2,1,80,0,1
196871,-90.9090909090908,3,2,1,5,0,1
196937,-90.9090909090908,3,2,1,80,0,1
197404,-90.9090909090908,3,2,0,5,0,1
197470,-90.9090909090908,3,2,1,80,0,1
203598,-100,3,2,1,80,0,1
203798,-100,3,2,0,5,0,1
203865,-100,3,2,1,80,0,1
204664,266.429840142096,3,2,1,70,1,0
204664,-111.111111111111,3,2,1,70,0,0
205396,-111.111111111111,3,2,0,5,0,0
205463,-111.111111111111,3,2,1,70,0,0
207261,-111.111111111111,3,2,0,5,0,0
207328,-111.111111111111,3,2,1,70,0,0
207861,266.429840142096,4,2,1,80,1,1
207861,-90.9090909090909,3,2,1,80,0,1
208060,-90.9090909090909,3,2,0,5,0,1
208127,-90.9090909090909,3,2,1,80,0,1
210258,-90.9090909090909,3,2,1,60,0,1
210525,-90.9090909090909,3,2,1,65,0,1
210791,-90.9090909090909,3,2,1,70,0,1
211058,-90.9090909090909,3,2,1,75,0,1
211591,-90.9090909090909,3,2,1,80,0,1
212123,-90.9090909090909,3,2,1,80,0,0
224912,266.429840142096,3,2,1,80,1,1
224912,-90.9090909090909,3,2,1,80,0,1
225111,-90.9090909090909,3,2,0,5,0,1
225178,-90.9090909090909,3,2,1,80,0,1
226710,-90.9090909090909,3,2,0,5,0,1
226777,-90.9090909090909,3,2,1,80,0,1
227110,-90.9090909090909,3,2,0,5,0,1
227176,-90.9090909090909,3,2,1,80,0,1
228708,-90.9090909090909,3,2,0,5,0,1
228775,-90.9090909090909,3,2,1,80,0,1
231506,-90.9090909090909,3,2,0,5,0,1
231572,-90.9090909090909,3,2,1,80,0,1
231905,-90.9090909090909,3,2,0,5,0,1
231972,-90.9090909090909,3,2,1,80,0,1
233104,-90.9090909090909,3,2,0,5,0,1
233171,-90.9090909090909,3,2,1,80,0,1
233504,-90.9090909090909,3,2,0,5,0,1
233570,-90.9090909090909,3,2,1,80,0,1
234503,-100,3,2,1,80,0,1
242496,-125,3,2,1,80,0,0
252820,-125,3,2,0,5,0,0
252887,-125,3,2,1,80,0,0
268073,-125,3,2,0,5,0,0
268606,266.429840142096,4,2,2,30,1,0
268606,-200,3,2,2,30,0,0
284591,-125,3,2,1,5,0,0
287256,-83.3333333333333,3,2,1,90,0,1
287722,-83.3333333333333,3,2,0,5,0,1
287788,-83.3333333333333,3,2,1,90,0,1
289587,-83.3333333333333,3,2,0,5,0,1
289653,-83.3333333333333,3,2,1,90,0,1
291518,-83.3333333333333,3,2,1,90,0,1
294383,-83.3333333333333,3,2,0,5,0,1
294449,-83.3333333333333,3,2,1,90,0,1
296514,-83.3333333333333,3,2,0,5,0,1
296581,-83.3333333333333,3,2,1,90,0,1
302375,-83.3333333333333,3,2,1,5,0,1
302442,-83.3333333333333,3,2,1,90,0,1
304307,266.429840142096,3,2,1,70,1,0
307504,266.429840142096,4,2,1,90,1,1
309835,-100,4,2,1,5,0,1
309901,-100,4,2,1,60,0,1
310168,-100,4,2,1,65,0,1
310434,-100,4,2,1,70,0,1
310701,-100,4,2,1,75,0,1
310967,-100,4,2,1,80,0,1
311234,-100,4,2,1,85,0,1
311766,266.429840142096,3,2,1,90,1,0
311766,-100,3,2,1,90,0,0
311832,-100,3,2,1,40,0,0

[Colours]
Combo1 : 255,227,128
Combo2 : 237,65,69

[HitObjects]
238,75,6177,6,0,P|275:68|311:75,1,75,2|0,0:0|0:0,0:0:0:0:
383,118,6709,1,2,0:0:0:0:
270,177,6976,2,0,P|233:184|197:177,1,75,2|0,0:0|0:0,0:0:0:0:
125,134,7509,1,2,0:0:0:0:
105,245,7775,6,0,L|92:331,2,75,2|0|0,0:0|0:0|0:0,0:0:0:0:
202,290,8574,2,0,L|215:376,2,75,2|0|0,0:0|0:0|0:0,0:0:0:0:
303,254,9374,6,0,P|316:219|313:183,1,75,2|0,0:0|0:0,0:0:0:0:
284,102,9907,1,2,0:0:0:0:
386,23,10173,2,0,P|373:58|376:94,1,75,2|0,0:0|0:0,0:0:0:0:
405,175,10706,1,2,0:0:0:0:
499,242,10972,6,0,L|512:328,2,75,2|0|0,0:0|0:0|0:0,0:0:0:0:
402,287,11771,2,0,L|389:373,2,75,2|0|0,0:0|0:0|0:0,0:0:0:0:
351,185,12571,6,0,L|364:109,1,75,2|0,0:0|0:0,0:0:0:0:
379,25,13104,1,2,0:0:0:0:
250,127,13370,2,0,L|237:51,1,75,2|0,0:0|0:0,0:0:0:0:
138,0,13903,2,0,L|148:49,1,37.5,2|0,0:0|0:0,0:0:0:0:
156,127,14169,6,0,B|104:147|104:107|47:128,1,112.5,2|0,0:0|0:0,0:0:0:0:
21,227,14702,2,0,L|57:219,1,37.5,2|0,0:0|0:0,0:0:0:0:
57,316,14969,2,0,L|146:297,1,75,2|0,0:0|0:0,0:0:0:0:
218,280,15502,1,2,0:0:0:0:
155,204,15768,6,0,L|143:116,1,75,2|0,0:0|0:0,0:0:0:0:
132,39,16301,1,2,0:0:0:0:
257,81,16567,2,0,L|245:169,1,75,2|0,0:0|0:0,0:0:0:0:
235,244,17100,2,0,L|280:238,1,37.5,2|0,0:0|0:0,0:0:0:0:
340,173,17367,6,0,L|416:162,2,75,2|0|0,0:0|0:0|0:0,0:0:0:0:
438,250,18166,2,0,L|514:261,2,75,2|0|0,0:0|0:0|0:0,0:0:0:0:
381,338,18965,6,0,P|325:336|275:290,1,112.5,2|0,0:0|0:0,0:0:0:0:
236,227,19498,1,2,0:0:0:0:
50,255,19764,2,0,P|106:253|156:207,1,112.5,2|0,0:0|0:0,0:0:0:0:
195,144,20297,1,2,0:0:0:0:
130,1,20564,6,0,P|186:3|236:49,1,112.5,2|0,0:0|0:0,0:0:0:0:
277,115,21097,2,0,P|297:123|318:123,1,37.5,2|0,0:0|0:0,0:0:0:0:
406,34,21363,2,0,P|418:88|390:146,1,112.5,2|0,0:0|0:0,0:0:0:0:
337,203,21896,1,2,0:0:0:0:
451,267,22162,6,0,L|378:308,1,75,2|0,0:0|0:0,0:0:0:0:
266,278,22695,1,2,0:0:0:0:
223,164,22962,2,0,L|133:145,1,75,2|0,0:0|0:0,0:0:0:0:
42,197,23494,1,2,0:0:0:0:
0,321,23761,6,0,L|121:349,1,112.5,2|0,0:0|0:0,0:0:0:0:
200,369,24294,2,0,L|189:327,1,37.5,2|0,0:0|0:0,0:0:0:0:
137,238,24560,2,0,B|195:206|195:253|248:231,1,112.5,2|0,0:0|0:0,0:0:0:0:
334,200,25093,1,2,0:0:0:0:
254,122,25359,6,0,P|267:84|301:54,1,75,2|0,0:0|0:0,0:0:0:0:
372,7,25892,1,2,0:0:0:0:
200,197,26159,2,0,P|173:166|164:122,1,75,2|0,0:0|0:0,0:0:0:0:
159,38,26692,1,2,0:0:0:0:
244,279,26958,6,0,P|186:288|139:264,1,112.5,2|0,0:0|0:0,0:0:0:0:
74,205,27491,2,0,L|31:215,1,37.5,2|0,0:0|0:0,0:0:0:0:
0,110,27757,2,0,B|56:91|56:127|110:108,1,112.5,2|0,0:0|0:0,0:0:0:0:
191,138,28290,1,2,0:0:0:0:
330,46,28557,6,0,P|314:83|278:108,1,75,2|0,0:0|0:0,0:0:0:0:
191,138,29089,1,2,0:0:0:0:
194,242,29356,2,0,P|210:279|246:304,1,75,2|0,0:0|0:0,0:0:0:0:
349,332,29889,2,0,L|340:285,1,37.5,2|0,0:0|0:0,0:0:0:0:
277,186,30155,6,0,B|336:162|336:205|388:184,1,112.5,2|0,0:0|0:0,0:0:0:0:
478,149,30688,1,2,0:0:0:0:
353,28,30954,2,0,L|265:42,1,75,2|0,0:0|0:0,0:0:0:0:
189,103,31487,1,2,0:0:0:0:
277,186,31754,6,0,L|304:190,11,18.75,2|0|0|0|0|0|0|0|2|0|0|0,0:0|0:0|0:0|0:0|0:0|0:0|0:0|0:0|0:0|0:0|0:0|0:0,0:0:0:0:
207,251,32553,2,0,B|170:241|165:262|133:249,1,75,2|0,0:0|0:0,0:0:0:0:
59,189,32953,1,0,0:0:0:0:
59,189,33086,1,2,0:0:0:0:
82,100,33352,6,0,P|133:77|186:87,1,112.5,2|0,0:0|0:0,0:0:0:0:
273,144,33885,2,0,P|293:149|311:144,1,37.5,2|0,0:0|0:0,0:0:0:0:
409,64,34152,2,0,B|426:119|393:119|411:174,1,112.5,2|0,0:0|0:0,0:0:0:0:
459,248,34684,1,2,0:0:0:0:
349,283,34951,6,0,L|321:288,11,18.75,2|0|0|0|0|0|0|0|2|0|0|0,0:0|0:0|0:0|0:0|0:0|0:0|0:0|0:0|0:0|0:0|0:0|0:0,0:0:0:0:
272,211,35750,2,0,B|235:198|235:222|192:205,1,75,2|0,0:0|0:0,0:0:0:0:
115,238,36150,1,0,0:0:0:0:
115,238,36283,1,2,0:0:0:0:
24,119,36550,6,0,P|88:123|135:155,1,112.5,2|0,0:0|0:0,0:0:0:0:
198,207,37082,2,0,P|219:206|238:197,1,37.5,2|0,0:0|0:0,0:0:0:0:
295,265,37349,2,0,P|328:249|348:217,1,75,2|0,0:0|0:0,0:0:0:0:
370,131,37748,1,0,0:0:0:0:
370,131,37882,1,2,0:0:0:0:
249,58,38148,6,0,L|216:63,11,18.75,2|0|0|0|0|0|0|0|2|0|0|0,0:0|0:0|0:0|0:0|0:0|0:0|0:0|0:0|0:0|0:0|0:0|0:0,0:0:0:0:
292,135,38947,2,0,L|207:149,1,75,2|0,0:0|0:0,0:0:0:0:
116,164,39347,1,0,0:0:0:0:
116,164,39480,1,2,0:0:0:0:
40,240,39747,6,0,P|79:283|134:292,1,112.5,2|0,0:0|0:0,0:0:0:0:
213,269,40280,2,0,P|233:272|250:282,1,37.5,2|2,0:0|0:0,0:0:0:0:
312,359,40546,2,0,P|346:315|344:253,1,112.5,2|0,0:0|0:0,0:0:0:0:
278,179,41079,1,2,0:0:0:0:
363,49,41345,6,0,L|396:45,11,18.75,2|0|0|0|0|0|0|0|2|0|0|0,0:0|0:0|0:0|0:0|0:0|0:0|0:0|0:0|0:0|0:0|0:0|0:0,0:0:0:0:
344,135,42145,2,0,L|418:127,1,75,2|0,0:0|0:0,0:0:0:0:
512,121,42544,1,0,0:0:0:0:
512,121,42677,2,0,L|506:163,1,37.5,2|2,0:0|0:0,0:0:0:0:
444,319,42944,6,0,L|433:249,1,56.25,2|0,0:0|0:0,0:0:0:0:
431,237,43210,2,0,L|427:207,3,18.75
344,146,43477,1,2,0:0:0:0:
307,289,43743,1,0,0:0:0:0:
107,139,44809,5,2,0:0:0:0:
127,153,45075,2,0,B|184:170|184:136|238:157,1,112.5,2|0,0:0|0:0,0:0:0:0:
262,163,45342,6,0,P|237:93|271:25,1,150,4|8,0:1|0:0,0:0:0:0:
401,186,45741,1,8,0:0:0:0:
231,256,45874,1,4,0:0:0:0:
326,101,46008,1,0,0:0:0:0:
414,279,46141,2,0,L|319:295,1,75,8|0,0:0|0:0,0:0:0:0:
158,267,46407,6,0,P|194:254|233:256,1,75,4|0,0:0|0:0,0:0:0:0:
72,178,46674,2,0,P|35:190|-3:189,1,75,8|0,0:0|0:0,0:0:0:0:
125,24,46940,1,4,0:0:0:0:
181,180,47073,1,0,0:0:0:0:
254,27,47207,2,0,P|291:15|329:16,1,75,8|0,0:0|0:0,0:0:0:0:
496,127,47473,6,0,P|459:139|421:138,1,75,4|0,0:0|0:0,0:0:0:0:
304,102,47739,1,8,0:0:0:0:
423,263,47873,1,8,0:0:0:0:
236,190,48006,1,4,0:0:0:0:
423,138,48139,1,0,0:0:0:0:
303,301,48272,2,0,P|266:294|233:277,1,75,8|0,0:0|0:0,0:0:0:0:
119,103,48539,6,0,P|155:109|188:126,1,75,4|0,0:0|0:0,0:0:0:0:
43,147,48805,1,8,0:0:0:0:
105,9,48938,1,8,0:0:0:0:
128,192,49072,1,4,0:0:0:0:
21,58,49205,1,0,0:0:0:0:
203,28,49338,2,0,P|243:30|278:43,1,75,8|0,0:0|0:0,0:0:0:0:
367,219,49604,6,0,P|442:200|477:139,1,150,4|8,0:1|0:0,0:0:0:0:
387,133,50004,1,8,0:0:0:0:
259,247,50137,1,4,0:0:0:0:
418,302,50270,1,0,0:0:0:0:
295,159,50404,2,0,P|260:147|217:149,1,75,8|0,0:0|0:0,0:0:0:0:
34,204,50670,6,0,P|69:216|112:214,1,75,4|0,0:0|0:0,0:0:0:0:
211,353,50937,2,0,P|203:316|180:280,1,75,8|0,0:0|0:0,0:0:0:0:
34,204,51203,1,4,0:0:0:0:
119,352,51336,1,0,0:0:0:0:
201,184,51469,2,0,P|218:151|247:126,1,75,8|0,0:0|0:0,0:0:0:0:
433,83,51736,6,0,P|416:116|387:141,1,75,4|0,0:0|0:0,0:0:0:0:
289,192,52002,1,8,0:0:0:0:
341,35,52135,1,8,0:0:0:0:
179,73,52269,1,4,0:0:0:0:
299,202,52402,1,0,0:0:0:0:
87,193,52535,2,0,P|120:171|157:160,1,75,8|0,0:0|0:0,0:0:0:0:
130,339,52802,6,0,P|99:360|63:371,1,75,4|0,0:0|0:0,0:0:0:0:
163,264,53068,1,8,0:0:0:0:
329,333,53201,1,8,0:0:0:0:
312,124,53334,1,4,0:0:0:0:
462,239,53468,1,4,0:0:0:0:
243,253,53601,1,8,0:0:0:0:
325,44,53734,1,4,0:0:0:0:
325,44,53867,6,0,P|382:78|384:159,1,134.999995880127,4|2,0:1|0:0,0:0:0:0:
243,253,54267,1,2,0:0:0:0:
243,253,54400,2,0,P|270:230|300:218,1,67.4999979400635
399,259,54667,1,2,0:0:0:0:
250,359,54933,6,0,P|190:352|144:284,1,134.999995880127,0|2,0:0|0:0,0:0:0:0:
16,207,55333,1,0,0:0:0:0:
16,207,55466,2,0,P|57:209|108:220,1,67.4999979400635
240,148,55732,2,0,P|199:150|148:161,1,67.4999979400635,2|0,0:0|0:0,0:0:0:0:
302,62,55999,6,0,P|345:119|341:181,1,134.999995880127,0|2,0:0|0:0,0:0:0:0:
256,257,56398,1,0,0:0:0:0:
256,257,56532,2,0,P|254:323|295:374,1,134.999995880127,0|2,0:0|0:0,0:0:0:0:
426,273,56931,1,0,0:0:0:0:
426,273,57064,6,0,P|437:237|444:196,1,67.4999979400635
418,52,57331,2,0,P|407:88|400:129,1,67.4999979400635,2|2,0:0|0:0,0:0:0:0:
273,206,57597,2,0,P|309:197|348:183,1,67.4999979400635,0|2,0:0|0:0,0:0:0:0:
203,137,57864,2,0,P|166:145|127:159,1,67.4999979400635,2|0,0:0|0:0,0:0:0:0:
293,37,58130,6,0,P|373:26|432:69,1,134.999995880127,2|2,0:1|0:0,0:0:0:0:
465,159,58530,1,2,0:1:0:0:
377,239,58663,2,0,B|340:237|290:226|291:226,1,67.4999979400635,0|2,0:0|0:0,0:0:0:0:
445,325,58929,2,0,B|482:327|532:338|531:338,1,67.4999979400635,2|0,0:1|0:0,0:0:0:0:
320,346,59196,6,0,L|187:322,1,134.999995880127,0|2,0:0|0:0,0:0:0:0:
46,246,59595,1,0,0:0:0:0:
46,246,59729,2,0,L|131:232,1,67.4999979400635,0|2,0:0|0:0,0:0:0:0:
242,159,59995,2,0,L|157:145,1,67.4999979400635,2|0,0:0|0:0,0:0:0:0:
311,50,60262,6,0,P|346:40|398:64,1,67.4999979400635
497,68,60528,2,0,P|487:103|441:136,1,67.4999979400635,2|2,0:0|0:0,0:0:0:0:
400,217,60794,2,0,P|374:191|368:134,1,67.4999979400635,0|2,0:0|0:0,0:0:0:0:
265,218,61061,2,0,P|240:241|229:272,1,67.4999979400635,2|0,0:0|0:0,0:0:0:0:
246,373,61327,6,0,P|179:363|135:305,1,134.999995880127,0|2,0:0|0:0,0:0:0:0:
187,190,61727,1,0,0:0:0:0:
120,100,61860,2,0,L|46:123,1,67.4999979400635
45,130,62060,1,2,0:0:0:0:
35,140,62127,1,2,0:0:0:0:
0,228,62260,1,2,0:0:0:0:
88,308,62393,6,0,P|158:306|233:296,1,134.999995880127,4|2,0:1|0:0,0:0:0:0:
360,215,62793,1,0,0:0:0:0:
360,215,62926,2,0,P|324:215|283:207,1,67.4999979400635
178,182,63192,1,2,0:0:0:0:
289,66,63459,6,0,P|352:72|421:89,1,134.999995880127,0|2,0:0|0:0,0:0:0:0:
493,201,63858,1,0,0:0:0:0:
493,201,63992,2,0,P|488:255|478:291,1,67.4999979400635,0|2,0:0|0:0,0:0:0:0:
379,373,64258,2,0,P|380:339|386:306,1,67.4999979400635,2|0,0:0|0:0,0:0:0:0:
241,342,64524,6,0,P|173:335|107:323,1,134.999995880127,0|2,0:0|0:0,0:0:0:0:
27,229,64924,1,0,0:0:0:0:
110,144,65057,2,0,P|178:151|244:163,1,134.999995880127,0|2,0:0|0:0,0:0:0:0:
312,247,65457,1,0,0:0:0:0:
398,185,65590,6,0,P|405:152|410:118,1,67.4999979400635
341,0,65857,2,0,P|333:32|328:66,1,67.4999979400635,2|0,0:0|0:0,0:0:0:0:
193,148,66123,2,0,P|233:142|272:136,1,67.4999979400635,2|0,0:0|0:0,0:0:0:0:
100,71,66389,2,0,P|59:76|21:83,1,67.4999979400635,2|0,0:0|0:0,0:0:0:0:
91,197,66656,6,0,P|75:260|118:315,1,134.999995880127,2|2,0:1|0:0,0:0:0:0:
235,230,67056,1,2,0:1:0:0:
235,230,67189,2,0,P|201:233|163:241,1,67.4999979400635,0|2,0:0|0:0,0:0:0:0:
305,319,67455,2,0,P|339:316|377:308,1,67.4999979400635,2|0,0:1|0:0,0:0:0:0:
479,189,67722,6,0,P|412:194|338:210,1,134.999995880127,0|2,0:0|0:0,0:0:0:0:
361,58,68121,1,0,0:0:0:0:
361,58,68254,2,0,P|398:48|439:45,1,67.4999979400635,0|2,0:0|0:0,0:0:0:0:
292,145,68521,2,0,P|254:154|213:157,1,67.4999979400635,2|0,0:0|0:0,0:0:0:0:
126,56,68787,6,0,P|115:90|110:135,1,67.4999979400635
7,230,69054,2,0,P|41:222|83:204,1,67.4999979400635,2|2,0:0|0:0,0:0:0:0:
210,249,69320,2,0,P|186:222|149:195,1,67.4999979400635,0|2,0:0|0:0,0:0:0:0:
198,356,69587,2,0,P|234:352|276:339,1,67.4999979400635,2|0,0:0|0:0,0:0:0:0:
448,224,69853,6,0,P|386:230|315:252,1,134.999995880127,0|2,0:0|0:0,0:0:0:0:
315,111,70253,1,2,0:0:0:0:
315,111,70319,1,2,0:0:0:0:
315,111,70386,2,0,P|349:100|385:92,1,67.4999979400635,2|2,0:0|0:0,0:0:0:0:
215,145,70652,2,0,P|188:120|163:92,1,67.4999979400635,2|0,0:0|0:0,0:0:0:0:
35,264,70919,6,0,P|104:259|173:246,1,134.999995880127,4|2,0:1|0:0,0:0:0:0:
243,342,71319,2,0,P|276:339|309:330,1,67.4999979400635
450,233,71585,2,0,P|417:236|384:245,1,67.4999979400635,2|2,0:0|0:0,0:0:0:0:
309,330,71851,1,0,0:0:0:0:
218,179,71984,6,0,P|283:160|353:148,1,134.999995880127,0|2,0:0|0:0,0:0:0:0:
471,45,72384,1,2,0:0:0:0:
471,45,72517,2,0,P|436:49|391:58,1,67.4999979400635,0|2,0:0|0:0,0:0:0:0:
228,9,72784,2,0,P|263:5|308:-4,1,67.4999979400635,2|0,0:0|0:0,0:0:0:0:
159,110,73050,6,0,P|82:101|24:87,1,134.999995880127,4|2,0:0|0:0,0:0:0:0:
66,227,73450,2,0,P|107:235|146:236,1,67.4999979400635
256,275,73716,2,0,P|228:306|208:339,1,67.4999979400635,2|2,0:0|0:0,0:0:0:0:
229,152,73983,1,0,0:0:0:0:
378,280,74116,6,0,P|424:227|458:171,1,134.999995880127,0|2,0:0|0:0,0:0:0:0:
435,27,74516,1,2,0:0:0:0:
435,27,74649,2,0,P|409:52|389:84,1,67.4999979400635,0|2,0:0|0:0,0:0:0:0:
252,135,74915,2,0,P|286:145|324:146,1,67.4999979400635,2|2,0:0|0:0,0:0:0:0:
188,39,75182,6,0,P|124:20|55:18,1,134.999995880127,4|2,0:0|0:0,0:0:0:0:
73,154,75581,2,0,P|118:164|159:168,1,67.4999979400635,2|0,0:1|0:0,0:0:0:0:
287,227,75848,2,0,P|242:237|201:241,1,67.4999979400635,2|2,0:0|0:1,0:0:0:0:
153,149,76114,1,0,0:1:0:0:
36,371,76247,5,4,0:0:0:0:
133,290,76381,1,2,0:1:0:0:
274,357,76514,2,0,P|313:355|348:348,1,67.4999979400635,2|0,0:0|0:0,0:0:0:0:
450,233,76780,2,0,P|411:235|376:242,1,67.4999979400635,2|2,0:1|0:0,0:0:0:0:
250,151,77047,2,0,P|289:149|324:142,1,67.4999979400635,2|0,0:0|0:0,0:0:0:0:
143,39,77313,6,0,P|113:95|135:160,1,134.999995880127,4|2,0:0|0:0,0:0:0:0:
214,254,77713,1,2,0:0:0:0:
214,254,77846,2,0,L|132:267,1,67.4999979400635,4|2,0:0|0:0,0:0:0:0:
300,326,78112,2,0,L|382:313,1,67.4999979400635,2|0,0:0|0:0,0:0:0:0:
448,191,78379,6,0,P|384:198|315:212,1,134.999995880127,6|6,0:0|0:0,0:0:0:0:
217,337,78778,1,2,0:0:0:0:
113,239,78912,2,0,P|117:206|125:173,1,67.4999979400635,6|6,0:0|0:0,0:0:0:0:
131,158,79111,1,2,0:0:0:0:
140,148,79178,1,6,0:0:0:0:
252,50,79311,1,6,0:0:0:0:
287,204,79445,6,0,P|353:217|412:185,1,134.999995880127,4|8,0:1|0:0,0:0:0:0:
335,62,79844,1,0,0:0:0:0:
187,102,79977,2,0,P|150:130|134:168,1,67.4999979400635,4|0,0:0|0:0,0:0:0:0:
136,313,80244,2,0,P|173:285|189:247,1,67.4999979400635,8|0,0:0|0:0,0:0:0:0:
350,221,80510,6,0,P|307:202|266:208,1,67.4999979400635,4|0,0:0|0:0,0:0:0:0:
398,331,80777,1,8,0:0:0:0:
398,331,80910,1,0,0:0:0:0:
454,240,81043,1,4,0:0:0:0:
292,313,81176,1,8,0:0:0:0:
161,210,81310,2,0,P|196:220|229:220,1,67.4999979400635,8|0,0:0|0:0,0:0:0:0:
444,131,81576,6,0,P|376:133|309:149,1,134.999995880127,4|8,0:0|0:0,0:0:0:0:
77,13,81976,1,0,0:0:0:0:
77,13,82109,2,0,P|145:15|212:31,1,134.999995880127,4|8,0:0|0:0,0:0:0:0:
118,170,82508,1,2,0:0:0:0:
118,170,82641,6,0,P|84:169|50:161,1,67.4999979400635,6|0,0:0|0:0,0:0:0:0:
179,268,82908,1,10,0:0:0:0:
218,108,83041,1,0,0:0:0:0:
343,199,83175,2,0,P|309:199|276:207,1,67.4999979400635,6|0,0:0|0:0,0:0:0:0:
436,278,83441,2,0,P|469:277|502:269,1,67.4999979400635,10|0,0:0|0:0,0:0:0:0:
411,50,83707,6,0,P|428:115|433:191,1,134.999995880127,6|8,0:0|0:0,0:0:0:0:
341,289,84107,1,8,0:0:0:0:
245,162,84240,2,0,P|283:163|318:172,1,67.4999979400635,4|0,0:0|0:0,0:0:0:0:
177,237,84507,2,0,P|139:236|104:227,1,67.4999979400635,8|0,0:0|0:0,0:0:0:0:
0,121,84773,6,0,P|67:97|135:93,1,134.999995880127,4|8,0:0|0:0,0:0:0:0:
246,0,85173,1,0,0:0:0:0:
265,169,85306,2,0,P|243:142|228:112,1,67.4999979400635,4|8,0:0|0:0,0:0:0:0:
384,10,85572,2,0,P|368:39|347:66,1,67.4999979400635,8|0,0:0|0:0,0:0:0:0:
421,230,85839,6,0,P|399:203|384:173,1,67.4999979400635,4|0,0:0|0:0,0:0:0:0:
321,288,86105,2,0,P|308:320|290:348,1,67.4999979400635,8|0,0:0|0:0,0:0:0:0:
136,278,86372,2,0,P|170:272|203:274,1,67.4999979400635,4|0,0:0|0:0,0:0:0:0:
62,346,86638,2,0,P|40:319|24:289,1,67.4999979400635,8|0,0:0|0:0,0:0:0:0:
133,181,86905,6,0,P|68:169|-4:169,1,134.999995880127,4|8,0:0|0:0,0:0:0:0:
104,58,87304,1,0,0:0:0:0:
224,21,87437,1,4,0:0:0:0:
334,72,87571,1,8,0:0:0:0:
334,72,87637,1,8,0:0:0:0:
334,72,87704,2,0,P|371:74|403:81,1,67.4999979400635,8|8,0:0|0:0,0:0:0:0:
481,230,87970,6,0,P|410:232|330:218,1,134.999995880127,4|8,0:1|0:0,0:0:0:0:
249,118,88370,1,0,0:0:0:0:
217,248,88503,2,0,P|183:256|144:260,1,67.4999979400635,4|0,0:0|0:0,0:0:0:0:
0,315,88770,2,0,P|33:323|73:327,1,67.4999979400635,8|0,0:0|0:0,0:0:0:0:
37,175,89036,6,0,P|49:94|65:44,1,134.999995880127,4|8,0:0|0:0,0:0:0:0:
221,25,89436,1,0,0:0:0:0:
157,165,89569,2,0,P|200:170|247:172,1,67.4999979400635,4|8,0:0|0:0,0:0:0:0:
369,85,89835,2,0,P|325:90|279:92,1,67.4999979400635,8|0,0:0|0:0,0:0:0:0:
365,222,90102,6,0,P|435:221|500:202,1,134.999995880127,4|8,0:0|0:0,0:0:0:0:
373,349,90501,1,0,0:0:0:0:
373,349,90635,2,0,P|303:350|238:369,1,134.999995880127,4|8,0:0|0:0,0:0:0:0:
166,255,91034,1,2,0:0:0:0:
166,255,91167,6,0,P|201:234|221:208,1,67.4999979400635,6|0,0:0|0:0,0:0:0:0:
66,314,91434,2,0,P|66:354|79:385,1,67.4999979400635,10|8,0:0|0:0,0:0:0:0:
65,193,91700,2,0,P|29:173|-4:168,1,67.4999979400635,6|0,0:0|0:0,0:0:0:0:
171,126,91967,2,0,P|206:106|239:101,1,67.4999979400635,10|8,0:0|0:0,0:0:0:0:
407,1,92233,6,0,P|403:82|393:141,1,134.999995880127,6|8,0:0|0:0,0:0:0:0:
281,219,92633,1,0,0:0:0:0:
346,325,92766,2,0,P|386:330|423:339,1,67.4999979400635,4|0,0:0|0:0,0:0:0:0:
512,223,93032,2,0,P|472:228|435:237,1,67.4999979400635,8|0,0:0|0:0,0:0:0:0:
350,129,93299,6,0,P|421:118|488:118,1,134.999995880127,4|8,0:0|0:0,0:0:0:0:
408,15,93699,1,0,0:0:0:0:
286,15,93832,2,0,P|253:17|214:25,1,67.4999979400635,4|8,0:0|0:0,0:0:0:0:
127,130,94098,2,0,P|159:127|199:120,1,67.4999979400635,10|2,0:0|0:0,0:0:0:0:
10,73,94365,6,0,P|7:109|15:145,1,67.4999979400635,6|0,0:0|0:0,0:0:0:0:
125,224,94631,1,8,0:0:0:0:
9,282,94764,1,0,0:0:0:0:
112,362,94897,2,0,P|145:359|178:354,1,67.4999979400635,4|8,0:0|0:0,0:0:0:0:
256,206,95164,2,0,P|241:236|229:267,1,67.4999979400635,8|0,0:0|0:0,0:0:0:0:
382,212,95430,6,0,P|408:151|383:90,1,134.999995880127,4|8,0:0|0:0,0:0:0:0:
272,125,95830,1,8,0:0:0:0:
195,13,95963,2,0,P|228:13|261:19,1,67.4999979400635,4|8,0:0|0:0,0:0:0:0:
281,32,96163,1,8,0:0:0:0:
299,48,96230,1,8,0:0:0:0:
196,149,96363,1,8,0:0:0:0:
65,118,96496,6,0,B|43:178|87:175|65:239,1,120,4|2,0:1|0:0,0:0:0:0:
170,354,96895,1,0,0:0:0:0:
170,354,97028,2,0,P|137:346|94:345,1,60,2|0,0:0|0:0,0:0:0:0:
248,263,97295,6,0,P|285:255|320:255,1,60,2|0,0:0|0:0,0:0:0:0:
456,335,97561,2,0,P|426:333|396:326,1,60,2|0,0:0|0:0,0:0:0:0:
289,143,97828,1,2,0:0:0:0:
433,182,97961,1,0,0:0:0:0:
402,24,98094,6,0,P|325:24|256:41,1,120,2|2,0:0|0:0,0:0:0:0:
183,112,98494,1,0,0:0:0:0:
74,78,98627,2,0,P|38:57|14:27,1,60,2|0,0:0|0:0,0:0:0:0:
177,171,98893,6,0,P|183:141|182:111,1,60,2|0,1:2|0:0,0:0:0:0:
51,201,99160,2,0,P|40:244|39:281,1,60
150,373,99426,2,0,P|146:343|137:314,1,60
302,205,99693,6,0,P|241:206|182:220,1,120,4|2,0:0|0:0,0:0:0:0:
284,331,100092,1,0,0:0:0:0:
284,331,100226,2,0,P|321:333|359:327,1,60,2|0,0:0|0:0,0:0:0:0:
505,232,100492,6,0,P|496:197|482:171,1,60,2|0,0:0|0:0,0:0:0:0:
453,35,100758,2,0,P|427:59|412:85,1,60,2|0,0:0|0:0,0:0:0:0:
317,186,101025,2,0,P|350:196|380:196,1,60,2|0,0:0|0:0,0:0:0:0:
255,110,101291,6,0,P|219:161|226:218,1,120,2|0,0:0|1:0,0:0:0:0:
117,78,101691,1,0,1:0:0:0:
116,207,101824,1,2,1:2:0:0:
6,152,101957,1,0,0:0:0:0:
6,152,102091,6,0,P|5:192|12:231,1,60,2|2,0:0|0:0,0:0:0:0:
169,236,102357,2,0,P|134:215|97:201,1,60,2|0,1:2|1:0,0:0:0:0:
14,341,102623,2,0,P|49:321|79:296,1,60,0|0,1:0|0:0,0:0:0:0:
224,322,102890,6,0,P|265:279|265:222,1,120,4|2,0:0|0:0,0:0:0:0:
207,117,103289,1,0,0:0:0:0:
302,34,103423,2,0,P|339:35|370:43,1,60,2|0,0:0|0:0,0:0:0:0:
471,135,103689,6,0,P|439:144|402:146,1,60,2|0,0:0|0:0,0:0:0:0:
264,221,103956,2,0,P|296:230|333:232,1,60,2|0,0:0|0:0,0:0:0:0:
452,318,104222,2,0,P|420:327|383:329,1,60,2|2,0:0|0:0,0:0:0:0:
219,344,104488,6,0,P|201:304|223:234,1,120,2|0,0:0|0:0,0:0:0:0:
264,114,104888,1,0,0:0:0:0:
146,52,105021,2,0,P|114:55|79:65,1,60,2|0,0:0|0:0,0:0:0:0:
0,189,105288,6,0,P|32:186|67:176,1,60,2|0,1:2|0:0,0:0:0:0:
156,284,105554,2,0,P|124:292|88:294,1,60,2|0,0:0|0:0,0:0:0:0:
156,384,105821,1,2,0:0:0:0:
268,264,105954,1,0,0:0:0:0:
268,370,106087,6,0,P|355:365|413:349,1,134.999995880127,4|8,0:1|0:0,0:0:0:0:
498,181,106486,1,0,0:0:0:0:
345,228,106619,1,4,0:0:0:0:
383,77,106753,1,0,0:0:0:0:
480,178,106886,2,0,P|442:173|406:172,1,67.4999979400635,8|0,0:0|0:0,0:0:0:0:
226,87,107152,6,0,P|264:82|300:81,1,67.4999979400635,4|0,0:0|0:0,0:0:0:0:
156,213,107419,2,0,P|118:218|82:219,1,67.4999979400635,8|0,0:0|0:0,0:0:0:0:
48,101,107685,1,4,0:0:0:0:
0,247,107818,1,8,0:0:0:0:
60,88,107952,2,0,P|98:86|133:81,1,67.4999979400635,8|0,0:0|0:0,0:0:0:0:
369,159,108218,6,0,P|308:175|237:175,1,134.999995880127,4|8,0:0|0:0,0:0:0:0:
100,251,108618,1,0,0:0:0:0:
227,347,108751,2,0,P|243:317|248:283,1,67.4999979400635,4|0,0:0|0:0,0:0:0:0:
168,98,109017,2,0,P|151:127|146:161,1,67.4999979400635,8|0,0:0|0:0,0:0:0:0:
168,286,109284,5,6,0:0:0:0:
385,205,109417,1,0,0:0:0:0:
153,326,109550,5,10,0:0:0:0:
397,164,109683,1,0,0:0:0:0:
315,333,109817,5,10,0:0:0:0:
341,56,109950,1,0,0:0:0:0:
123,219,110083,5,10,0:0:0:0:
400,245,110216,1,0,0:0:0:0:
181,12,110349,6,0,P|141:49|111:53,1,82.5000025177003,4|0,0:1|0:0,0:0:0:0:
10,229,110616,2,0,P|76:202|138:232,1,123.75000377655,8|0,0:0|0:0,0:0:0:0:
140,233,110882,1,6,0:0:0:0:
99,50,111015,1,0,0:0:0:0:
276,100,111149,2,0,P|295:138|290:176,1,82.5000025177003,8|0,0:0|0:0,0:0:0:0:
173,319,111415,6,0,P|205:293|272:296,1,82.5000025177003,6|0,0:0|0:0,0:0:0:0:
376,182,111682,1,10,0:0:0:0:
205,154,111815,1,0,0:0:0:0:
317,26,111948,2,0,P|397:24|493:64,1,165.000005035401,6|8,0:0|0:0,0:0:0:0:
415,274,112348,1,2,0:0:0:0:
415,274,112481,6,0,P|371:239|364:174,1,123.75000377655,6|0,0:0|0:0,0:0:0:0:
373,155,112747,2,0,P|341:173|276:158,1,82.5000025177003,10|0,0:0|0:0,0:0:0:0:
158,82,113014,1,6,0:0:0:0:
294,1,113147,1,0,0:0:0:0:
210,176,113280,2,0,P|167:189|119:183,1,82.5000025177003,10|0,0:0|0:0,0:0:0:0:
0,345,113547,6,0,P|96:302|166:343,1,165.000005035401,6|8,0:0|0:0,0:0:0:0:
61,151,113946,1,2,0:0:0:0:
278,54,114079,1,6,0:0:0:0:
217,275,114213,1,0,0:0:0:0:
143,69,114346,1,8,0:0:0:0:
324,205,114479,1,0,0:0:0:0:
162,51,114612,6,0,P|75:51|-4:69,1,165.000005035401,6|8,0:0|0:0,0:0:0:0:
78,247,115012,1,2,0:0:0:0:
78,247,115145,2,0,P|127:245|179:231,1,82.5000025177003,6|0,0:0|0:0,0:0:0:0:
271,37,115412,2,0,P|245:71|233:112,1,82.5000025177003,8|2,0:0|0:0,0:0:0:0:
411,35,115678,5,6,0:0:0:0:
344,250,115811,1,0,0:0:0:0:
271,37,115944,1,10,0:0:0:0:
476,162,116078,1,0,0:0:0:0:
251,191,116211,2,0,P|204:194|168:204,1,82.5000025177003,6|0,0:0|0:0,0:0:0:0:
0,98,116477,2,0,P|47:101|83:111,1,82.5000025177003,10|0,0:0|0:0,0:0:0:0:
233,100,116744,5,6,0:0:0:0:
67,219,116877,1,0,0:0:0:0:
245,309,117010,2,0,P|302:314|353:300,1,82.5000025177003,10|2,0:0|0:0,0:0:0:0:
423,206,117277,2,0,P|437:138|491:112,1,123.75000377655,6|0,0:0|0:0,0:0:0:0:
504,112,117543,2,0,P|470:75|463:39,1,82.5000025177003,10|0,0:0|0:0,0:0:0:0:
299,15,117809,6,0,P|255:16|202:31,1,82.5000025177003,6|0,0:0|0:0,0:0:0:0:
127,174,118076,1,10,0:0:0:0:
335,114,118209,1,0,0:0:0:0:
355,317,118342,1,6,0:0:0:0:
332,95,118475,1,8,0:0:0:0:
237,318,118609,1,10,0:0:0:0:
474,292,118742,1,0,0:0:0:0:
332,95,118875,6,0,P|281:142|298:235,1,165.000005035401,4|8,0:1|0:0,0:0:0:0:
436,320,119275,1,0,0:0:0:0:
436,320,119408,2,0,P|394:322|355:332,1,82.5000025177003,6|0,0:0|0:0,0:0:0:0:
149,347,119674,2,0,P|168:310|179:271,1,82.5000025177003,8|2,0:0|0:0,0:0:0:0:
149,55,119941,5,6,0:0:0:0:
68,229,120074,1,0,0:0:0:0:
259,138,120207,2,0,P|330:141|380:197,1,123.75000377655,10|0,0:0|0:0,0:0:0:0:
384,200,120474,2,0,P|395:158|439:125,1,82.5000025177003,6|0,0:0|0:0,0:0:0:0:
363,11,120740,1,8,0:0:0:0:
512,149,120873,1,2,0:0:0:0:
425,311,121007,6,0,B|384:321|333:311,1,82.5000025177003,6|0,0:0|0:0,0:0:0:0:
204,211,121273,2,0,B|234:181|283:165,1,82.5000025177003,10|0,0:0|0:0,0:0:0:0:
116,60,121539,1,6,0:0:0:0:
149,274,121673,1,0,0:0:0:0:
257,52,121806,1,10,0:0:0:0:
95,171,121939,1,0,0:0:0:0:
372,124,122072,6,0,P|395:187|342:273,1,165.000005035401,6|10,0:0|0:0,0:0:0:0:
512,214,122472,1,2,0:0:0:0:
423,6,122605,1,6,0:0:0:0:
290,185,122738,1,0,0:0:0:0:
506,112,122872,1,8,0:0:0:0:
288,51,123005,1,2,0:0:0:0:
97,144,123138,6,0,P|143:217|236:202,1,165.000005035401,6|8,0:0|0:0,0:0:0:0:
362,327,123538,1,2,0:0:0:0:
362,327,123671,2,0,P|306:338|281:372,1,82.5000025177003,6|0,0:0|0:0,0:0:0:0:
487,248,123937,2,0,P|500:204|504:157,1,82.5000025177003,8|2,0:0|0:0,0:0:0:0:
378,43,124204,5,6,0:0:0:0:
392,228,124337,1,0,0:0:0:0:
259,96,124470,2,0,P|218:101|172:136,1,82.5000025177003,10|2,0:0|0:0,0:0:0:0:
23,49,124737,2,0,P|47:82|101:104,1,82.5000025177003,6|0,0:0|0:0,0:0:0:0:
99,284,125003,2,0,P|115:245|107:188,1,82.5000025177003,10|2,0:0|0:0,0:0:0:0:
154,40,125269,5,6,0:0:0:0:
12,176,125403,1,0,0:0:0:0:
199,224,125536,2,0,P|241:237|276:267,1,82.5000025177003,10|2,0:0|0:0,0:0:0:0:
316,85,125802,2,0,P|329:47|357:15,1,82.5000025177003,6|0,0:0|0:0,0:0:0:0:
461,205,126069,2,0,P|411:239|411:303,1,123.75000377655,10|0,0:0|0:0,0:0:0:0:
414,319,126335,6,0,P|374:308|326:311,1,82.5000025177003,6|0,0:0|0:0,0:0:0:0:
148,285,126602,2,0,P|158:325|185:365,1,82.5000025177003,10|0,0:0|0:0,0:0:0:0:
247,134,126868,1,4,0:0:0:0:
297,301,127001,1,4,0:0:0:0:
128,165,127134,1,8,0:0:0:0:
324,82,127268,1,4,0:0:0:0:
147,43,127401,6,0,P|77:46|25:97,1,134.999995880127,4|0,0:1|0:0,0:0:0:0:
58,254,127800,1,6,0:0:0:0:
58,254,127933,2,0,L|73:342,1,67.4999979400635,10|0,0:0|0:0,0:0:0:0:
200,353,128200,6,0,L|211:286,1,67.4999979400635,6|0,0:0|0:0,0:0:0:0:
340,190,128466,2,0,L|328:256,1,67.4999979400635,6|0,0:0|0:0,0:0:0:0:
232,126,128733,2,0,L|243:59,1,67.4999979400635,10|0,0:0|0:0,0:0:0:0:
454,53,128999,6,0,P|377:47|339:94,1,134.999995880127,6|4,0:0|0:0,0:0:0:0:
503,213,129399,1,0,0:0:0:0:
503,213,129532,2,0,L|429:224,1,67.4999979400635,10|0,0:0|0:0,0:0:0:0:
336,353,129798,5,6,0:0:0:0:
0,255,130065,1,6,0:0:0:0:
249,14,130331,1,10,0:0:0:0:
105,157,130598,6,0,P|117:111|134:81,1,82.5000025177003,4|0,0:1|0:0,0:0:0:0:
335,171,130864,2,0,P|289:183|255:183,1,82.5000025177003,8|0,0:0|0:0,0:0:0:0:
166,309,131130,1,4,0:0:0:0:
230,185,131264,1,0,0:0:0:0:
159,325,131397,2,0,P|117:335|66:334,1,82.5000025177003,10|2,0:0|0:0,0:0:0:0:
293,297,131663,6,0,P|334:298|374:307,1,82.5000025177003,6|0,0:0|0:0,0:0:0:0:
439,130,131930,1,8,0:0:0:0:
397,316,132063,1,0,0:0:0:0:
421,95,132196,1,6,0:0:0:0:
272,297,132329,1,0,0:0:0:0:
286,114,132463,1,10,0:0:0:0:
412,337,132596,1,0,0:0:0:0:
494,163,132729,5,6,0:0:0:0:
512,269,132862,1,0,0:0:0:0:
366,128,132995,5,10,0:0:0:0:
366,312,133129,1,0,0:0:0:0:
241,69,133262,5,10,0:0:0:0:
196,322,133396,1,0,0:0:0:0:
125,0,133528,5,10,0:0:0:0:
16,297,133662,1,0,0:0:0:0:
223,157,133795,6,0,B|295:122|295:193|367:157,1,150,10|2,0:0|0:0,0:0:0:0:
260,231,134860,5,4,0:1:0:0:
119,97,143253,5,0,0:0:0:0:
119,97,143386,2,0,B|148:112|194:95|194:95|238:79|279:92,1,150,4|6,0:0|0:0,0:0:0:0:
166,223,143786,1,4,0:0:0:0:
260,238,143919,2,0,P|244:192|234:153,1,75,0|4,0:0|0:0,0:0:0:0:
79,260,144185,2,0,P|68:296|56:331,1,75,6|0,0:0|0:0,0:0:0:0:
261,317,144452,6,0,P|333:305|439:289,1,150,4|6,0:0|0:0,0:0:0:0:
361,384,144851,1,4,0:0:0:0:
500,277,144985,2,0,P|488:341|484:369,1,75,0|4,0:0|0:0,0:0:0:0:
334,143,145251,2,0,P|346:207|350:235,1,75,6|0,1:2|0:0,0:0:0:0:
144,371,145518,6,0,P|154:307|168:202,1,150,4|6,0:0|0:0,0:0:0:0:
261,317,145917,1,4,0:0:0:0:
347,216,146050,2,0,P|337:152|323:47,1,150,0|6,0:0|0:0,0:0:0:0:
443,200,146450,1,0,0:0:0:0:
251,158,146583,6,0,P|208:152|133:143,1,112.5,4|0,0:0|0:0,0:0:0:0:
124,143,146850,2,0,P|110:185|102:222,1,75,6|4,0:0|0:0,0:0:0:0:
51,96,147116,2,0,P|21:62|-6:37,1,75,0|8,0:0|0:0,0:0:0:0:
133,58,147383,2,0,P|176:49|212:37,1,75,8|0,2:0|2:0,2:0:0:0:
420,117,147649,6,0,P|377:71|294:83,1,150,4|8,0:1|0:0,0:0:0:0:
426,230,148049,1,0,0:0:0:0:
426,230,148182,2,0,P|377:239|337:247,1,75,4|0,0:0|0:0,0:0:0:0:
213,147,148448,2,0,P|249:154|286:160,1,75,8|0,0:0|0:0,0:0:0:0:
335,363,148715,6,0,B|308:346|261:359|261:359|218:370|175:345,1,150,4|8,0:0|0:0,0:0:0:0:
18,328,149114,1,0,0:0:0:0:
128,215,149248,2,0,P|117:275|114:308,1,75,4|0,0:0|0:0,0:0:0:0:
36,118,149514,2,0,P|31:80|23:44,1,75,8|0,0:0|0:0,0:0:0:0:
213,147,149780,6,0,P|247:161|283:173,1,75,4|0,0:0|0:0,0:0:0:0:
379,300,150047,2,0,P|413:285|449:273,1,75,8|0,0:0|0:0,0:0:0:0:
395,97,150313,2,0,P|385:155|381:184,1,75,4|0,0:0|0:0,0:0:0:0:
289,349,150580,2,0,P|283:311|276:275,1,75,8|0,0:0|0:0,0:0:0:0:
430,362,150846,5,4,0:0:0:0:
275,258,150979,1,4,0:0:0:0:
260,261,151046,1,4,0:0:0:0:
248,269,151113,1,4,0:0:0:0:
377,275,151246,1,8,0:0:0:0:
206,354,151379,1,4,0:0:0:0:
137,280,151512,1,8,0:0:0:0:
217,126,151645,2,0,P|205:178|201:210,1,75,8|0,0:0|0:0,0:0:0:0:
18,26,151912,6,0,P|34:80|56:189,1,150,4|6,0:0|0:0,0:0:0:0:
37,310,152312,1,4,0:0:0:0:
202,199,152445,2,0,P|153:210|112:224,1,75,0|4,0:0|0:0,0:0:0:0:
284,76,152711,2,0,P|319:86|356:94,1,75,6|0,0:0|0:0,0:0:0:0:
318,269,152978,6,0,P|307:215|304:172,1,75,4|0,0:0|0:0,0:0:0:0:
209,287,153244,1,6,0:0:0:0:
306,177,153377,1,4,0:0:0:0:
205,303,153510,2,0,P|168:296|131:288,1,75,0|4,0:0|0:0,0:0:0:0:
317,356,153777,2,0,P|375:344|421:337,1,75,6|0,0:0|0:0,0:0:0:0:
469,149,154043,6,0,P|410:146|379:53,1,150,4|6,0:0|0:0,0:0:0:0:
464,241,154443,1,4,0:0:0:0:
464,241,154576,2,0,P|385:252|309:270,1,150,0|6,0:0|0:0,0:0:0:0:
227,124,154976,1,0,0:0:0:0:
227,124,155109,6,0,P|280:137|312:143,1,75,4|0,0:0|0:0,0:0:0:0:
394,331,155375,2,0,P|357:338|320:347,1,75,6|4,0:0|0:0,0:0:0:0:
158,201,155642,2,0,P|121:193|84:184,1,75,0|8,0:0|0:0,0:0:0:0:
181,355,155908,1,8,0:0:0:0:
251,232,156042,1,0,0:0:0:0:
136,52,156175,6,0,P|144:117|164:234,1,150,4|8,0:1|0:0,0:0:0:0:
83,350,156574,1,0,0:0:0:0:
0,238,156708,2,0,P|42:250|80:266,1,75,4|0,0:0|0:0,0:0:0:0:
178,123,156974,2,0,P|220:111|258:95,1,75,8|0,0:0|0:0,0:0:0:0:
487,238,157240,6,0,B|466:220|417:232|417:232|372:244|331:218,1,150,4|8,0:0|0:0,0:0:0:0:
324,350,157640,1,0,0:0:0:0:
187,255,157773,2,0,P|232:265|283:281,1,75,4|0,0:0|0:0,0:0:0:0:
459,131,158040,2,0,P|422:141|386:149,1,75,8|0,0:0|0:0,0:0:0:0:
432,347,158306,6,0,P|420:292|413:257,1,75,4|0,0:0|0:0,0:0:0:0:
247,148,158573,2,0,P|259:93|266:58,1,75,8|0,0:0|0:0,0:0:0:0:
124,156,158839,2,0,P|70:173|36:184,1,75,4|0,0:0|0:0,0:0:0:0:
187,255,159105,2,0,P|228:292|255:316,1,75,8|0,0:0|0:0,0:0:0:0:
262,74,159372,6,0,P|255:111|247:148,1,75,4|0,0:0|0:0,0:0:0:0:
77,277,159638,2,0,P|84:313|92:350,1,75,8|0,0:0|0:0,0:0:0:0:
52,179,159905,2,0,P|106:180|140:201,1,75,4|0,0:0|0:0,0:0:0:0:
314,295,160171,2,0,P|278:307|241:304,1,75,8|0,0:0|0:0,0:0:0:0:
174,26,160438,6,0,P|123:37|35:54,1,120,4|0,0:1|0:0,0:0:0:0:
200,128,160837,1,4,0:0:0:0:
288,23,160970,1,8,0:0:0:0:
288,0,161237,6,0,P|278:52|273:81,1,60,4|0,0:0|0:0,0:0:0:0:
205,203,161503,2,0,P|199:173|193:144,1,60,4|0,0:0|0:0,0:0:0:0:
317,235,161770,2,0,P|345:245|373:254,1,60,4|0,0:0|0:0,0:0:0:0:
233,315,162036,6,0,P|176:330|116:353,2,120,6|6|10,0:0|0:0|0:0,0:0:0:0:
447,159,162835,1,6,0:0:0:0:
462,162,163102,2,0,P|419:174|383:189,1,60,4|0,0:0|0:0,0:0:0:0:
317,235,163368,2,0,P|274:223|238:208,1,60,4|0,0:0|0:0,0:0:0:0:
99,96,163635,6,0,P|167:98|194:145,1,120,4|0,0:0|0:0,0:0:0:0:
84,199,164034,1,4,0:0:0:0:
16,100,164168,1,8,0:0:0:0:
5,90,164434,6,0,P|17:142|20:168,1,60,4|0,0:0|0:0,0:0:0:0:
39,239,164700,2,0,P|78:202|99:187,1,60,4|0,0:0|0:0,0:0:0:0:
152,137,164967,2,0,P|100:121|76:110,1,60,4|0,0:0|0:0,0:0:0:0:
23,320,165233,6,0,B|55:329|84:311|84:311|110:294|151:305,1,120,4|4,0:0|0:0,0:0:0:0:
296,342,165633,1,0,0:0:0:0:
215,204,165766,2,0,P|228:260|232:283,1,60,10|0,0:0|0:0,0:0:0:0:
390,356,166033,2,0,P|396:326|403:297,1,60,6|2,0:0|0:0,0:0:0:0:
311,177,166299,1,6,0:0:0:0:
462,186,166432,1,0,0:0:0:0:
294,188,166565,2,0,P|301:217|307:246,1,60,4|0,0:0|0:0,0:0:0:0:
480,82,166832,6,0,P|416:94|352:109,1,120,4|0,0:0|0:0,0:0:0:0:
222,142,167231,1,4,0:0:0:0:
202,51,167365,2,0,P|254:61|284:66,1,60,8|0,0:0|0:0,0:0:0:0:
130,112,167631,6,0,P|144:166|161:236,1,120,4|0,0:0|0:0,0:0:0:0:
264,211,168031,1,4,0:0:0:0:
360,270,168164,2,0,P|350:307|343:343,1,60,8|0,0:0|0:0,0:0:0:0:
461,110,168430,6,0,P|387:110|354:154,1,120,4|0,0:0|0:0,0:0:0:0:
416,214,168830,1,4,0:0:0:0:
345,328,168963,2,0,P|290:315|269:310,1,60,8|0,0:0|0:0,0:0:0:0:
159,228,169230,6,0,P|188:221|217:214,1,60,4|0,0:0|0:0,0:0:0:0:
123,345,169496,1,4,0:0:0:0:
51,256,169629,1,0,0:0:0:0:
144,358,169763,2,0,P|173:351|202:344,1,60,8|0,0:0|0:0,0:0:0:0:
416,214,170029,6,0,B|403:183|413:156|413:156|420:126|403:94,1,120,4|0,0:0|0:0,0:0:0:0:
304,175,170429,1,4,0:0:0:0:
226,81,170562,2,0,P|232:44|241:11,1,60,8|0,0:0|0:0,0:0:0:0:
123,152,170828,6,0,P|87:165|54:174,1,60,4|0,0:0|0:0,0:0:0:0:
223,241,171095,2,0,P|251:249|279:260,1,60,4|0,0:0|0:0,0:0:0:0:
111,314,171361,2,0,L|125:246,1,60,8|0,0:0|0:0,0:0:0:0:
234,362,171628,5,4,0:0:0:0:
360,302,171761,1,4,0:0:0:0:
359,290,171827,1,4,0:0:0:0:
358,277,171894,1,4,0:0:0:0:
481,357,172027,1,8,0:0:0:0:
509,228,172160,1,4,0:0:0:0:
465,370,172294,1,4,0:0:0:0:
414,199,172427,5,8,0:0:0:0:
414,199,172693,2,0,P|422:159|429:131,1,60,2|0,0:0|0:0,0:0:0:0:
280,93,172960,2,0,P|272:53|265:25,1,60,2|0,0:0|0:0,0:0:0:0:
239,161,173226,2,0,P|301:171|352:132,1,120,8|4,0:0|0:0,0:0:0:0:
420,337,173759,6,0,B|382:319|346:340|346:340|310:363|270:348,1,150,4|0,0:1|0:0,0:0:0:0:
270,339,174158,2,0,P|234:346|195:354,1,60,4|8,0:0|0:0,0:0:0:0:
26,149,174558,2,0,P|86:164|156:174,2,120,4|4|4,0:0|0:0|0:0,0:0:0:0:
26,149,175357,6,0,P|66:142|91:141,1,60,4|0,0:0|0:0,0:0:0:0:
194,21,175624,2,0,P|234:28|259:29,1,60,4|2,0:0|0:0,0:0:0:0:
226,169,175890,2,0,P|212:130|200:108,1,60,0|4,0:0|0:0,0:0:0:0:
333,68,176156,2,0,P|306:99|293:120,1,60,8|0,0:0|0:0,0:0:0:0:
188,244,176423,2,0,P|228:251|253:252,1,60,4|0,0:0|0:0,0:0:0:0:
413,285,176689,2,0,P|399:246|387:224,1,60,4|0,0:0|0:0,0:0:0:0:
506,9,176956,6,0,P|486:79|469:161,1,150,4|0,0:0|0:0,0:0:0:0:
476,164,177355,2,0,P|436:152|408:145,1,60,4|4,0:0|0:0,0:0:0:0:
218,73,177755,2,0,P|279:62|351:45,2,120,10|6|6,0:0|0:0|0:0,0:0:0:0:
92,261,178554,5,4,0:0:0:0:
168,140,178687,2,0,P|160:172|154:210,1,60,2|0,0:0|0:0,0:0:0:0:
70,179,178954,1,4,0:0:0:0:
21,315,179087,2,0,P|15:285|8:256,1,60,4|0,0:0|0:0,0:0:0:0:
223,304,179354,5,10,0:0:0:0:
108,267,179487,1,0,0:0:0:0:
246,298,179620,1,6,0:0:0:0:
90,276,179754,1,4,0:0:0:0:
266,293,179886,2,0,P|309:300|336:305,1,60,6|0,0:0|0:0,0:0:0:0:
512,198,180153,6,0,B|476:186|428:211|428:211|381:232|342:212,1,168.749994850159,4|0,0:1|0:0,0:0:0:0:
337,209,180552,1,4,0:0:0:0:
410,64,180686,2,0,P|394:110|390:129,1,67.4999979400635,8|0,0:0|0:0,0:0:0:0:
151,103,180952,2,0,P|165:155|180:240,2,134.999995880127,4|4|8,0:0|0:0|0:0,0:0:0:0:
64,141,181618,1,0,0:0:0:0:
139,305,181751,6,0,P|203:311|259:230,1,168.749994850159,4|0,0:0|0:0,0:0:0:0:
259,219,182151,1,4,0:0:0:0:
408,320,182284,2,0,P|353:309|321:303,1,67.4999979400635,8|0,0:0|0:0,0:0:0:0:
180,146,182551,2,0,P|131:154|48:171,1,134.999995880127,8|4,0:0|0:0,0:0:0:0:
134,240,182950,1,0,0:0:0:0:
199,152,183084,1,4,0:0:0:0:
136,257,183217,1,0,0:0:0:0:
233,339,183350,6,0,P|292:324|315:320,1,60,4|0,0:0|0:0,0:0:0:0:
451,259,183616,2,0,P|413:220|338:239,1,120,2|0,0:0|0:0,0:0:0:0:
339,247,184016,1,0,0:0:0:0:
331,80,184149,6,0,P|345:128|349:149,1,60,2|0,0:0|0:0,0:0:0:0:
508,44,184416,2,0,P|495:99|484:168,1,120,0|2,0:0|0:0,0:0:0:0:
413,21,184815,1,2,0:1:0:0:
238,72,184949,5,0,0:0:0:0:
259,168,185082,1,0,0:0:0:0:
331,101,185215,2,0,P|373:109|402:115,1,60,2|0,0:0|0:0,0:0:0:0:
224,247,185481,6,0,P|172:237|93:218,1,120,0|10,0:0|0:0,0:0:0:0:
191,331,185881,1,0,0:0:0:0:
91,368,186014,2,0,P|99:328|102:301,1,60,2|0,0:0|0:0,0:0:0:0:
40,87,186281,2,0,P|44:116|50:146,1,60,10|0,0:0|0:0,0:0:0:0:
232,126,186547,5,6,0:0:0:0:
106,221,186680,1,0,0:0:0:0:
258,128,186813,5,10,0:0:0:0:
202,306,186947,1,0,0:0:0:0:
329,85,187080,5,10,0:0:0:0:
365,333,187213,1,0,0:0:0:0:
389,15,187346,5,10,0:0:0:0:
507,342,187480,1,0,0:0:0:0:
294,207,187612,6,0,P|247:208|211:244,1,82.5000025177003,4|0,0:1|0:0,0:0:0:0:
37,107,187879,2,0,P|100:120|158:62,1,123.75000377655,8|0,0:0|0:0,0:0:0:0:
154,73,188146,1,6,0:0:0:0:
111,260,188278,1,0,0:0:0:0:
296,362,188412,2,0,P|287:316|276:271,1,82.5000025177003,8|0,0:0|0:0,0:0:0:0:
448,72,188678,6,0,P|432:135|416:234,1,165.000005035401,6|10,0:0|0:0,0:0:0:0:
338,93,189078,1,0,0:0:0:0:
184,188,189211,2,0,P|246:170|272:167,1,82.5000025177003,6|0,0:0|0:0,0:0:0:0:
74,52,189477,2,0,P|136:70|162:73,1,82.5000025177003,8|2,0:0|0:0,0:0:0:0:
245,336,189744,6,0,B|211:318|166:342|166:342|123:366|78:347,1,165.000005035401,6|10,0:0|0:0,0:0:0:0:
27,119,190144,1,0,0:0:0:0:
115,275,190277,2,0,P|101:225|93:178,1,82.5000025177003,6|0,0:0|0:0,0:0:0:0:
252,23,190543,2,0,P|243:63|232:103,1,82.5000025177003,10|0,0:0|0:0,0:0:0:0:
17,207,190810,5,6,0:0:0:0:
133,80,190943,1,0,0:0:0:0:
280,172,191076,2,0,P|333:158|374:150,1,82.5000025177003,8|2,0:0|0:0,0:0:0:0:
236,311,191343,5,6,0:0:0:0:
202,234,191476,1,0,0:0:0:0:
175,371,191609,1,8,0:0:0:0:
392,311,191743,1,0,0:0:0:0:
238,12,191875,6,0,P|262:92|283:189,1,165.000005035401,6|8,0:0|0:0,0:0:0:0:
405,28,192275,1,2,0:0:0:0:
355,228,192408,2,0,P|417:214|446:210,1,82.5000025177003,6|0,0:0|0:0,0:0:0:0:
232,101,192675,2,0,P|191:94|151:84,1,82.5000025177003,8|2,0:0|0:0,0:0:0:0:
36,303,192941,6,0,P|61:268|153:281,1,123.75000377655,6|0,0:0|0:0,0:0:0:0:
149,276,193207,2,0,P|138:321|130:364,1,82.5000025177003,10|0,0:0|0:0,0:0:0:0:
62,176,193474,2,0,P|54:135|44:95,1,82.5000025177003,6|0,0:0|0:0,0:0:0:0:
149,276,193740,1,10,0:0:0:0:
243,173,193874,1,0,0:0:0:0:
456,331,194007,6,0,B|420:343|377:320|377:320|330:299|290:321,1,165.000005035401,6|10,0:0|0:0,0:0:0:0:
139,375,194406,1,2,0:0:0:0:
128,196,194540,2,0,P|144:252|152:294,1,82.5000025177003,6|0,0:0|0:0,0:0:0:0:
296,316,194806,2,0,P|305:276|317:237,1,82.5000025177003,10|0,0:0|0:0,0:0:0:0:
214,336,195073,5,6,0:0:0:0:
257,174,195206,1,0,0:0:0:0:
224,357,195339,1,10,0:0:0:0:
56,263,195472,1,0,0:0:0:0:
233,377,195605,5,6,0:0:0:0:
264,149,195738,1,8,0:0:0:0:
403,356,195872,5,10,0:0:0:0:
391,202,196005,1,0,0:0:0:0:
159,246,196138,6,0,P|229:262|326:287,1,165.000005035401,4|8,0:1|0:0,0:0:0:0:
471,114,196538,1,0,0:0:0:0:
391,202,196671,2,0,P|374:143|348:57,1,123.75000377655,6|0,0:0|0:0,0:0:0:0:
349,67,196937,1,8,0:0:0:0:
481,133,197071,1,0,0:0:0:0:
233,150,197204,6,0,B|204:156|174:140|174:140|143:126|114:137,1,123.75000377655,6|0,0:0|0:0,0:0:0:0:
99,146,197470,2,0,P|105:92|108:51,1,82.5000025177003,10|0,0:0|0:0,0:0:0:0:
142,219,197737,1,6,0:0:0:0:
35,307,197870,1,0,0:0:0:0:
14,140,198003,1,8,0:0:0:0:
229,230,198136,1,0,0:0:0:0:
108,378,198270,6,0,P|114:336|126:292,1,82.5000025177003,6|0,0:0|0:0,0:0:0:0:
345,255,198536,2,0,P|339:213|327:169,1,82.5000025177003,10|0,0:0|0:0,0:0:0:0:
236,324,198803,1,6,0:0:0:0:
408,354,198936,1,0,0:0:0:0:
212,336,199069,1,10,0:0:0:0:
427,345,199202,1,0,0:0:0:0:
376,106,199335,6,0,P|305:91|246:173,1,165.000005035401,6|8,0:0|0:0,0:0:0:0:
124,31,199735,1,2,0:0:0:0:
186,208,199868,1,6,0:0:0:0:
204,75,200001,1,0,0:0:0:0:
88,218,200135,1,8,0:0:0:0:
263,264,200268,1,0,0:0:0:0:
21,276,200401,6,0,P|30:210|48:101,1,165.000005035401,6|8,0:0|0:0,0:0:0:0:
137,345,200801,1,0,0:0:0:0:
348,211,200934,2,0,P|303:221|252:234,1,82.5000025177003,6|0,0:0|0:0,0:0:0:0:
111,55,201200,2,0,P|151:64|191:73,1,82.5000025177003,8|0,0:0|0:0,0:0:0:0:
198,279,201467,6,0,P|182:228|260:144,1,165.000005035401,6|10,0:0|0:0,0:0:0:0:
315,325,201866,1,2,0:0:0:0:
443,207,202000,2,0,P|431:148|419:100,1,82.5000025177003,6|0,0:0|0:0,0:0:0:0:
485,301,202266,1,10,0:0:0:0:
348,211,202399,1,2,0:0:0:0:
460,29,202532,6,0,P|392:48|298:69,1,165.000005035401,6|10,0:0|0:0,0:0:0:0:
474,155,202932,1,2,0:0:0:0:
267,229,203065,2,0,P|206:215|161:210,1,82.5000025177003,6|0,0:0|0:0,0:0:0:0:
84,54,203332,2,0,P|124:47|164:37,1,82.5000025177003,10|0,0:0|0:0,0:0:0:0:
112,249,203598,6,0,P|158:294|228:289,1,112.5,6|0,0:0|0:0,0:0:0:0:
218,297,203865,2,0,P|209:342|205:374,1,75,8|0,0:0|0:0,0:0:0:0:
59,321,204131,1,4,0:0:0:0:
121,219,204264,1,4,0:0:0:0:
48,109,204397,1,8,0:0:0:0:
110,7,204530,1,4,0:0:0:0:
336,126,204664,6,0,B|304:108|268:117|268:117|227:128|184:100,1,134.999995880127,4|0,0:1|0:0,0:0:0:0:
204,111,205063,1,6,0:0:0:0:
321,209,205196,2,0,P|379:200|412:164,1,101.249996910095,10|0,0:0|0:0,0:0:0:0:
416,160,205463,6,0,P|407:223|407:247,1,67.4999979400635,6|0,0:0|0:0,0:0:0:0:
336,126,205729,2,0,P|285:86|265:74,1,67.4999979400635,6|0,0:0|0:0,0:0:0:0:
407,73,205996,2,0,P|466:49|486:37,1,67.4999979400635,10|0,0:0|0:0,0:0:0:0:
457,289,206262,6,0,P|404:308|330:247,2,134.999995880127,6|4|10,0:0|0:0|0:0,0:0:0:0:
457,289,206928,1,0,0:0:0:0:
294,344,207061,6,0,P|240:352|188:362,1,101.249996910095,6|0,0:0|0:0,0:0:0:0:
181,365,207328,1,6,0:0:0:0:
200,267,207461,1,0,0:0:0:0:
97,384,207594,1,10,0:0:0:0:
85,227,207727,1,0,0:0:0:0:
282,151,207861,6,0,P|353:143|392:203,1,123.75000377655,4|0,0:1|0:0,0:0:0:0:
397,189,208127,2,0,P|408:141|420:103,1,82.5000025177003,8|0,0:0|0:0,0:0:0:0:
273,264,208393,2,0,P|284:303|293:343,1,82.5000025177003,4|0,0:0|0:0,0:0:0:0:
427,299,208660,1,10,0:0:0:0:
268,238,208793,1,2,0:0:0:0:
101,340,208926,6,0,P|157:329|195:322,1,82.5000025177003,6|0,0:0|0:0,0:0:0:0:
250,143,209193,2,0,P|209:135|168:127,1,82.5000025177003,8|0,0:0|0:0,0:0:0:0:
36,257,209459,1,6,0:0:0:0:
141,239,209592,1,0,0:0:0:0:
8,107,209726,1,10,0:0:0:0:
169,127,209859,1,0,0:0:0:0:
36,283,209992,5,6,0:0:0:0:
61,186,210125,1,0,0:0:0:0:
124,327,210258,5,8,0:0:0:0:
145,198,210392,1,0,0:0:0:0:
215,359,210525,5,8,0:0:0:0:
228,187,210658,1,0,0:0:0:0:
324,374,210791,5,8,0:0:0:0:
305,155,210924,1,0,0:0:0:0:
136,304,211058,5,10,0:0:0:0:
350,261,211191,1,0,0:0:0:0:
86,111,211324,5,10,0:0:0:0:
387,135,211457,1,0,0:0:0:0:
119,318,211591,5,10,0:0:0:0:
245,5,211724,1,0,0:0:0:0:
320,330,211857,1,10,0:0:0:0:
68,110,211990,1,0,0:0:0:0:
403,140,212123,1,4,0:1:0:0:
256,192,212257,12,0,215321,0:0:0:0:
103,117,224912,6,0,P|153:78|218:99,1,123.75000377655,4|0,0:1|0:0,0:0:0:0:
221,100,225178,1,2,0:0:0:0:
289,273,225311,2,0,P|343:259|384:253,1,82.5000025177003,2|0,0:0|0:0,0:0:0:0:
237,348,225578,1,0,0:0:0:0:
122,211,225711,6,0,P|81:203|41:192,1,82.5000025177003,6|0,0:0|0:0,0:0:0:0:
130,302,225977,2,0,P|143:340|154:380,1,82.5000025177003,2|0,0:0|0:0,0:0:0:0:
206,254,226244,2,0,P|232:222|262:193,1,82.5000025177003,2|0,0:0|0:0,0:0:0:0:
480,333,226510,6,0,B|453:339|420:321|420:321|385:306|359:313,1,123.75000377655,6|0,0:0|0:0,0:0:0:0:
345,320,226777,1,2,0:0:0:0:
438,117,226910,2,0,P|492:166|467:235,1,123.75000377655,2|0,0:0|0:0,0:0:0:0:
481,226,227176,1,2,0:0:0:0:
261,193,227309,6,0,P|315:208|359:225,1,82.5000025177003,6|0,0:0|0:0,0:0:0:0:
413,26,227576,2,0,P|374:39|334:50,1,82.5000025177003
177,170,227842,1,2,0:0:0:0:
345,129,227975,1,2,0:0:0:0:
145,90,228109,6,0,P|95:144|123:234,1,165.000005035401,6|2,0:0|0:0,0:0:0:0:
367,322,228508,2,0,P|303:298|240:290,1,123.75000377655,2|0,0:0|0:0,0:0:0:0:
231,292,228775,1,2,0:0:0:0:
250,108,228908,6,0,P|259:168|267:210,1,82.5000025177003,6|0,0:0|0:0,0:0:0:0:
101,307,229174,2,0,P|108:266|113:225,1,82.5000025177003,2|0,0:0|0:0,0:0:0:0:
184,361,229441,1,2,0:0:0:0:
10,317,229575,1,0,0:0:0:0:
107,141,229707,6,0,B|144:136|185:167|185:167|224:195|262:189,1,165.000005035401,6|2,0:0|0:0,0:0:0:0:
419,229,230107,1,2,0:0:0:0:
292,272,230240,1,2,0:0:0:0:
437,210,230373,1,2,0:0:0:0:
276,290,230507,6,0,P|229:280|180:271,1,82.5000025177003,6|0,0:0|0:0,0:0:0:0:
376,137,230773,2,0,P|416:129|456:120,1,82.5000025177003
419,320,231039,1,2,0:0:0:0:
342,211,231173,1,2,0:0:0:0:
454,37,231306,6,0,P|388:53|305:67,1,123.75000377655,6|0,0:0|0:0,0:0:0:0:
316,61,231572,1,0,0:0:0:0:
81,129,231705,2,0,P|155:124|187:86,1,123.75000377655,2|0,0:0|0:0,0:0:0:0:
190,73,231972,1,2,0:0:0:0:
89,230,232105,6,0,P|78:285|73:322,1,82.5000025177003,6|0,0:0|0:0,0:0:0:0:
81,129,232372,2,0,P|38:91|9:69,1,82.5000025177003,2|0,0:0|0:0,0:0:0:0:
169,172,232638,2,0,P|222:154|256:139,1,82.5000025177003,2|0,0:0|0:0,0:0:0:0:
473,300,232904,6,0,P|432:257|358:273,1,123.75000377655,6|0,0:0|0:0,0:0:0:0:
359,273,233171,1,2,0:0:0:0:
155,349,233304,2,0,P|215:340|286:333,1,123.75000377655
293,337,233570,1,2,0:0:0:0:
371,180,233704,5,6,0:0:0:0:
246,251,233838,1,0,0:0:0:0:
392,164,233970,2,0,P|450:174|492:179,1,82.5000025177003
225,261,234237,2,0,P|184:266|143:274,1,82.5000025177003,2|0,0:0|0:0,0:0:0:0:
34,83,234503,6,0,B|77:71|111:97|111:97|144:120|179:111,2,150,6|0|0,0:0|0:0|0:0,0:0:0:0:
34,83,235169,1,0,0:0:0:0:
190,205,235302,2,0,P|237:195|289:189,1,75,8|0,0:0|0:0,0:0:0:0:
174,111,235569,2,0,P|149:83|126:54,1,75,2|0,0:0|0:0,0:0:0:0:
106,176,235835,2,0,P|94:211|81:246,1,75,2|0,0:0|0:0,0:0:0:0:
272,336,236102,6,0,P|319:326|371:320,1,75,6|0,0:0|0:0,0:0:0:0:
478,211,236368,2,0,P|440:205|404:197,1,75,2|0,0:0|0:0,0:0:0:0:
447,365,236634,2,0,P|438:319|433:280,1,75,2|0,0:0|0:0,0:0:0:0:
302,166,236901,2,0,P|296:203|289:239,1,75,10|0,0:0|0:0,0:0:0:0:
381,88,237167,2,0,P|415:74|451:62,1,75,2|0,0:0|0:0,0:0:0:0:
274,54,237434,2,0,P|244:30|216:5,1,75,2|0,0:0|0:0,0:0:0:0:
52,148,237700,6,0,P|95:101|183:118,1,150,6|4,0:0|0:0,0:0:0:0:
174,110,238100,1,4,0:0:0:0:
289,239,238233,2,0,P|230:225|200:219,1,75,4|0,0:0|0:0,0:0:0:0:
8,31,238499,6,0,P|92:16|155:2,1,150,10|4,0:0|0:0,0:0:0:0:
274,54,238899,1,4,0:0:0:0:
124,166,239032,2,0,P|87:156|51:147,1,75,4|4,0:0|0:0,0:0:0:0:
227,375,239299,6,0,P|239:315|229:286,1,75,6|0,0:0|0:0,0:0:0:0:
63,235,239565,2,0,P|108:275|139:281,1,75,4|0,0:0|0:0,0:0:0:0:
272,148,239832,2,0,P|214:167|193:190,1,75,4|4,0:0|0:0,0:0:0:0:
236,302,240098,5,10,0:0:0:0:
440,319,240231,1,8,0:0:0:0:
211,311,240364,5,8,0:0:0:0:
460,305,240498,1,0,0:0:0:0:
165,231,240631,5,8,0:0:0:0:
368,360,240764,1,8,0:0:0:0:
99,358,240897,5,6,0:0:0:0:
160,107,241031,1,4,0:0:0:0:
111,378,241164,5,8,0:0:0:0:
146,82,241297,1,0,0:0:0:0:
349,378,241430,5,8,0:0:0:0:
314,82,241563,1,0,0:0:0:0:
45,242,241697,5,8,0:0:0:0:
321,295,241830,1,8,0:0:0:0:
32,151,241963,5,8,0:0:0:0:
376,184,242096,1,0,0:0:0:0:
9,64,242229,5,8,0:0:0:0:
404,30,242363,1,0,0:0:0:0:
142,285,242496,6,0,P|83:285|44:241,1,120,4|0,0:1|0:0,0:0:0:0:
44,241,242896,1,0,0:0:0:0:
98,87,243029,2,0,P|135:97|167:107,1,60,2|0,0:0|0:0,0:0:0:0:
291,177,243295,6,0,P|262:185|233:193,1,60,10|0,0:0|0:0,0:0:0:0:
383,191,243562,2,0,P|404:211|426:232,1,60,2|0,0:0|0:0,0:0:0:0:
352,103,243828,2,0,P|358:73|366:44,1,60,2|0,0:0|0:0,0:0:0:0:
458,306,244094,6,0,P|395:308|352:258,2,120,4|0|0,0:0|0:0|0:0,0:0:0:0:
458,306,244761,1,0,0:0:0:0:
305,347,244894,6,0,P|250:358|232:362,1,60,10|0,0:0|0:0,0:0:0:0:
233,215,245160,2,0,P|178:204|160:200,1,60,2|0,0:0|0:0,0:0:0:0:
105,359,245427,2,0,P|50:370|32:374,1,60,2|0,0:0|0:0,0:0:0:0:
0,124,245693,6,0,P|37:116|104:159,1,120,6|0,0:0|0:0,0:0:0:0:
103,157,246093,1,0,0:0:0:0:
49,286,246226,2,0,P|39:245|33:211,1,60,2|0,0:0|0:0,0:0:0:0:
198,60,246492,6,0,P|192:89|184:118,1,60,10|0,0:0|0:0,0:0:0:0:
309,152,246759,2,0,P|286:132|265:111,1,60,2|0,0:0|0:0,0:0:0:0:
174,203,247025,2,0,P|202:193|231:185,1,60,2|0,0:0|0:0,0:0:0:0:
396,52,247292,6,0,P|342:43|271:26,2,120,4|0|0,0:0|0:0|0:0,0:0:0:0:
396,52,247958,1,0,0:0:0:0:
448,226,248091,6,0,P|436:185|429:157,1,60,10|0,0:0|0:0,0:0:0:0:
286,288,248357,2,0,P|294:259|302:230,1,60,2|0,0:0|0:0,0:0:0:0:
471,331,248624,1,2,0:0:0:0:
376,249,248757,1,0,0:0:0:0:
238,357,248890,6,0,B|208:363|178:347|178:347|148:332|119:340,1,120,4|0,0:1|0:0,0:0:0:0:
121,339,249290,1,0,0:0:0:0:
30,222,249423,2,0,P|80:237|101:259,1,60,2|0,0:0|0:0,0:0:0:0:
264,118,249689,6,0,P|199:130|137:144,1,120,10|0,0:0|0:0,0:0:0:0:
146,141,250089,1,0,0:0:0:0:
35,35,250222,2,0,P|80:43|115:49,1,60,2|0,0:0|0:0,0:0:0:0:
305,49,250489,6,0,P|338:81|331:167,1,120,6|0,0:0|0:0,0:0:0:0:
340,151,250888,1,0,0:0:0:0:
469,275,251022,2,0,P|438:259|405:254,1,60,2|0,0:0|0:0,0:0:0:0:
165,287,251288,6,0,P|225:279|290:268,2,120,10|0|2,0:0|0:0|0:0,0:0:0:0:
165,287,251954,1,0,0:0:0:0:
12,133,252087,6,0,P|71:140|130:150,1,120,6|0,0:0|0:0,0:0:0:0:
130,150,252487,1,0,0:0:0:0:
290,42,252620,2,0,P|248:52|185:64,1,90
190,63,252887,6,0,P|208:106|216:134,1,60,10|0,0:0|0:0,0:0:0:0:
98,201,253153,2,0,P|126:163|146:142,1,60
264,214,253419,2,0,P|217:208|189:201,1,60
341,258,253686,6,0,B|354:227|348:199|348:199|339:169|353:133,2,120,6|0|0,0:0|0:0|0:0,0:0:0:0:
341,258,254352,1,0,0:0:0:0:
190,323,254485,5,10,0:0:0:0:
274,315,254618,1,0,0:0:0:0:
173,314,254752,1,2,0:0:0:0:
292,328,254885,1,0,0:0:0:0:
133,380,255018,1,2,0:0:0:0:
175,219,255151,1,0,0:0:0:0:
50,42,255285,6,0,P|57:99|65:170,1,120,4|0,0:1|0:0,0:0:0:0:
64,161,255684,1,0,0:0:0:0:
15,313,255817,2,0,P|59:296|80:291,1,60,2|0,0:0|0:0,0:0:0:0:
292,242,256084,6,0,P|225:232|164:215,1,120,10|0,0:0|0:0,0:0:0:0:
174,218,256483,1,0,0:0:0:0:
219,366,256617,2,0,P|211:333|202:300,1,60,2|0,0:0|0:0,0:0:0:0:
320,101,256883,6,0,P|312:129|305:159,1,60,6|0,0:0|0:0,0:0:0:0:
256,48,257150,2,0,P|234:26|213:6,1,60
332,21,257416,2,0,P|360:13|389:4,1,60
446,203,257682,6,0,P|417:194|388:186,1,60,10|0,0:0|0:0,0:0:0:0:
231,119,257949,2,0,P|202:127|173:135,1,60,2|0,0:0|0:0,0:0:0:0:
65,243,258215,1,2,0:0:0:0:
230,254,258348,1,0,0:0:0:0:
119,84,258482,6,0,P|99:136|143:204,1,120,6|0,0:0|0:0,0:0:0:0:
124,191,258881,1,0,0:0:0:0:
194,337,259015,2,0,P|144:328|125:324,1,60,2|0,0:0|0:0,0:0:0:0:
320,279,259281,6,0,P|363:274|456:260,2,120,10|0|2,0:0|0:0|0:0,0:0:0:0:
320,279,259947,1,0,0:0:0:0:
124,191,260080,6,0,P|183:198|242:207,1,120,6|0,0:0|0:0,0:0:0:0:
242,207,260480,1,0,0:0:0:0:
393,106,260613,2,0,P|349:113|322:118,1,60,2|0,0:0|0:0,0:0:0:0:
456,52,260880,6,0,P|474:85|475:122,1,60,10|0,0:0|0:0,0:0:0:0:
355,151,261146,2,0,P|374:118|406:99,1,60
490,194,261412,2,0,P|452:193|419:175,1,60,2|0,0:0|0:0,0:0:0:0:
264,27,261679,6,0,B|231:21|203:36|203:36|176:51|138:38,1,120,6|0,0:0|0:0,0:0:0:0:
147,40,262078,1,0,0:0:0:0:
52,151,262212,2,0,P|98:138|125:134,1,60
50,11,262478,6,0,P|60:45|67:80,1,60,8|0,0:0|0:0,0:0:0:0:
190,157,262745,2,0,P|180:191|173:226,1,60,2|0,0:0|0:0,0:0:0:0:
96,320,263011,2,0,P|89:290|80:262,1,60,2|0,0:0|0:0,0:0:0:0:
237,309,263277,6,0,P|289:318|376:335,2,120,6|0|0,0:0|0:0|0:0,0:0:0:0:
237,309,263943,1,0,0:0:0:0:
328,176,264077,6,0,P|314:230|311:256,1,60,8|0,0:0|0:0,0:0:0:0:
403,132,264343,2,0,P|456:117|480:106,1,60
324,90,264610,2,0,P|284:50|263:35,1,60
120,151,264876,6,0,P|186:134|248:125,1,120,4|0,0:0|0:0,0:0:0:0:
141,237,265276,1,0,0:0:0:0:
15,89,265409,2,0,P|30:125|39:153,1,60
113,317,265675,6,0,P|122:288|134:261,1,60,8|0,0:0|0:0,0:0:0:0:
262,307,265942,2,0,P|232:312|202:316,1,60
180,185,266208,2,0,P|199:207|217:231,1,60
312,54,266475,5,6,0:0:0:0:
256,192,266608,12,0,268073,0:0:0:0:
256,98,268606,6,0,L|256:5,1,75
256,285,269138,6,0,L|256:378,1,75
302,110,269671,6,0,L|348:30,1,75
208,272,270204,6,0,L|162:352,1,75
336,144,270737,6,0,L|416:98,1,75
174,237,271269,6,0,L|96:283,1,75
349,190,271803,6,0,L|442:190,1,75
162,190,272335,6,0,L|69:190,1,75
336,237,272868,6,0,L|413:282,1,75
174,145,273401,6,0,L|97:100,1,75
302,272,273934,6,0,L|348:352,1,75
209,110,274466,6,0,L|163:31,1,75
256,285,275000,6,0,L|256:378,1,75
256,98,275532,6,0,L|256:5,1,75
220,181,276066,2,0,P|256:192|291:182,3,75
256,98,277131,6,0,L|256:5,1,75
256,285,277664,6,0,L|256:378,1,75
209,110,278196,6,0,L|163:30,1,75
303,272,278730,6,0,L|349:352,1,75
175,144,279262,6,0,L|95:98,1,75
337,237,279796,6,0,L|414:282,1,75
162,190,280328,6,0,L|69:190,1,75
349,190,280861,6,0,L|442:190,1,75
175,237,281394,6,0,L|100:281,1,75
337,145,281927,6,0,L|412:101,1,75
208,272,282460,6,0,L|167:343,1,75
302,110,282993,6,0,L|342:38,1,75
256,192,284591,12,0,286590,0:0:0:0:
160,127,287256,6,0,P|115:163|72:162,1,89.9999972534181,4|0,0:1|0:0,0:0:0:0:
239,250,287522,2,0,P|302:237|363:295,1,134.999995880127,8|0,0:0|0:0,0:0:0:0:
364,300,287788,1,6,0:0:0:0:
303,75,287922,1,0,0:0:0:0:
512,153,288055,2,0,L|404:168,1,89.9999972534181,8|0,0:0|0:0,0:0:0:0:
247,18,288321,6,0,P|224:59|229:103,1,89.9999972534181,6|0,0:0|0:0,0:0:0:0:
337,171,288588,1,10,0:0:0:0:
163,286,288721,1,0,0:0:0:0:
6,172,288854,2,0,P|76:157|127:65,1,179.999994506836,6|8,0:0|0:0,0:0:0:0:
163,286,289254,1,2,0:0:0:0:
163,286,289387,6,0,P|231:303|296:309,1,134.999995880127,6|0,0:0|0:0,0:0:0:0:
316,309,289653,2,10,P|305:266|328:226,1,89.9999972534181,10|0,0:0|0:0,0:0:0:0:
312,3,289920,1,6,0:0:0:0:
196,174,290053,1,0,0:0:0:0:
423,100,290186,2,0,P|469:95|514:100,1,89.9999972534181,10|2,0:0|0:0,0:0:0:0:
247,77,290453,6,0,P|219:39|228:-4,1,89.9999972534181,6|0,0:0|0:0,0:0:0:0:
64,176,290719,2,0,P|37:212|19:253,1,89.9999972534181,10|2,0:0|0:0,0:0:0:0:
260,173,290986,1,6,0:0:0:0:
122,43,291119,1,0,0:3:0:0:
122,274,291252,1,8,0:0:0:0:
352,274,291385,1,0,0:0:0:0:
352,43,291518,6,0,P|286:75|264:186,1,179.999994506836,6|8,0:0|0:0,0:0:0:0:
403,339,291918,1,2,0:0:0:0:
403,339,292051,2,0,P|351:311|293:329,1,89.9999972534181,6|0,0:0|0:0,0:0:0:0:
94,305,292318,2,0,P|144:273|157:214,1,89.9999972534181,8|2,0:0|0:0,0:0:0:0:
126,25,292584,5,6,0:0:0:0:
163,222,292717,1,0,0:0:0:0:
321,162,292851,1,10,0:0:0:0:
87,136,292984,1,2,0:0:0:0:
262,10,293117,2,0,P|302:-11|346:1,1,89.9999972534181,6|0,0:0|0:0,0:0:0:0:
371,227,293383,2,0,P|332:202|321:158,1,89.9999972534181,10|2,0:0|0:0,0:0:0:0:
500,105,293650,5,6,0:0:0:0:
459,288,293783,1,0,0:0:0:0:
237,241,293916,2,0,P|274:272|313:291,1,89.9999972534181,10|2,0:0|0:0,0:0:0:0:
89,304,294183,2,0,P|75:236|18:208,1,134.999995880127,6|0,0:0|0:0,0:0:0:0:
0,208,294449,2,0,P|34:171|39:131,1,89.9999972534181,10|0,0:0|0:0,0:0:0:0:
226,38,294716,6,0,P|176:27|139:42,1,89.9999972534181,6|0,0:0|0:0,0:0:0:0:
271,216,294982,1,10,0:0:0:0:
435,61,295115,1,0,0:0:0:0:
199,138,295248,1,6,0:0:0:0:
380,306,295381,1,8,0:0:0:0:
167,334,295514,1,10,0:0:0:0:
297,124,295647,1,0,0:0:0:0:
27,186,295781,6,0,P|73:195|117:215,1,89.9999972534181,6|0,0:0|0:0,0:0:0:0:
247,312,296048,1,8,0:0:0:0:
455,234,296181,1,0,0:0:0:0:
344,61,296314,2,0,P|309:114|345:200,1,134.999995880127,6|0,0:0|0:0,0:0:0:0:
334,197,296581,2,0,P|290:192|252:215,1,89.9999972534181,8|0,0:0|0:0,0:0:0:0:
27,186,296847,6,0,P|71:191|109:168,1,89.9999972534181,6|0,0:0|0:0,0:0:0:0:
0,30,297113,1,10,0:0:0:0:
200,99,297247,1,0,0:0:0:0:
119,325,297380,2,0,P|148:278|102:164,1,179.999994506836,6|8,0:0|0:0,0:0:0:0:
237,21,297780,1,2,0:0:0:0:
237,21,297913,6,0,P|287:37|320:64,1,89.9999972534181,6|0,0:0|0:0,0:0:0:0:
512,166,298179,2,0,P|467:178|426:200,1,89.9999972534181,10|0,0:0|0:0,0:0:0:0:
344,363,298446,1,6,0:0:0:0:
383,113,298579,1,0,0:0:0:0:
154,104,298712,1,10,0:0:0:0:
351,231,298845,1,0,0:0:0:0:
119,292,298978,6,0,P|156:258|200:236,1,89.9999972534181,6|0,0:0|0:0,0:0:0:0:
302,41,299245,1,8,0:0:0:0:
311,320,299378,1,2,0:0:0:0:
468,90,299511,1,6,0:0:0:0:
204,183,299644,1,0,0:0:0:0:
476,263,299778,1,8,0:0:0:0:
292,31,299911,1,2,0:0:0:0:
44,180,300044,6,0,P|122:216|223:159,1,179.999994506836,6|8,0:0|0:0,0:0:0:0:
412,30,300444,1,2,0:0:0:0:
412,30,300577,2,0,P|360:101|409:196,1,179.999994506836,6|8,0:0|0:0,0:0:0:0:
232,320,300977,1,2,0:0:0:0:
97,82,301110,6,0,P|145:90|193:109,1,89.9999972534181,6|0,0:0|0:0,0:0:0:0:
368,0,301376,1,10,0:0:0:0:
255,214,301509,1,2,0:0:0:0:
512,181,301643,2,0,P|481:142|429:136,1,89.9999972534181,6|0,0:0|0:0,0:0:0:0:
244,0,301909,2,0,P|241:43|271:83,1,89.9999972534181,10|2,0:0|0:0,0:0:0:0:
84,255,302176,6,0,P|147:256|198:209,1,134.999995880127,6|0,0:0|0:0,0:0:0:0:
198,174,302442,1,10,0:0:0:0:
244,320,302575,1,2,0:0:0:0:
338,107,302709,2,0,P|337:155|331:196,1,89.9999972534181,6|0,0:0|0:0,0:0:0:0:
467,19,302975,2,0,P|466:67|460:108,1,89.9999972534181,10|0,0:0|0:0,0:0:0:0:
244,22,303241,6,0,P|231:71|272:124,1,89.9999972534181,6|0,0:0|0:0,0:0:0:0:
462,274,303508,2,0,P|419:245|351:260,1,89.9999972534181,8|0,0:0|0:0,0:0:0:0:
420,8,303774,1,4,0:0:0:0:
219,248,303907,1,4,0:0:0:0:
219,248,303974,1,4,0:0:0:0:
219,248,304040,2,0,P|174:258|111:262,1,89.9999972534181,8|4,0:0|0:0,0:0:0:0:
21,36,304307,6,0,P|81:43|177:77,1,150,4|0,0:0|0:0,0:0:0:0:
219,248,304706,1,4,0:0:0:0:
306,92,304839,2,0,P|346:87|394:89,1,75,10|0,0:0|0:0,0:0:0:0:
512,287,305106,6,0,P|474:295|435:274,1,75,6|0,0:0|0:0,0:0:0:0:
327,172,305372,2,0,P|352:200|354:245,1,75,6|0,0:0|0:0,0:0:0:0:
234,347,305639,2,0,P|246:310|283:286,1,75,10|0,0:0|0:0,0:0:0:0:
148,163,305905,6,0,P|71:170|0:185,1,150,6|4,0:0|0:0,0:0:0:0:
199,65,306305,1,0,0:0:0:0:
199,65,306438,2,0,P|241:61|287:60,1,75,10|0,0:0|0:0,0:0:0:0:
62,37,306704,5,6,0:0:0:0:
241,360,306971,1,6,0:0:0:0:
512,101,307237,1,10,0:0:0:0:
290,198,307504,6,0,P|334:181|368:179,1,75,4|0,0:1|0:0,0:0:0:0:
381,12,307770,1,8,0:0:0:0:
125,62,307903,1,0,0:0:0:0:
213,297,308036,2,0,P|201:250|202:217,1,75,4|0,0:0|0:0,0:0:0:0:
287,0,308303,2,0,P|298:46|297:79,1,75,10|2,0:0|0:0,0:0:0:0:
56,212,308569,6,0,P|90:178|119:163,1,75,6|0,0:0|0:0,0:0:0:0:
350,133,308836,1,8,0:0:0:0:
257,344,308969,1,0,0:0:0:0:
338,121,309102,1,6,0:0:0:0:
129,248,309235,1,0,0:0:0:0:
389,338,309369,2,0,P|355:304|326:289,1,75,10|0,0:0|0:0,0:0:0:0:
283,40,309635,6,0,P|246:79|250:140,1,112.5,6|0,0:0|0:0,0:0:0:0:
258,161,309901,1,8,0:0:0:0:
61,186,310035,1,0,0:0:0:0:
303,251,310168,5,8,0:0:0:0:
42,284,310301,1,0,0:0:0:0:
360,342,310434,5,8,0:0:0:0:
26,384,310567,1,0,0:0:0:0:
216,59,310701,5,8,0:0:0:0:
120,366,310834,1,0,0:0:0:0:
70,26,310967,5,8,0:0:0:0:
241,298,311100,1,0,0:0:0:0:
439,92,311234,5,8,0:0:0:0:
78,169,311367,1,0,0:0:0:0:
412,325,311500,1,8,0:0:0:0:
235,3,311633,1,0,0:0:0:0:
190,367,311766,6,0,P|256:379|319:333,1,150,4|4,0:1|0:0,0:0:0:0:
353,194,312165,1,4,0:0:0:0:
229,258,312298,1,4,0:0:0:0:
206,97,312565,6,0,L|190:170,1,75,8|0,0:0|0:0,0:0:0:0:
91,31,312831,2,0,L|162:7,1,75,4|0,0:0|0:0,0:0:0:0:
86,170,313098,2,0,L|28:121,1,75,4|0,0:0|0:0,0:0:0:0:
206,97,313364,6,0,P|279:124|308:201,1,150,4|4,0:0|0:0,0:0:0:0:
240,306,313764,1,4,0:0:0:0:
240,306,313897,2,0,B|341:291,1,75,4|0,0:0|0:0,0:0:0:0:
476,239,314163,6,0,B|375:224,1,75,8|0,0:0|0:0,0:0:0:0:
303,177,314430,2,0,B|366:97,1,75,6|0,0:0|0:0,0:0:0:0:
450,54,314696,2,0,B|487:148,1,75,6|0,0:0|0:0,0:0:0:0:
286,42,314963,6,0,P|214:53|156:119,1,150,4|4,0:0|0:0,0:0:0:0:
171,254,315362,1,4,0:0:0:0:
171,254,315496,2,0,L|77:235,1,75,4|0,0:0|0:0,0:0:0:0:
0,144,315762,6,0,L|94:125,1,75,10|0,0:0|0:0,0:0:0:0:
223,51,316028,1,4,0:0:0:0:
223,51,316295,1,4,0:0:0:0:
448,161,316561,6,0,P|390:208|314:197,1,150,4|6,0:0|0:0,0:0:0:0:
223,51,317094,1,6,0:0:0:0:
122,157,317361,6,0,L|139:246,1,75,10|0,0:0|0:0,0:0:0:0:
223,319,317627,1,6,0:0:0:0:
312,226,317760,1,0,0:0:0:0:
351,353,317893,1,6,0:0:0:0:
425,143,318160,6,0,P|355:166|311:226,1,150,4|4,0:0|0:0,0:0:0:0:
351,353,318559,1,4,0:0:0:0:
351,353,318693,1,4,0:0:0:0:
174,341,318959,6,0,P|114:297|117:214,1,150,10|4,0:0|0:0,0:0:0:0:
222,95,319492,1,4,0:0:0:0:
82,25,319758,6,0,P|29:74|25:152,1,150,4|4,0:1|0:0,0:0:0:0:
118,277,320158,1,4,0:0:0:0:
118,277,320291,2,0,L|139:184,1,75,4|0,0:0|0:0,0:0:0:0:
302,220,320558,6,0,L|210:248,1,75,8|0,0:0|0:0,0:0:0:0:
347,93,320824,2,0,L|417:157,1,75,6|0,0:0|0:0,0:0:0:0:
222,125,321091,2,0,L|243:32,1,75,6|0,0:0|2:0,0:0:0:0:
302,220,321357,6,0,L|267:371,1,150,6|4,0:0|0:0,0:0:0:0:
412,273,321757,1,4,0:0:0:0:
412,273,321890,2,0,L|433:180,1,75,4|0,0:0|0:0,0:0:0:0:
371,31,322156,6,0,L|350:124,1,75,10|0,0:0|0:0,0:0:0:0:
227,83,322423,2,0,L|210:9,1,75,6|0,0:0|0:0,0:0:0:0:
94,61,322689,2,0,L|77:134,1,75,6|0,0:0|2:0,0:0:0:0:
105,272,322956,5,6,0:0:0:0:
191,195,323089,1,4,0:0:0:0:
191,195,323155,1,4,0:0:0:0:
191,195,323222,2,0,L|282:182,1,75,4|8,0:0|0:0,0:0:0:0:
407,274,323488,2,0,L|324:261,1,75,4|4,0:0|0:0,0:0:0:0:
471,177,323755,5,4,0:0:0:0:
451,62,323888,1,4,0:0:0:0:
367,134,324021,1,4,0:0:0:0:
347,19,324154,1,6,0:0:0:0:
263,91,324288,2,0,L|201:151,1,75,4|4,0:0|0:0,0:0:0:0:
10,182,324554,6,0,P|60:234|137:229,1,150,4|4,0:1|0:0,0:0:0:0:
209,143,324954,1,4,0:0:0:0:
209,143,325087,1,4,0:0:0:0:
48,23,325353,6,0,P|99:80|93:149,1,150,10|4,0:0|0:0,0:0:0:0:
232,30,325886,1,4,0:0:0:0:
306,240,326153,6,0,P|245:215|208:129,1,150,4|4,0:0|0:0,0:0:0:0:
304,9,326552,1,4,0:0:0:0:
304,9,326686,2,0,L|221:32,1,75,4|0,0:0|0:0,0:0:0:0:
364,129,326952,6,0,L|447:106,1,75,10|0,0:0|0:0,0:0:0:0:
306,240,327218,2,0,L|244:179,1,75,6|0,0:0|0:0,0:0:0:0:
426,241,327485,2,0,L|404:324,1,75,6|0,0:0|0:0,0:0:0:0:
294,367,327751,6,0,P|216:352|140:318,1,150,4|4,0:0|0:0,0:0:0:0:
97,208,328151,1,4,0:0:0:0:
97,208,328284,1,4,0:0:0:0:
186,59,328551,6,0,P|152:77|123:101,1,75,10|0,0:0|0:0,0:0:0:0:
218,183,328817,2,0,P|251:203|287:217,1,75,4|0,0:0|0:0,0:0:0:0:
380,103,329083,1,4,0:0:0:0:
443,232,329350,5,4,0:0:0:0:
294,347,329616,2,0,P|331:339|372:324,1,75,6|0,0:0|0:0,0:0:0:0:
231,247,329883,2,0,P|193:254|153:270,1,75,6|0,0:0|0:0,0:0:0:0:
60,351,330149,5,8,0:0:0:0:
233,92,330416,1,6,0:0:0:0:
49,162,330682,1,6,0:0:0:0:
354,258,330948,1,4,0:0:0:0:
256,192,331082,12,0,334146,0:0:0:0:
