osu file format v14

[General]
AudioFilename: audio.mp3
AudioLeadIn: 0
PreviewTime: 187558
Countdown: 0
SampleSet: Soft
StackLeniency: 0.7
Mode: 0
LetterboxInBreaks: 0
WidescreenStoryboard: 0

[Editor]
Bookmarks: 6189,25371,45354,62405,79457,96508,110361,134872,134939,135006,135072,135139,135405,135605,135672,135805,135938,136071,136205,136338,136404,136538,136671,136804,136937,137070,137137,137270,137403,137537,137603,137803,137870,138003,138136,138203,138336,138469,138602,138736,138869,139002,139069,139202,139335,139468,139602,139735,139868,140001,140134,140268,140401,140534,140667,140800,140934,141067,141200,141333,141467,141600,141733,141866,142066,142199,142332,142466,142599,142732,142865,142998,143132,143398,160450,173771,187624,212135,224924,242508,268618,287268,311778,323301,324566,337355
DistanceSpacing: 1.8
BeatDivisor: 4
GridSize: 32
TimelineZoom: 3.2

[Metadata]
Title:Ringo Uri no Utakata Shoujo
TitleUnicode:林檎売りの泡沫少女
Artist:Himeringo
ArtistUnicode:ひめりんご
Creator:-Light-
Version:Wonderful Curse
Source:
Tags:歌幡メイジ The Transient Apple Salesgirl UTAUカバー utaite chrononig shirasaka koume
BeatmapID:1924525
BeatmapSetID:921562

[Difficulty]
HPDrainRate:6
CircleSize:4
OverallDifficulty:9.5
ApproachRate:9.7
SliderMultiplier:1.65
SliderTickRate:1

[Events]
//Background and Video events
0,0,"omg.jpg",0,0
//Break Periods
2,134872,142903
//Storyboard Layer 0 (Background)
//Storyboard Layer 1 (Fail)
//Storyboard Layer 2 (Pass)
//Storyboard Layer 3 (Foreground)
//Storyboard Sound Samples

[TimingPoints]
6189,266.429840142096,3,2,0,60,1,0
6189,-166.666666666667,3,2,0,60,0,0
31766,-133.333333333333,3,2,0,60,0,0
45354,266.429840142096,4,2,0,60,1,0
53879,-111.111111111111,4,2,0,60,0,0
79457,-100,4,2,0,60,0,0
96508,266.429840142096,3,2,0,60,1,0
96508,-117.647058823529,3,2,0,60,0,0
106099,266.429840142096,4,2,0,60,1,0
106099,-100,4,2,0,60,0,0
109296,-83.3333333333333,4,2,0,60,0,0
110361,-90.9090909090909,4,2,0,60,0,1
127413,266.429840142096,3,2,0,60,1,0
130610,266.429840142096,4,2,0,60,1,0
132741,-83.3333333333333,4,2,0,60,0,0
143398,-111.111111111111,4,2,0,60,0,0
147661,-100,4,2,0,60,0,0
151924,-111.111111111111,4,2,0,60,0,0
156187,-100,4,2,0,60,0,0
160450,266.429840142096,3,2,0,60,1,0
160450,-111.111111111111,3,2,0,60,0,0
172705,-200,3,2,0,60,0,0
173238,-125,3,2,0,60,0,0
173771,266.429840142096,3,2,0,60,1,0
183362,266.429840142096,4,2,0,60,1,0
186559,-83.3333333333333,4,2,0,60,0,0
187624,-90.9090909090909,4,2,0,60,0,1
204676,266.429840142096,3,2,0,60,1,0
207873,266.429840142096,4,2,0,60,1,0
224924,266.429840142096,3,2,0,60,1,0
224924,-90.9090909090909,3,2,0,60,0,0
234515,-100,3,2,0,60,0,0
237179,-90.9090909090909,3,2,0,60,0,0
237446,-83.3333333333333,3,2,0,60,0,0
238511,-76.9230769230769,3,2,0,60,0,0
239311,-71.4285714285714,3,2,0,60,0,0
240110,-66.6666666666667,3,2,0,60,0,0
240909,-100,3,2,0,60,0,0
242508,-111.111111111111,3,2,0,60,0,0
266487,-133.333333333333,3,2,0,60,0,0
268618,266.429840142096,4,2,0,60,1,0
268618,-200,4,2,0,60,0,0
285669,-100,4,2,0,60,0,0
287268,266.429840142096,4,2,0,60,1,0
287268,-83.3333333333333,4,2,0,60,0,1
304319,266.429840142096,3,2,0,60,1,0
304319,-100,3,2,0,60,0,0
307516,266.429840142096,4,2,0,60,1,0
310713,-83.3333333333333,4,2,0,60,0,0
310979,-76.9230769230769,4,2,0,60,0,0
311778,266.429840142096,3,2,0,60,1,0
311778,-111.111111111111,3,2,0,60,0,0
334158,-125,3,2,0,60,0,0
334957,-125,3,2,0,60,0,0
335756,-142.857142857143,3,2,0,60,0,0
336555,-166.666666666667,3,2,0,60,0,0
337088,-200,3,2,0,60,0,0

[Colours]
Combo1 : 220,71,71
Combo2 : 200,214,105
Combo3 : 244,83,83
Combo4 : 126,197,235

[HitObjects]
47,97,6189,6,0,P|93:84|143:104,2,98.9999969787599
96,259,6988,2,0,P|78:207|92:160,1,98.9999969787599
164,208,7521,1,0,0:0:0:0:
263,142,7787,6,0,L|267:40,2,98.9999969787599
295,230,8586,2,0,L|306:341,1,98.9999969787599
382,278,9119,1,0,0:0:0:0:
228,336,9386,6,0,B|172:324|188:359|121:344,1,98.9999969787599
58,302,9919,1,0,0:0:0:0:
187,247,10185,6,0,B|243:235|227:270|294:255,1,98.9999969787599
357,213,10718,1,0,0:0:0:0:
282,86,10984,6,0,P|260:124|270:191,2,98.9999969787599
368,33,11784,2,0,L|474:47,1,98.9999969787599
399,120,12316,1,0,0:0:0:0:
492,221,12583,6,0,B|440:205|450:241|381:226,1,98.9999969787599
313,180,13116,1,0,0:0:0:0:
232,253,13382,2,0,P|219:290|237:352,1,98.9999969787599
227,160,13915,6,0,P|201:164|178:182,1,49.4999984893799
105,240,14181,2,0,L|88:124,1,98.9999969787599
110,333,14714,6,0,P|135:328|158:310,1,49.4999984893799
232,253,14980,2,0,L|249:369,1,98.9999969787599
329,372,15514,1,0,0:0:0:0:
432,294,15780,6,0,B|402:271|402:271|338:284,2,98.9999969787599
356,202,16579,2,0,P|339:151|358:99,1,98.9999969787599
264,232,17112,2,0,P|254:252|255:290,1,49.4999984893799
194,165,17379,6,0,L|83:152,2,98.9999969787599
271,90,18178,1,0,0:0:0:0:
345,54,18444,1,0,0:0:0:0:
398,117,18711,1,0,0:0:0:0:
362,221,18977,6,0,L|256:232,1,98.9999969787599
350,313,19377,2,0,P|375:319|399:317,2,49.4999984893799
257,337,19776,6,0,L|151:326,1,98.9999969787599
215,235,20176,2,0,P|240:229|264:231,2,49.4999984893799
105,269,20576,6,0,B|117:209|85:216|100:160,1,98.9999969787599
145,88,20975,1,0,0:0:0:0:
145,88,21109,2,0,P|163:104|171:131,1,49.4999984893799
213,29,21375,6,0,B|272:22|254:52|322:46,2,98.9999969787599
475,70,22174,6,0,P|434:60|381:81,2,98.9999969787599
255,163,22974,2,0,P|296:153|349:174,2,98.9999969787599
465,263,23773,6,0,B|412:250|426:294|357:277,1,98.9999969787599
294,241,24173,1,0,0:0:0:0:
294,241,24306,2,0,P|284:260|283:290,1,49.4999984893799
191,355,24572,6,0,P|201:315|174:243,2,98.9999969787599
22,211,25371,6,0,L|130:194,2,98.9999969787599
216,96,26171,2,0,L|108:79,2,98.9999969787599
359,207,26970,6,0,P|322:177|316:129,1,98.9999969787599
399,87,27370,1,0,0:0:0:0:
399,87,27503,2,0,P|420:98|443:129,1,49.4999984893799
439,260,27769,6,0,P|476:229|482:181,2,98.9999969787599
274,305,28569,6,0,L|386:325,1,98.9999969787599
462,384,28968,1,0,0:0:0:0:
462,384,29101,2,0,P|460:355|447:331,1,49.4999984893799
372,196,29368,6,0,P|362:218|361:243,1,49.4999984893799
281,354,29634,2,0,P|252:335|226:332,1,49.4999984893799
162,259,29901,2,0,P|133:278|107:281,1,49.4999984893799
40,341,30167,6,0,B|11:300|11:300|24:250,2,98.9999969787599
109,207,30966,2,0,B|121:159|121:159|92:118,2,98.9999969787599
0,72,31766,6,0,L|36:67,11,30.937501180172
66,0,32565,6,0,P|72:55|141:72,1,123.750004720688
199,45,32965,1,0,0:0:0:0:
199,45,33098,1,0,0:0:0:0:
248,143,33364,6,0,B|292:113|292:113|372:136,1,123.750004720688
402,204,33764,1,0,0:0:0:0:
482,181,33897,2,0,P|492:151|488:116,1,61.875002360344
308,195,34164,6,0,P|292:254|337:303,2,123.750004720688
459,277,34963,6,0,L|453:308,11,30.937501180172
494,378,35762,6,0,P|433:344|364:355,1,123.750004720688
312,384,36162,1,0,0:0:0:0:
312,384,36295,1,0,0:0:0:0:
109,317,36562,6,0,L|240:300,1,123.750004720688
315,306,36961,1,0,0:0:0:0:
278,232,37094,2,0,P|240:206|208:209,1,61.875002360344
51,182,37361,5,0,0:0:0:0:
185,36,37627,1,0,0:0:0:0:
174,81,37760,1,0,0:0:0:0:
218,68,37894,1,0,0:0:0:0:
375,167,38160,6,0,L|335:159,11,30.937501180172
277,120,38959,6,0,P|315:159|319:228,1,123.750004720688
258,272,39359,1,0,0:0:0:0:
258,272,39492,1,0,0:0:0:0:
367,370,39759,6,0,P|369:309|409:264,1,123.750004720688
512,160,40158,1,0,0:0:0:0:
437,194,40292,2,0,L|359:177,1,61.875002360344
266,117,40558,6,0,P|330:104|344:44,2,123.750004720688
109,192,41357,6,0,L|114:228,11,30.937501180172
192,245,42157,6,0,P|144:250|115:331,1,123.750004720688
150,379,42556,1,0,0:0:0:0:
150,379,42689,1,0,0:0:0:0:
179,149,42956,5,0,0:0:0:0:
37,288,43222,2,0,L|32:324,4,30.937501180172
37,288,43755,5,0,0:0:0:0:
464,120,44821,5,0,0:0:0:0:
484,27,45087,1,0,0:0:0:0:
394,57,45354,6,0,B|325:74|339:25|260:47,1,123.75
248,59,45620,2,0,P|253:104|258:173,1,82.5
432,236,45886,1,0,0:0:0:0:
255,303,46020,1,0,0:0:0:0:
344,145,46153,2,0,P|337:205|334:270,1,123.75
359,350,46419,6,0,P|313:307|225:317,1,123.75
230,284,46686,2,0,P|191:303|147:298,1,82.5
182,129,46952,2,0,L|178:215,1,82.5
92,104,47219,1,0,0:0:0:0:
270,177,47352,1,0,0:0:0:0:
73,353,47485,6,0,B|64:281|64:281|76:257|76:257|69:180,1,165
3,129,47885,1,0,0:0:0:0:
118,29,48018,2,0,P|94:65|97:121,1,82.5
238,220,48284,1,0,0:0:0:0:
259,40,48417,1,0,0:0:0:0:
158,165,48551,6,0,P|209:130|287:137,1,123.75
244,312,48817,1,0,0:0:0:0:
244,312,48950,1,0,0:0:0:0:
311,250,49084,2,0,P|278:226|222:222,1,82.5
151,347,49350,2,0,L|154:237,1,82.5
165,47,49616,6,0,B|178:124|178:124|151:178,1,123.75
129,179,49882,2,0,P|86:171|32:168,1,82.5
237,219,50148,1,0,0:0:0:0:
80,75,50282,1,0,0:0:0:0:
30,276,50416,2,0,P|87:265|172:266,1,123.75
208,333,50682,6,0,B|265:328|265:328|275:335|275:335|357:327,1,123.75
353,307,50948,2,0,P|343:264|361:216,1,82.5
512,276,51215,2,0,B|473:271|473:271|462:274|462:274|408:266,1,82.5
372,91,51481,1,0,0:0:0:0:
477,180,51614,1,0,0:0:0:0:
265,268,51747,6,0,B|240:171|295:199|273:103,1,165
201,33,52147,1,0,0:0:0:0:
102,147,52280,2,0,P|143:146|183:138,1,82.5
353,227,52547,1,0,0:0:0:0:
336,23,52680,1,0,0:0:0:0:
355,247,52813,6,0,P|409:221|477:239,1,123.75
424,321,53079,1,0,0:0:0:0:
424,321,53212,1,0,0:0:0:0:
273,176,53346,5,0,0:0:0:0:
256,350,53480,1,0,0:0:0:0:
170,191,53613,5,0,0:0:0:0:
163,315,53746,1,0,0:0:0:0:
69,206,53879,6,0,L|72:281,1,74.2499977340699
170,191,54146,1,0,0:0:0:0:
110,114,54279,1,0,0:0:0:0:
72,281,54412,2,0,P|38:263|-12:267,1,74.2499977340699
111,364,54679,2,0,P|145:346|195:350,1,74.2499977340699
254,217,54945,6,0,L|248:294,1,74.2499977340699
347,367,55211,1,0,0:0:0:0:
336,270,55344,1,0,0:0:0:0:
494,315,55478,2,0,P|458:321|420:308,1,74.2499977340699
483,200,55744,2,0,P|451:217|411:218,1,74.2499977340699
419,60,56011,6,0,L|431:144,1,74.2499977340699
509,86,56277,1,0,0:0:0:0:
509,86,56410,1,0,0:0:0:0:
319,53,56544,6,0,L|307:137,1,74.2499977340699
229,79,56810,1,0,0:0:0:0:
229,79,56943,1,0,0:0:0:0:
429,133,57076,6,0,L|441:217,1,74.2499977340699
308,126,57343,2,0,L|296:210,1,74.2499977340699
439,206,57609,5,0,0:0:0:0:
452,308,57742,1,0,0:0:0:0:
297,199,57876,1,0,0:0:0:0:
281,301,58009,1,0,0:0:0:0:
131,259,58142,6,0,P|166:247|202:253,1,74.2499977340699
208,355,58409,2,0,P|173:365|137:360,1,74.2499977340699
24,274,58675,1,0,0:0:0:0:
131,259,58808,1,0,0:0:0:0:
64,174,58941,2,0,P|61:136|56:92,1,74.2499977340699
155,48,59208,6,0,P|152:86|147:130,1,74.2499977340699
241,85,59474,1,0,0:0:0:0:
148,121,59607,1,0,0:0:0:0:
224,194,59741,2,0,P|256:175|309:175,1,74.2499977340699
386,235,60007,1,0,0:0:0:0:
283,263,60140,1,0,0:0:0:0:
393,308,60274,6,0,L|385:234,1,74.2499977340699
462,140,60540,1,0,0:0:0:0:
478,260,60673,1,0,0:0:0:0:
460,123,60806,2,0,P|428:142|375:142,1,74.2499977340699
333,36,61073,2,0,P|365:55|418:55,1,74.2499977340699
310,196,61339,6,0,P|305:155|298:111,1,74.2499977340699
226,15,61606,2,0,P|221:56|214:100,1,74.2499977340699
195,212,61872,1,0,0:0:0:0:
106,137,62005,1,0,0:0:0:0:
106,137,62072,1,0,0:0:0:0:
106,137,62139,1,0,0:0:0:0:
31,225,62272,1,0,0:0:0:0:
159,304,62405,6,0,B|241:286|220:340|309:319,1,148.49999546814
355,196,62805,2,0,P|321:202|291:236,1,74.2499977340699
402,367,63071,1,0,0:0:0:0:
402,367,63138,1,0,0:0:0:0:
402,367,63204,2,0,L|403:286,1,74.2499977340699
498,170,63471,6,0,P|464:178|412:120,1,111.374996601105
425,49,63737,2,0,L|342:62,1,74.2499977340699
264,142,64004,2,0,L|347:155,1,74.2499977340699
231,29,64270,1,0,0:0:0:0:
175,118,64403,1,0,0:0:0:0:
80,30,64536,6,0,B|101:108|50:96|69:187,1,148.49999546814
146,257,64936,1,0,0:0:0:0:
146,257,65069,2,0,P|160:217|140:175,1,74.2499977340699
35,298,65336,1,0,0:0:0:0:
35,298,65469,1,0,0:0:0:0:
121,359,65602,6,0,L|195:369,1,74.2499977340699
299,271,65869,2,0,L|225:281,1,74.2499977340699
400,369,66135,2,0,L|390:295,1,74.2499977340699
308,197,66402,2,0,L|298:271,1,74.2499977340699
349,112,66668,6,0,B|264:82|280:140|199:104,1,148.49999546814
137,41,67068,1,0,0:0:0:0:
43,120,67201,2,0,L|55:204,1,74.2499977340699
159,255,67467,2,0,L|169:181,1,74.2499977340699
36,352,67734,6,0,P|75:335|174:371,1,148.49999546814
308,291,68133,2,0,P|276:288|237:309,1,74.2499977340699
395,368,68400,1,0,0:0:0:0:
395,368,68533,2,0,L|400:275,1,74.2499977340699
364,172,68799,6,0,B|309:198|266:163|266:163|274:110,1,148.49999546814
356,15,69199,1,0,0:0:0:0:
356,15,69332,2,0,P|365:52|363:95,1,74.2499977340699
462,188,69599,2,0,P|461:150|470:115,1,74.2499977340699
365,251,69865,5,0,0:0:0:0:
365,251,70131,6,0,B|286:228|306:283|211:256,1,148.49999546814
340,333,70531,1,0,0:0:0:0:
340,333,70598,1,0,0:0:0:0:
340,333,70664,2,0,P|376:327|421:343,1,74.2499977340699
251,362,70931,6,0,P|206:376|137:298,1,148.49999546814
210,184,71330,1,0,0:0:0:0:
210,184,71464,2,0,L|221:263,1,74.2499977340699
107,197,71730,2,0,L|117:123,1,74.2499977340699
205,38,71996,6,0,B|280:19|263:73|348:48,1,148.49999546814
435,143,72396,1,0,0:0:0:0:
435,143,72529,2,0,P|392:135|348:149,1,74.2499977340699
273,220,72796,1,0,0:0:0:0:
273,220,72929,1,0,0:0:0:0:
181,127,73062,6,0,L|174:281,1,148.49999546814
271,369,73462,1,0,0:0:0:0:
271,369,73595,2,0,B|282:341|282:341|270:295,1,74.2499977340699
367,198,73861,2,0,B|355:240|355:240|366:268,1,74.2499977340699
473,373,74128,6,0,B|454:291|492:320|475:213,1,148.49999546814
408,127,74528,2,0,P|367:113|284:183,1,148.49999546814
170,255,74927,1,0,0:0:0:0:
170,255,75060,1,0,0:0:0:0:
77,229,75194,6,0,L|233:206,1,148.49999546814
274,278,75593,1,0,0:0:0:0:
223,349,75727,2,0,L|149:330,1,74.2499977340699
223,207,75993,1,0,0:0:0:0:
274,278,76126,1,0,0:0:0:0:
319,182,76259,6,0,L|323:31,1,148.49999546814
405,106,76659,1,0,0:0:0:0:
405,106,76792,2,0,P|418:137|411:180,1,74.2499977340699
345,253,77059,1,0,0:0:0:0:
437,300,77192,1,0,0:0:0:0:
322,353,77325,6,0,B|248:337|268:388|173:360,1,148.49999546814
7,279,77725,2,0,P|47:269|93:292,1,74.2499977340699
216,249,77991,1,0,0:0:0:0:
216,249,78124,2,0,P|176:237|148:194,1,74.2499977340699
47,111,78391,6,0,L|172:90,1,111.374996601105
213,39,78657,1,0,0:0:0:0:
236,172,78790,1,0,0:0:0:0:
341,68,78924,5,0,0:0:0:0:
319,241,79057,1,0,0:0:0:0:
319,241,79123,1,0,0:0:0:0:
319,241,79190,2,0,L|311:155,1,74.2499977340699
481,49,79457,6,0,B|471:128|471:128|498:169,1,123.75
488,195,79723,2,0,P|451:179|385:192,1,82.5
442,345,79989,2,0,L|433:237,1,82.5
314,355,80256,1,0,0:0:0:0:
436,263,80389,1,0,0:0:0:0:
303,124,80522,6,0,P|328:195|303:266,1,123.75
284,254,80789,2,0,P|243:235|203:241,1,82.5
45,294,81055,1,0,0:0:0:0:
45,294,81188,2,0,P|85:297|122:279,1,82.5
68,206,81455,1,0,0:0:0:0:
197,362,81588,6,0,L|208:217,1,123.75
188,215,81854,2,0,L|179:132,1,82.5
206,23,82121,2,0,L|199:105,1,82.5
321,165,82387,1,0,0:0:0:0:
302,36,82520,1,0,0:0:0:0:
188,215,82654,6,0,P|139:180|70:188,1,123.75
53,168,82920,2,0,P|71:131|72:68,1,82.5
114,270,83187,1,0,0:0:0:0:
0,279,83320,1,0,0:0:0:0:
53,168,83453,1,0,0:0:0:0:
63,352,83586,1,0,0:0:0:0:
188,215,83719,6,0,B|162:135|213:165|188:73,1,123.75
215,76,83986,2,0,P|253:91|301:96,1,82.5
436,63,84252,2,0,P|403:88|374:127,1,82.5
336,261,84519,2,0,P|329:219|310:175,1,82.5
468,223,84785,6,0,P|442:284|435:372,1,123.75
406,358,85052,2,0,L|319:354,1,82.5
218,228,85318,1,0,0:0:0:0:
336,261,85451,1,0,0:0:0:0:
205,340,85584,1,0,0:0:0:0:
176,145,85718,1,0,0:0:0:0:
43,324,85851,6,0,P|84:320|147:317,1,82.5
33,231,86117,2,0,P|74:227|137:224,1,82.5
23,138,86384,2,0,P|71:133|146:129,1,123.75
176,145,86650,2,0,L|186:38,1,82.5
274,199,86917,6,0,L|264:92,1,82.5
414,134,87183,1,0,0:0:0:0:
341,47,87316,1,0,0:0:0:0:
274,199,87449,2,0,P|312:195|367:217,1,82.5
353,208,87649,1,0,0:0:0:0:
353,208,87716,1,0,0:0:0:0:
332,360,87849,1,0,0:0:0:0:
266,116,87982,6,0,B|212:112|212:112|195:123|195:123|112:117|112:117,1,123.75
116,136,88249,2,0,L|124:218,1,82.5
288,104,88515,2,0,L|296:21,1,82.5
436,36,88782,1,0,0:0:0:0:
288,104,88915,1,0,0:0:0:0:
419,227,89048,6,0,P|426:178|402:126,1,82.5
350,310,89314,1,0,0:0:0:0:
472,329,89448,1,0,0:0:0:0:
329,192,89581,2,0,L|246:197,1,82.5
111,270,89847,2,0,L|194:275,1,82.5
36,333,90114,6,0,P|14:268|45:201,1,123.75
55,194,90380,2,0,P|71:155|58:97,1,82.5
56,7,90647,2,0,P|40:46|53:104,1,82.5
161,193,90913,1,0,0:0:0:0:
136,57,91046,1,0,0:0:0:0:
345,77,91179,6,0,P|281:83|204:101,1,123.75
230,128,91446,2,0,P|260:130|328:153,1,82.5
248,332,91712,1,0,0:0:0:0:
259,223,91846,1,0,0:0:0:0:
345,289,91979,1,0,0:0:0:0:
162,266,92112,1,0,0:0:0:0:
369,292,92245,6,0,B|402:277|398:236|398:236|388:153,1,123.75
413,154,92512,2,0,L|418:72,1,82.5
234,48,92778,2,0,L|228:129,1,82.5
320,140,93044,2,0,L|325:58,1,82.5
141,34,93310,6,0,B|135:116|135:116|85:143,1,123.75
74,149,93577,2,0,L|89:261,1,82.5
192,322,93844,1,0,0:0:0:0:
184,222,93977,1,0,0:0:0:0:
92,330,94110,1,0,0:0:0:0:
84,230,94243,1,0,0:0:0:0:
272,269,94377,6,0,P|313:280|372:258,1,82.5
432,168,94643,1,0,0:0:0:0:
479,290,94776,1,0,0:0:0:0:
305,107,94909,2,0,L|313:196,1,82.5
233,49,95176,1,0,0:0:0:0:
362,37,95309,1,0,0:0:0:0:
312,189,95442,2,0,P|246:162|184:180,1,123.75
184,199,95709,6,0,B|216:237|216:237|203:362,1,165
40,274,96108,1,0,0:0:0:0:
81,270,96174,1,0,0:0:0:0:
122,267,96241,1,0,0:0:0:0:
87,361,96375,1,0,0:0:0:0:
40,274,96508,6,0,B|16:195|60:213|39:124,1,140.250002675056
132,24,96907,1,0,0:0:0:0:
132,24,97040,2,0,P|117:50|112:103,1,70.1250013375282
270,83,97307,6,0,L|195:70,1,70.1250013375282
129,186,97573,2,0,L|198:174,1,70.1250013375282
322,246,97840,2,0,P|274:236|225:268,1,105.187502006292
169,319,98106,6,0,P|187:349|195:386,1,70.1250013375282
103,249,98373,2,0,P|110:214|128:185,1,70.1250013375282
230,117,98639,1,0,0:0:0:0:
230,117,98772,1,0,0:0:0:0:
341,165,98905,2,0,L|424:173,1,70.1250013375282
491,31,99172,6,0,P|461:42|442:82,1,70.1250013375282
328,101,99438,2,0,P|322:132|347:168,1,70.1250013375282
258,23,99705,6,0,P|203:8|139:63,1,140.250002675056
48,152,100104,1,0,0:0:0:0:
48,152,100238,2,0,P|60:121|58:76,1,70.1250013375282
145,191,100504,2,0,P|185:174|282:218,2,140.250002675056
11,357,101303,6,0,L|157:332,1,140.250002675056
294,291,101703,1,0,0:0:0:0:
294,291,101836,2,0,P|265:282|219:295,1,70.1250013375282
365,345,102103,2,0,B|442:327|421:377|508:358,1,140.250002675056
430,245,102502,5,0,0:0:0:0:
337,203,102635,2,0,P|330:176|339:132,1,70.1250013375282
421,75,102902,6,0,L|276:44,1,140.250002675056
150,120,103301,1,0,0:0:0:0:
150,120,103435,2,0,P|178:107|232:110,1,70.1250013375282
262,214,103701,2,0,P|211:199|135:252,2,140.250002675056
56,379,104500,6,0,L|39:217,1,140.250002675056
144,324,104900,1,0,0:0:0:0:
144,324,105033,2,0,P|178:335|223:320,1,70.1250013375282
262,214,105300,6,0,L|277:145,1,70.1250013375282
375,312,105566,2,0,L|390:380,1,70.1250013375282
460,232,105833,2,0,P|434:196|459:131,1,105.187502006292
491,65,106099,6,0,B|403:29|420:106|324:66,1,165
185,161,106498,1,0,0:0:0:0:
268,213,106631,2,0,B|288:174|288:174|276:121,1,82.5
121,11,106898,2,0,L|111:118,1,82.5
10,261,107164,6,0,P|47:246|123:285,1,123.75
170,349,107431,2,0,L|69:372,1,82.5
192,244,107697,1,0,0:0:0:0:
263,371,107830,1,0,0:0:0:0:
349,222,107964,2,0,P|306:215|272:241,1,82.5
423,355,108230,6,0,B|395:269|456:293|434:181,1,165
319,41,108630,1,0,0:0:0:0:
267,211,108763,2,0,L|364:224,1,82.5
173,117,109029,1,0,0:0:0:0:
130,343,109162,1,0,0:0:0:0:
43,167,109296,6,0,B|140:149|99:208|200:198,1,148.49999546814
250,92,109562,2,0,P|223:53|118:58,1,148.49999546814
244,285,109829,1,0,0:0:0:0:
360,136,109962,1,0,0:0:0:0:
447,365,110095,1,0,0:0:0:0:
447,365,110361,6,0,P|379:348|298:340,1,136.125004154205
244,381,110628,2,0,P|277:340|283:296,1,90.7500027694703
215,155,110894,1,0,0:0:0:0:
112,297,111027,1,0,0:0:0:0:
50,85,111161,2,0,P|59:41|89:7,1,90.7500027694703
364,174,111427,6,0,L|200:199,1,136.125004154205
155,207,111694,1,0,0:0:0:0:
281,42,111827,1,0,0:0:0:0:
343,274,111960,1,0,0:0:0:0:
231,105,112093,1,0,0:0:0:0:
343,274,112226,2,0,L|432:260,1,90.7500027694703
269,381,112493,6,0,P|216:363|167:358,1,90.7500027694703
0,185,112759,2,0,P|44:177|87:162,1,90.7500027694703
168,62,113026,1,0,0:0:0:0:
262,256,113159,1,0,0:0:0:0:
371,11,113292,2,0,P|415:18|458:33,1,90.7500027694703
432,267,113559,6,0,B|372:278|372:278|321:245|321:245|262:256,1,181.500005538941
112,355,113958,1,0,0:0:0:0:
11,101,114091,5,0,0:0:0:0:
65,262,114225,1,0,0:0:0:0:
225,40,114358,1,0,0:0:0:0:
175,300,114491,1,0,0:0:0:0:
11,101,114624,6,0,P|63:33|155:55,1,181.500005538941
233,240,115024,1,0,0:0:0:0:
478,182,115157,6,0,P|426:114|334:136,1,181.500005538941
256,321,115557,1,0,0:0:0:0:
76,127,115690,6,0,B|109:94|109:94|152:91,1,90.7500027694703
69,314,115956,2,0,B|36:281|36:281|33:237,1,90.7500027694703
256,321,116223,2,0,B|223:354|223:354|179:356,1,90.7500027694703
263,134,116489,2,0,B|296:167|296:167|298:210,1,90.7500027694703
19,55,116756,6,0,L|162:74,1,136.125004154205
223,31,117022,1,0,0:0:0:0:
101,232,117155,1,0,0:0:0:0:
376,114,117289,2,0,P|393:74|384:22,1,90.7500027694703
235,288,117555,2,0,P|218:248|227:196,1,90.7500027694703
463,353,117821,6,0,P|414:329|369:322,1,90.7500027694703
166,184,118088,2,0,P|215:160|260:153,1,90.7500027694703
428,55,118354,1,0,0:0:0:0:
323,275,118487,1,0,0:0:0:0:
323,275,118554,1,0,0:0:0:0:
323,275,118621,1,0,0:0:0:0:
254,0,118754,1,0,0:0:0:0:
43,157,118887,6,0,L|65:306,1,136.125004154205
28,361,119154,2,0,P|73:317|113:310,1,90.7500027694703
244,238,119420,1,0,0:0:0:0:
351,362,119553,1,0,0:0:0:0:
423,159,119686,2,0,P|423:107|414:60,1,90.7500027694703
178,7,119953,6,0,P|148:69|188:134,1,136.125004154205
249,146,120219,1,0,0:0:0:0:
21,225,120352,1,0,0:0:0:0:
140,364,120486,1,0,0:0:0:0:
181,196,120619,1,0,0:0:0:0:
140,364,120752,2,0,P|87:358|50:340,1,90.7500027694703
249,146,121019,6,0,L|267:240,1,90.7500027694703
393,384,121285,2,0,L|410:294,1,90.7500027694703
504,68,121551,1,0,0:0:0:0:
381,221,121685,1,0,0:0:0:0:
284,0,121818,2,0,P|238:1|197:31,1,90.7500027694703
2,168,122084,6,0,P|44:232|150:207,1,181.500005538941
269,95,122484,1,0,0:0:0:0:
429,331,122617,5,0,0:0:0:0:
480,145,122750,1,0,0:0:0:0:
329,367,122884,1,0,0:0:0:0:
269,95,123017,1,0,0:0:0:0:
429,331,123150,6,0,P|488:324|484:209,1,181.500005538941
293,273,123550,1,0,0:0:0:0:
134,140,123683,6,0,P|104:106|102:62,1,90.7500027694703
284,0,123949,2,0,P|313:33|315:77,1,90.7500027694703
47,269,124216,6,0,P|106:241|180:221,1,136.125004154205
245,181,124482,1,0,0:0:0:0:
158,363,124615,1,0,0:0:0:0:
401,168,124749,2,0,P|407:115|389:77,1,90.7500027694703
238,293,125015,2,0,B|286:264|286:264|387:291,1,136.125004154205
418,335,125281,6,0,P|402:292|409:248,1,90.7500027694703
507,141,125548,1,0,0:0:0:0:
276,187,125681,1,0,0:0:0:0:
435,11,125814,1,0,0:0:0:0:
409,248,125947,1,0,0:0:0:0:
292,41,126081,2,0,P|231:41|193:52,1,90.7500027694703
4,153,126347,6,0,P|65:153|103:164,1,90.7500027694703
325,279,126614,2,0,P|280:288|235:286,1,90.7500027694703
27,323,126880,5,0,0:0:0:0:
175,86,127013,1,0,0:0:0:0:
175,86,127080,1,0,0:0:0:0:
175,86,127146,1,0,0:0:0:0:
244,384,127280,1,0,0:0:0:0:
253,58,127413,6,0,P|192:6|116:28,1,165
97,114,127812,1,0,0:0:0:0:
156,166,127945,2,0,P|197:164|233:143,1,82.5
325,15,128212,6,0,L|338:96,1,82.5
443,180,128478,1,0,0:0:0:0:
456,98,128611,1,0,0:0:0:0:
442,180,128745,2,0,L|429:261,1,82.5
223,352,129011,6,0,P|200:319|200:278,1,82.5
377,319,129278,2,0,P|360:356|325:377,1,82.5
271,202,129545,2,0,P|312:199|347:219,1,82.5
131,355,129810,5,0,0:0:0:0:
291,292,129944,1,0,0:0:0:0:
291,292,130010,1,0,0:0:0:0:
291,292,130077,1,0,0:0:0:0:
53,248,130210,1,0,0:0:0:0:
211,64,130343,1,0,0:0:0:0:
291,292,130476,1,0,0:0:0:0:
134,105,130610,6,0,P|120:57|136:11,1,82.5
329,139,130876,1,0,0:0:0:0:
81,212,131009,1,0,0:0:0:0:
291,292,131142,2,0,P|343:305|380:306,1,82.5
134,105,131409,2,0,P|92:108|53:119,1,82.5
159,355,131675,6,0,P|177:296|175:223,1,123.75
123,186,131942,1,0,0:0:0:0:
20,296,132075,1,0,0:0:0:0:
236,351,132208,2,0,L|331:337,1,82.5
400,152,132475,2,0,L|305:138,1,82.5
442,335,132741,6,0,P|469:289|465:233,1,98.9999969787599
267,0,133007,2,0,P|240:46|244:102,1,98.9999969787599
219,292,133274,5,0,0:0:0:0:
99,50,133407,1,0,0:0:0:0:
17,349,133540,1,0,0:0:0:0:
173,115,133673,1,0,0:0:0:0:
313,384,133807,1,0,0:0:0:0:
81,364,143398,6,0,P|58:312|116:233,1,148.49999546814
282,309,143798,1,0,0:0:0:0:
282,309,143931,2,0,B|205:269|217:337|131:302,1,148.49999546814
214,211,144331,1,0,0:0:0:0:
214,211,144464,6,0,P|249:206|294:220,1,74.2499977340699
369,150,144730,2,0,P|390:177|401:223,1,74.2499977340699
474,295,144997,1,0,0:0:0:0:
474,295,145130,1,0,0:0:0:0:
390,369,145263,2,0,L|379:283,1,74.2499977340699
484,146,145530,6,0,L|473:296,1,148.49999546814
401,214,145929,1,0,0:0:0:0:
401,214,146062,2,0,P|391:179|369:150,1,74.2499977340699
286,215,146329,2,0,P|250:206|214:211,1,74.2499977340699
117,163,146595,6,0,L|135:315,1,148.49999546814
214,210,146995,1,0,0:0:0:0:
214,210,147128,2,0,P|220:172|203:130,1,74.2499977340699
278,70,147395,2,0,P|248:45|203:39,1,74.2499977340699
320,163,147661,6,0,P|372:177|450:96,1,165
494,218,148061,1,0,0:0:0:0:
494,218,148194,2,0,L|483:311,1,82.5
367,384,148460,2,0,L|357:302,1,82.5
269,221,148727,6,0,P|207:203|142:275,1,165
37,132,149260,1,0,0:0:0:0:
37,132,149393,1,0,0:0:0:0:
112,78,149526,2,0,P|151:95|203:85,1,82.5
268,20,149792,6,0,L|279:162,1,123.75
334,207,150059,2,0,P|354:167|350:114,1,82.5
194,177,150325,2,0,L|102:192,1,82.5
338,289,150592,2,0,L|430:304,1,82.5
218,360,150858,5,0,0:0:0:0:
67,275,150991,1,0,0:0:0:0:
67,275,151058,1,0,0:0:0:0:
67,275,151125,1,0,0:0:0:0:
232,263,151258,1,0,0:0:0:0:
109,364,151391,1,0,0:0:0:0:
112,190,151524,1,0,0:0:0:0:
232,263,151657,2,0,L|142:276,1,82.5
281,186,151924,6,0,L|443:205,1,148.49999546814
350,96,152324,1,0,0:0:0:0:
350,96,152457,2,0,P|340:55|361:10,1,74.2499977340699
281,186,152723,2,0,P|251:155|247:106,1,74.2499977340699
178,29,152990,6,0,L|94:38,1,74.2499977340699
5,122,153256,1,0,0:0:0:0:
5,122,153389,1,0,0:0:0:0:
87,160,153522,2,0,B|106:193|106:193|98:231,1,74.2499977340699
32,314,153789,2,0,L|114:326,1,74.2499977340699
223,374,154055,6,0,B|215:290|256:317|243:220,1,148.49999546814
321,300,154455,1,0,0:0:0:0:
321,300,154588,2,0,P|355:307|403:289,1,74.2499977340699
464,214,154855,1,0,0:0:0:0:
464,214,154988,1,0,0:0:0:0:
386,97,155121,6,0,P|360:120|356:240,2,148.49999546814
479,29,155787,1,0,0:0:0:0:
479,29,155920,2,0,L|381:7,1,74.2499977340699
228,90,156187,6,0,B|269:70|269:70|393:97,1,165
258,171,156586,1,0,0:0:0:0:
258,171,156720,2,0,P|217:179|176:151,1,82.5
49,109,156986,2,0,L|65:196,1,82.5
121,377,157252,6,0,P|98:333|142:227,1,165
239,369,157785,1,0,0:0:0:0:
239,369,157919,1,0,0:0:0:0:
283,286,158052,2,0,L|369:308,1,82.5
480,370,158318,6,0,B|457:295|504:323|488:227,1,123.75
461,171,158585,2,0,P|428:196|413:246,1,82.5
322,61,158851,2,0,L|412:82,1,82.5
287,207,159117,2,0,L|197:228,1,82.5
47,56,159384,6,0,P|107:40|164:96,1,123.75
212,145,159650,2,0,P|152:162|129:238,1,123.75
71,283,159917,2,0,L|151:301,1,82.5
287,207,160183,2,0,L|197:228,1,82.5
278,351,160450,6,0,B|257:267|311:286|283:193,1,148.49999546814
364,318,160849,1,0,0:0:0:0:
452,233,160982,2,0,P|414:230|374:225,1,74.2499977340699
241,122,161249,2,0,P|279:119|319:114,1,74.2499977340699
406,135,161515,1,0,0:0:0:0:
378,225,161648,1,0,0:0:0:0:
315,115,161782,2,0,P|328:79|363:49,1,74.2499977340699
378,225,162048,6,0,P|320:213|264:238,1,111.374996601105
258,252,162315,2,0,P|274:286|269:349,1,74.2499977340699
135,358,162581,2,0,P|165:337|186:307,1,74.2499977340699
174,211,162847,5,0,0:0:0:0:
102,272,162981,1,0,0:0:0:0:
155,110,163114,1,0,0:0:0:0:
83,171,163248,1,0,0:0:0:0:
49,55,163380,2,0,P|104:51|160:102,1,111.374996601105
155,110,163647,6,0,P|223:78|311:101,1,148.49999546814
236,173,164046,1,0,0:0:0:0:
335,242,164180,2,0,P|326:205|327:154,1,74.2499977340699
422,116,164446,6,0,L|412:189,1,74.2499977340699
344,315,164712,2,0,L|334:241,1,74.2499977340699
500,165,164979,2,0,L|490:238,1,74.2499977340699
264,356,165245,6,0,L|244:218,1,111.374996601105
235,157,165512,1,0,0:0:0:0:
156,262,165645,1,0,0:0:0:0:
132,105,165778,1,0,0:0:0:0:
162,287,165911,1,0,0:0:0:0:
192,40,166045,5,0,0:0:0:0:
278,30,166178,1,0,0:0:0:0:
351,78,166311,1,0,0:0:0:0:
377,161,166444,1,0,0:0:0:0:
308,225,166577,2,0,P|288:190|290:127,1,74.2499977340699
368,287,166844,6,0,P|307:256|212:290,1,148.49999546814
200,360,167243,1,0,0:0:0:0:
171,208,167377,2,0,P|151:240|146:292,1,74.2499977340699
34,194,167643,6,0,P|95:225|190:191,1,148.49999546814
202,121,168042,1,0,0:0:0:0:
231,273,168176,2,0,P|251:241|256:189,1,74.2499977340699
300,8,168442,6,0,P|280:73|329:147,1,148.49999546814
443,68,168842,1,0,0:0:0:0:
443,68,168975,2,0,P|404:57|359:71,1,74.2499977340699
391,225,169242,6,0,P|395:188|409:137,1,74.2499977340699
308,248,169508,1,0,0:0:0:0:
477,204,169641,1,0,0:0:0:0:
317,139,169775,1,0,0:0:0:0:
337,336,169908,1,0,0:0:0:0:
297,122,170041,6,0,B|263:134|225:115|225:115|184:93|138:119,1,148.49999546814
184,203,170441,1,0,0:0:0:0:
200,14,170574,2,0,P|237:24|275:31,1,74.2499977340699
352,200,170840,6,0,P|315:210|277:217,1,74.2499977340699
339,359,171107,2,0,P|303:345|265:335,1,74.2499977340699
456,282,171373,2,0,L|381:279,1,74.2499977340699
199,270,171640,5,0,0:0:0:0:
144,26,171773,1,0,0:0:0:0:
144,26,171839,1,0,0:0:0:0:
144,26,171906,1,0,0:0:0:0:
45,252,172039,1,0,0:0:0:0:
259,127,172172,1,0,0:0:0:0:
12,103,172305,1,0,0:0:0:0:
131,154,172439,5,0,0:0:0:0:
258,126,172705,6,0,P|248:99|251:64,1,61.875
336,58,172972,2,0,P|346:85|342:119,1,61.875
293,297,173238,6,0,P|289:247|307:202,1,99
402,218,173505,2,0,P|405:267|387:312,1,99
239,357,173771,6,0,P|169:323|66:319,1,165
22,384,174170,1,0,0:0:0:0:
148,242,174303,1,0,0:0:0:0:
148,242,174570,6,0,P|111:212|74:202,1,82.5
154,68,174836,2,0,P|146:115|156:152,1,82.5
0,150,175103,2,0,P|44:132|71:105,1,82.5
76,16,175369,5,0,0:0:0:0:
76,16,175636,1,0,0:0:0:0:
154,68,175769,1,0,0:0:0:0:
0,150,175902,1,0,0:0:0:0:
223,107,176035,1,0,0:0:0:0:
93,283,176168,6,0,L|77:199,1,82.5
223,107,176435,2,0,L|207:188,1,82.5
353,283,176701,2,0,L|337:201,1,82.5
296,51,176968,6,0,P|331:110|433:104,1,165
492,58,177367,1,0,0:0:0:0:
337,201,177501,1,0,0:0:0:0:
337,201,177767,6,0,P|360:247|391:263,1,82.5
274,373,178033,2,0,P|302:330|300:295,1,82.5
455,342,178300,2,0,P|403:338|374:357,1,82.5
225,312,178566,5,0,0:0:0:0:
301,300,178699,1,0,0:0:0:0:
198,384,178833,1,0,0:0:0:0:
176,252,178966,1,0,0:0:0:0:
73,338,179099,1,0,0:0:0:0:
73,338,179366,5,0,0:0:0:0:
225,312,179499,1,0,0:0:0:0:
47,186,179632,1,0,0:0:0:0:
199,160,179765,1,0,0:0:0:0:
136,249,179898,2,0,B|58:280|58:280|12:267,1,123.75
6,119,180165,6,0,B|46:99|85:108|111:141|111:141|117:109|143:92,1,165
289,60,180564,1,0,0:0:0:0:
230,8,180698,2,0,P|207:47|214:91,1,82.5
348,112,180964,6,0,P|371:73|364:29,1,82.5
379,188,181231,2,0,P|401:227|442:243,1,82.5
297,176,181497,2,0,P|251:175|217:203,1,82.5
249,383,181763,6,0,B|303:346|303:346|281:250,1,165
216,311,182163,1,0,0:0:0:0:
376,371,182296,2,0,P|420:361|454:342,1,82.5
297,176,182563,6,0,L|197:193,1,82.5
104,229,182829,1,0,0:0:0:0:
177,109,182962,1,0,0:0:0:0:
234,265,183096,2,0,P|234:305|229:350,1,82.5
51,292,183362,6,0,P|20:236|72:154,1,165
238,28,183894,1,0,0:0:0:0:
177,109,184028,1,0,0:0:0:0:
76,96,184161,2,0,P|65:52|67:12,1,82.5
215,202,184427,6,0,L|196:374,1,165
489,206,184960,1,0,0:0:0:0:
390,182,185093,1,0,0:0:0:0:
319,256,185227,2,0,L|328:342,1,82.5
415,104,185493,6,0,B|366:91|338:119|338:119|299:146|259:128,1,165
182,30,185893,1,0,0:0:0:0:
83,102,186026,2,0,L|99:187,1,82.5
231,292,186292,2,0,L|246:210,1,82.5
93,331,186559,6,0,B|140:319|165:341|165:341|198:377|246:370,1,148.49999546814
309,298,186825,2,0,P|283:233|196:224,1,148.49999546814
121,220,187092,5,0,0:0:0:0:
337,173,187225,1,0,0:0:0:0:
66,140,187358,1,0,0:0:0:0:
345,75,187491,1,0,0:0:0:0:
40,18,187624,6,0,B|99:24|99:24|115:36|115:36|210:46,1,136.125004154205
255,86,187891,2,0,L|355:73,1,90.7500027694703
401,285,188157,1,0,0:0:0:0:
487,90,188290,1,0,0:0:0:0:
391,306,188424,2,0,P|352:284|289:288,1,90.7500027694703
33,314,188690,6,0,P|86:353|152:343,1,136.125004154205
217,277,188957,2,0,L|225:175,1,90.7500027694703
0,175,189223,1,0,0:0:0:0:
235,93,189356,1,0,0:0:0:0:
109,265,189489,1,0,0:0:0:0:
126,3,189622,1,0,0:0:0:0:
217,277,189756,6,0,P|261:284|326:288,1,90.7500027694703
90,164,190022,2,0,P|46:171|-19:175,1,90.7500027694703
235,93,190289,1,0,0:0:0:0:
152,342,190422,1,0,0:0:0:0:
242,71,190555,2,0,P|286:78|351:82,1,90.7500027694703
387,337,190822,6,0,B|408:301|397:256|397:256|382:238|382:238|363:195|407:131,1,181.500005538941
485,210,191221,1,0,0:0:0:0:
223,274,191354,5,0,0:0:0:0:
332,81,191488,1,0,0:0:0:0:
387,337,191621,1,0,0:0:0:0:
326,57,191754,1,0,0:0:0:0:
102,352,191887,6,0,B|176:347|176:347|200:362|200:362|312:354,1,181.500005538941
81,355,192287,1,0,0:0:0:0:
386,166,192420,6,0,B|311:161|311:161|287:176|287:176|175:168,1,181.500005538941
407,169,192820,1,0,0:0:0:0:
83,0,192953,6,0,B|190:8,1,90.7500027694703
511,150,193219,5,0,0:0:0:0:
269,258,193353,1,0,0:0:0:0:
402,29,193486,1,0,0:0:0:0:
430,293,193619,1,0,0:0:0:0:
252,96,193752,2,0,P|207:87|134:119,1,90.7500027694703
103,371,194019,6,0,B|97:305|97:305|101:297|101:297|93:195,1,136.125004154205
90,146,194285,1,0,0:0:0:0:
0,279,194418,1,0,0:0:0:0:
206,178,194552,2,0,L|198:268,1,90.7500027694703
304,328,194818,2,0,L|296:237,1,90.7500027694703
186,15,195084,6,0,P|233:22|292:26,1,90.7500027694703
509,171,195351,2,0,P|462:178|403:182,1,90.7500027694703
206,178,195617,5,0,0:0:0:0:
403,35,195750,1,0,0:0:0:0:
403,35,195817,1,0,0:0:0:0:
403,35,195884,1,0,0:0:0:0:
385,285,196017,1,0,0:0:0:0:
276,25,196150,6,0,B|191:46|228:-8|117:20,1,136.125004154205
67,70,196417,2,0,P|75:118|80:169,1,90.7500027694703
277,125,196683,1,0,0:0:0:0:
59,49,196816,1,0,0:0:0:0:
154,280,196949,2,0,P|158:234|166:190,1,90.7500027694703
406,113,197216,6,0,P|339:102|249:149,1,136.125004154205
295,219,197482,2,0,P|343:218|397:245,1,90.7500027694703
154,280,197749,1,0,0:0:0:0:
324,314,197882,1,0,0:0:0:0:
276,124,198015,1,0,0:0:0:0:
227,356,198148,1,0,0:0:0:0:
281,101,198282,6,0,P|233:90|189:95,1,90.7500027694703
324,314,198548,2,0,P|372:325|416:320,1,90.7500027694703
154,280,198814,1,0,0:0:0:0:
376,224,198948,1,0,0:0:0:0:
152,255,199081,2,0,P|147:209|134:148,1,90.7500027694703
395,43,199347,6,0,P|380:141|375:236,1,181.500005538941
486,130,199747,1,0,0:0:0:0:
271,173,199880,5,0,0:0:0:0:
488,240,200013,1,0,0:0:0:0:
240,266,200147,1,0,0:0:0:0:
512,238,200280,1,0,0:0:0:0:
167,321,200413,6,0,B|139:277|158:232|158:232|178:188|156:134,1,181.500005538941
170,345,200813,1,0,0:0:0:0:
67,24,200946,6,0,B|39:67|58:112|58:112|78:156|56:210,1,181.500005538941
70,0,201346,1,0,0:0:0:0:
258,207,201479,6,0,P|254:162|282:100,1,90.7500027694703
290,369,201745,1,0,0:0:0:0:
344,171,201878,1,0,0:0:0:0:
490,318,202012,1,0,0:0:0:0:
228,297,202145,1,0,0:0:0:0:
511,315,202278,2,0,P|504:264|496:192,1,90.7500027694703
364,36,202544,6,0,P|358:81|340:187,1,136.125004154205
258,207,202811,1,0,0:0:0:0:
455,122,202944,1,0,0:0:0:0:
258,26,203077,2,0,P|264:83|265:133,1,90.7500027694703
165,163,203344,2,0,P|171:106|172:56,1,90.7500027694703
4,214,203610,6,0,P|46:231|106:219,1,90.7500027694703
271,274,203877,2,0,P|229:257|169:269,1,90.7500027694703
328,355,204143,5,0,0:0:0:0:
399,155,204276,1,0,0:0:0:0:
399,155,204343,1,0,0:0:0:0:
399,155,204409,1,0,0:0:0:0:
498,346,204543,1,0,0:0:0:0:
470,82,204676,6,0,P|394:52|313:95,1,165
295,176,205075,1,0,0:0:0:0:
387,234,205208,2,0,P|400:199|393:136,1,82.5
258,33,205475,6,0,P|294:52|321:84,1,82.5
158,66,205741,2,0,P|121:72|70:109,1,82.5
48,278,206008,2,0,P|46:237|60:198,1,82.5
302,262,206274,6,0,B|198:287|248:223|118:258,1,165
180,339,206674,1,0,0:0:0:0:
263,175,206807,2,0,P|257:133|255:90,1,82.5
492,40,207073,6,0,P|452:20|392:20,1,82.5
351,133,207340,2,0,P|391:113|451:113,1,82.5
491,229,207606,2,0,P|451:209|391:209,1,82.5
323,352,207873,6,0,L|316:239,1,82.5
140,314,208139,2,0,L|240:364,1,82.5
263,175,208405,2,0,L|169:236,1,82.5
138,76,208672,1,0,0:0:0:0:
82,222,208805,1,0,0:0:0:0:
140,49,208938,6,0,P|180:61|231:61,1,82.5
317,269,209205,2,0,P|356:257|397:255,1,82.5
446,42,209471,1,0,0:0:0:0:
397,255,209604,1,0,0:0:0:0:
212,153,209738,1,0,0:0:0:0:
464,138,209871,1,0,0:0:0:0:
218,326,210004,6,0,L|213:209,1,82.5
356,0,210270,2,0,L|352:82,1,82.5
110,105,210537,5,0,0:0:0:0:
437,146,210670,1,0,0:0:0:0:
87,204,210803,5,0,0:0:0:0:
464,138,210936,1,0,0:0:0:0:
175,350,211070,5,0,0:0:0:0:
110,105,211203,1,0,0:0:0:0:
199,347,211336,5,0,0:0:0:0:
194,41,211469,1,0,0:0:0:0:
337,350,211603,5,0,0:0:0:0:
402,105,211736,1,0,0:0:0:0:
313,347,211869,5,0,0:0:0:0:
318,41,212002,1,0,0:0:0:0:
56,224,212135,6,0,L|143:209,1,82.5
280,139,212402,2,0,P|222:175|241:268,1,165
458,347,212935,6,0,L|371:332,1,82.5
234,262,213202,2,0,P|292:298|273:391,1,165
102,101,213734,6,0,L|189:86,1,82.5
326,16,214001,2,0,P|268:52|287:145,1,165
494,264,214533,6,0,B|432:260|425:175|425:175|372:246|306:198,1,247.5
347,304,215066,2,0,B|388:295|388:295|418:334,1,82.5
158,333,215333,6,0,L|172:241,1,82.5
319,206,215599,2,0,P|240:205|203:136,1,165
42,9,216132,6,0,L|56:101,1,82.5
203,136,216398,2,0,P|124:136|87:205,1,165
480,79,216931,6,0,L|466:171,1,82.5
319,206,217197,2,0,P|397:206|434:275,1,165
52,263,217730,6,0,B|20:236|20:236|59:221,1,82.5
185,330,217997,2,0,B|177:370|177:370|145:344,1,82.5
176,182,218263,2,0,B|214:168|214:168|207:208,1,82.5
44,99,218530,6,0,L|134:82,1,82.5
265,9,218796,2,0,P|234:54|239:93,1,82.5
295,193,219063,2,0,P|326:148|321:109,1,82.5
466,260,219329,6,0,L|376:243,1,82.5
214,160,219595,1,0,0:0:0:0:
306,341,219729,1,0,0:0:0:0:
214,160,219862,2,0,P|208:115|226:77,1,82.5
56,289,220128,6,0,L|146:272,1,82.5
296,203,220395,1,0,0:0:0:0:
204,384,220529,1,0,0:0:0:0:
296,203,220662,2,0,P|302:158|284:120,1,82.5
151,72,220928,5,0,0:0:0:0:
384,152,221061,1,0,0:0:0:0:
151,72,221194,1,0,0:0:0:0:
384,152,221327,1,0,0:0:0:0:
240,0,221460,2,0,L|230:98,1,82.5
53,249,221727,6,0,L|144:232,1,82.5
296,203,221993,1,0,0:0:0:0:
296,203,222526,6,0,L|235:132,1,82.5
134,15,222792,1,0,0:0:0:0:
134,15,223325,6,0,L|103:102,1,82.5
296,203,223592,2,0,L|235:132,1,82.5
53,249,223858,2,0,L|144:232,1,82.5
89,7,224125,6,0,L|81:99,1,82.5
324,168,224392,2,0,L|247:115,1,82.5
68,291,224658,2,0,L|151:251,1,82.5
310,26,224924,6,0,B|254:34|254:34|240:47|240:47|163:60,1,136.125004154205
114,109,225190,1,0,0:0:0:0:
218,295,225323,2,0,B|241:255|241:255|228:201,1,90.7500027694703
45,169,225590,1,0,0:0:0:0:
52,378,225723,6,0,L|153:352,1,90.7500027694703
304,154,225989,2,0,L|203:128,1,90.7500027694703
304,292,226256,1,0,0:0:0:0:
412,112,226389,1,0,0:0:0:0:
500,298,226522,6,0,P|463:321|395:242,1,136.125004154205
419,200,226789,1,0,0:0:0:0:
327,374,226922,2,0,P|287:380|238:350,1,90.7500027694703
202,164,227188,1,0,0:0:0:0:
81,363,227321,6,0,B|88:315|88:315|79:288|79:288|90:206,1,136.125004154205
94,149,227588,1,0,0:0:0:0:
216,279,227721,1,0,0:0:0:0:
226,43,227854,1,0,0:0:0:0:
86,229,227987,1,0,0:0:0:0:
17,35,228121,6,0,B|71:20|71:20|155:43,1,136.125004154205
194,115,228387,1,0,0:0:0:0:
331,8,228520,2,0,B|313:46|313:46|321:101,1,90.7500027694703
360,280,228787,1,0,0:0:0:0:
512,142,228920,6,0,B|441:114|457:176|364:147,1,136.125004154205
231,191,229186,2,0,P|269:184|333:215,1,90.7500027694703
512,374,229453,2,0,P|473:370|419:324,1,90.7500027694703
203,286,229719,6,0,P|257:271|335:328,1,136.125004154205
253,355,229986,1,0,0:0:0:0:
154,216,230119,1,0,0:0:0:0:
16,378,230252,1,0,0:0:0:0:
83,128,230385,1,0,0:0:0:0:
203,286,230519,6,0,P|149:301|71:244,1,136.125004154205
154,216,230786,1,0,0:0:0:0:
253,355,230918,1,0,0:0:0:0:
277,117,231051,1,0,0:0:0:0:
81,264,231185,1,0,0:0:0:0:
368,222,231318,6,0,L|226:196,1,136.125004154205
154,216,231584,1,0,0:0:0:0:
263,35,231717,2,0,B|287:64|287:64|275:123,1,90.7500027694703
223,292,231984,1,0,0:0:0:0:
14,117,232117,6,0,B|97:89|68:152|163:122,1,136.125004154205
171,28,232384,2,0,P|125:14|75:31,1,90.7500027694703
235,203,232650,2,0,P|283:204|326:175,1,90.7500027694703
43,196,232916,6,0,L|55:337,1,136.125004154205
119,373,233183,1,0,0:0:0:0:
235,203,233316,2,0,P|186:201|143:230,1,90.7500027694703
302,384,233582,1,0,0:0:0:0:
388,187,233716,6,0,B|374:166|385:130|385:130|355:163|319:161|319:161|351:253|296:225|321:321,1,272.250008308411
466,157,234249,1,0,0:0:0:0:
219,97,234382,1,0,0:0:0:0:
477,75,234515,6,0,L|463:178,1,82.5
427,357,234781,2,0,L|414:267,1,82.5
296,85,235048,2,0,P|240:84|200:116,1,82.5
166,361,235314,2,0,P|190:324|178:246,1,123.75
122,198,235581,6,0,L|33:216,1,82.5
275,157,235847,2,0,L|364:175,1,82.5
196,26,236114,2,0,L|182:117,1,82.5
286,342,236380,6,0,P|297:304|271:249,1,82.5
451,115,236646,2,0,P|438:153|449:192,1,82.5
485,375,236913,2,0,P|441:384|403:364,1,82.5
336,118,237179,6,0,L|352:222,1,90.7500027694703
138,380,237446,2,0,L|154:272,1,98.9999969787599
42,66,237712,6,0,B|91:43|138:73|138:73|110:118|119:182,1,197.99999395752
241,345,238112,1,0,0:0:0:0:
241,345,238245,2,0,P|260:302|237:245,1,98.9999969787599
277,43,238511,6,0,B|322:21|387:60|358:79|416:120|485:92,1,214.49999018097
197,91,238911,1,0,0:0:0:0:
197,91,239044,2,0,P|181:132|200:195,1,107.249995090485
461,373,239311,6,0,P|483:319|346:264,1,230.99999295044
123,323,239710,1,0,0:0:0:0:
203,364,239844,2,0,P|243:378|315:351,1,115.49999647522
106,18,240110,6,0,L|86:156,1,123.750004720688
310,355,240376,2,0,L|292:232,1,123.750004720688
412,33,240643,2,0,B|376:17|376:17|282:37,1,123.750004720688
159,241,240909,5,0,0:0:0:0:
385,292,241043,1,0,0:0:0:0:
142,223,241176,1,0,0:0:0:0:
424,177,241309,1,0,0:0:0:0:
100,125,241442,5,0,0:0:0:0:
310,355,241575,1,0,0:0:0:0:
213,51,241709,1,0,0:0:0:0:
74,351,241842,1,0,0:0:0:0:
323,152,241975,5,0,0:0:0:0:
169,377,242108,1,0,0:0:0:0:
328,133,242241,1,0,0:0:0:0:
17,287,242375,1,0,0:0:0:0:
383,356,242508,6,0,B|394:261|410:169|410:169|384:197|360:225,1,259.874992069245
341,205,243041,2,0,P|334:165|322:110,1,74.2499977340699
461,21,243307,6,0,P|432:43|396:47,1,74.2499977340699
326,132,243574,2,0,P|290:126|261:104,1,74.2499977340699
147,147,243840,2,0,P|116:101|116:46,1,111.374996601105
146,24,244106,6,0,B|204:33|204:33|234:14|234:14|308:12,1,148.49999546814
369,60,244506,1,0,0:0:0:0:
254,177,244639,2,0,P|256:139|261:102,1,74.2499977340699
512,125,244906,6,0,B|472:117|472:117|416:135,1,74.2499977340699
378,263,245172,2,0,B|338:273|338:273|281:259,1,74.2499977340699
260,103,245439,2,0,B|220:95|220:95|164:113,1,74.2499977340699
54,296,245705,6,0,B|2:225|45:132|136:135|178:228|134:300,1,296.99999093628
111,368,246371,1,0,0:0:0:0:
237,230,246504,6,0,B|271:230|271:230|278:233|278:233|311:235,1,74.2499977340699
300,344,246771,2,0,B|266:344|266:344|259:340|259:340|225:338,1,74.2499977340699
376,293,247037,2,0,B|439:272|430:314|506:289,1,111.374996601105
509,268,247304,6,0,P|497:189|498:105,1,148.49999546814
503,26,247703,1,0,0:0:0:0:
468,127,247836,2,0,P|430:134|389:121,1,74.2499977340699
178,0,248103,6,0,P|184:48|186:80,1,74.2499977340699
313,66,248369,2,0,P|303:113|299:145,1,74.2499977340699
85,55,248636,2,0,P|91:103|93:135,1,74.2499977340699
396,125,248902,6,0,B|379:172|372:210|372:210|420:255|406:312|406:312|370:301|340:314,1,259.874992069245
335,295,249435,2,0,P|298:281|250:283,1,74.2499977340699
6,297,249701,6,0,B|43:269|88:287|88:287|117:348|191:331|191:331|171:300|177:266,1,259.874992069245
178,263,250234,2,0,P|190:222|186:173,1,74.2499977340699
0,0,250501,6,0,B|34:14|34:14|95:15,1,74.2499977340699
185,47,250768,2,0,B|155:70|155:70|123:121,1,74.2499977340699
51,185,251034,2,0,B|46:147|46:147|16:94,1,74.2499977340699
259,116,251300,6,0,P|297:112|351:85,1,74.2499977340699
363,241,251566,2,0,P|378:206|382:145,1,74.2499977340699
512,178,251833,2,0,P|489:147|439:113,1,74.2499977340699
259,116,252099,6,0,B|285:203|227:179|268:283,1,148.49999546814
304,354,252499,1,0,0:0:0:0:
304,354,252632,2,0,B|266:345|266:345|212:364,1,74.2499977340699
12,272,252899,6,0,P|82:258|174:259,1,148.49999546814
89,342,253298,1,0,0:0:0:0:
38,181,253431,2,0,P|77:175|125:174,1,74.2499977340699
434,350,253698,6,0,B|429:295|429:295|434:289|434:289|427:207,1,111.374996601105
456,213,253964,2,0,B|460:158|460:158|455:152|455:152|459:103,1,111.374996601105
438,72,254231,2,0,P|400:69|349:68,1,74.2499977340699
141,28,254497,6,0,P|178:26|215:23,1,74.2499977340699
271,190,254764,1,0,0:0:0:0:
273,152,254830,1,0,0:0:0:0:
276,115,254897,1,0,0:0:0:0:
362,159,255030,1,0,0:0:0:0:
186,142,255163,1,0,0:0:0:0:
398,300,255297,6,0,B|421:306|450:307|450:307|469:233|435:161|435:161|404:169|374:185,1,259.874992069245
361,159,255829,2,0,P|364:121|371:85,1,74.2499977340699
320,250,256096,6,0,L|244:256,1,74.2499977340699
91,191,256362,2,0,L|167:197,1,74.2499977340699
253,365,256629,2,0,B|247:314|247:314|251:307|251:307|245:248,1,111.374996601105
265,226,256895,6,0,B|248:186|267:154|267:154|285:114|255:62,1,148.49999546814
362,94,257295,1,0,0:0:0:0:
184,114,257428,2,0,P|178:78|196:29,1,74.2499977340699
435,84,257694,6,0,L|347:95,1,74.2499977340699
449,289,257961,2,0,L|374:289,1,74.2499977340699
512,181,258227,2,0,L|400:188,1,111.374996601105
373,202,258494,6,0,B|320:194|320:194|291:219|291:219|218:207,1,148.49999546814
138,189,258893,1,0,0:0:0:0:
197,48,259027,2,0,L|205:140,1,74.2499977340699
0,196,259293,6,0,B|53:204|53:204|82:179|82:179|155:191,1,148.49999546814
235,209,259692,1,0,0:0:0:0:
176,350,259826,2,0,L|168:258,1,74.2499977340699
374,81,260092,6,0,B|327:21|327:21|291:93|291:93,1,148.49999546814
338,167,260491,1,0,0:0:0:0:
508,149,260625,2,0,B|477:153|477:153|466:148|466:148|428:153,1,74.2499977340699
440,322,260892,6,0,L|450:227,1,74.2499977340699
338,167,261158,2,0,L|345:240,1,74.2499977340699
273,344,261424,1,0,0:0:0:0:
273,344,261558,1,0,0:0:0:0:
148,228,261691,6,0,B|188:195|248:219|248:219|255:242|255:242|308:266|363:230,1,222.74999320221
162,300,262224,2,0,P|155:263|147:227,1,74.2499977340699
360,130,262490,2,0,P|350:186|344:242,1,111.374996601105
361,269,262757,6,0,L|435:263,1,74.2499977340699
348,110,263023,2,0,L|274:104,1,74.2499977340699
506,46,263289,2,0,B|501:101|492:154|492:154|459:109,1,148.49999546814
416,43,263689,1,0,0:0:0:0:
348,110,263822,2,0,P|298:128|225:109,1,111.374996601105
212,146,264089,6,0,P|176:134|116:147,1,74.2499977340699
123,293,264355,2,0,P|159:305|219:292,1,74.2499977340699
171,220,264622,1,0,0:0:0:0:
171,220,264755,1,0,0:0:0:0:
293,333,264888,6,0,B|285:232|285:232|326:188,1,148.49999546814
394,139,265288,1,0,0:0:0:0:
455,276,265421,2,0,P|419:264|359:277,1,74.2499977340699
221,279,265687,5,0,0:0:0:0:
293,333,265820,1,0,0:0:0:0:
151,224,265954,5,0,0:0:0:0:
148,353,266087,1,0,0:0:0:0:
86,170,266220,5,0,0:0:0:0:
19,341,266353,1,0,0:0:0:0:
21,117,266487,6,0,B|52:133|87:114|87:114|84:179|140:198|192:158|160:99|160:99|137:51|179:7|237:30|235:90|235:90|290:67|346:100|418:129|359:259|285:247|225:191|249:113|317:99|317:99|372:123|413:83,1,866.250033044816
256,192,268618,5,0,0:0:0:0:
256,32,268884,1,0,0:0:0:0:
256,192,269150,5,0,0:0:0:0:
336,53,269416,1,0,0:0:0:0:
256,192,269683,5,0,0:0:0:0:
394,111,269949,1,0,0:0:0:0:
256,192,270215,5,0,0:0:0:0:
416,192,270481,1,0,0:0:0:0:
256,192,270749,5,0,0:0:0:0:
394,272,271015,1,0,0:0:0:0:
256,192,271281,5,0,0:0:0:0:
336,330,271547,1,0,0:0:0:0:
256,192,271814,5,0,0:0:0:0:
256,352,272080,1,0,0:0:0:0:
256,192,272346,5,0,0:0:0:0:
176,330,272612,1,0,0:0:0:0:
256,192,272880,5,0,0:0:0:0:
117,272,273146,1,0,0:0:0:0:
256,192,273412,5,0,0:0:0:0:
95,192,273678,1,0,0:0:0:0:
256,192,273945,5,0,0:0:0:0:
117,111,274211,1,0,0:0:0:0:
256,192,274477,5,0,0:0:0:0:
176,53,274743,1,0,0:0:0:0:
256,192,275012,6,0,L|256:282,1,82.5
218,348,275411,1,0,0:0:0:0:
218,348,275545,2,0,P|256:360|295:347,1,82.5
256,274,276078,6,0,L|256:192,3,82.5
176,53,277143,5,0,0:0:0:0:
256,192,277409,1,0,0:0:0:0:
117,111,277675,5,0,0:0:0:0:
256,192,277941,1,0,0:0:0:0:
95,192,278208,5,0,0:0:0:0:
256,192,278474,1,0,0:0:0:0:
117,272,278740,5,0,0:0:0:0:
256,192,279006,1,0,0:0:0:0:
176,330,279274,5,0,0:0:0:0:
256,192,279540,1,0,0:0:0:0:
256,352,279806,5,0,0:0:0:0:
256,192,280072,1,0,0:0:0:0:
336,330,280339,5,0,0:0:0:0:
256,192,280605,1,0,0:0:0:0:
394,272,280871,5,0,0:0:0:0:
256,192,281137,1,0,0:0:0:0:
416,192,281405,5,0,0:0:0:0:
256,192,281671,1,0,0:0:0:0:
394,111,281937,5,0,0:0:0:0:
256,192,282203,1,0,0:0:0:0:
336,53,282470,5,0,0:0:0:0:
256,192,282736,1,0,0:0:0:0:
256,32,283002,5,0,0:0:0:0:
255,31,285136,6,0,P|194:18|225:64,1,144.375
326,80,285669,6,0,L|335:31,1,41.25
149,114,285802,2,0,L|157:155,1,41.25
303,198,285935,2,0,L|312:149,1,41.25
172,232,286069,5,0,0:0:0:0:
221,259,286135,1,0,0:0:0:0:
191,294,286202,1,0,0:0:0:0:
223,312,286268,1,0,0:0:0:0:
203,335,286335,1,0,0:0:0:0:
224,347,286402,1,0,0:0:0:0:
212,361,286468,1,0,0:0:0:0:
225,369,286535,1,0,0:0:0:0:
217,379,286602,1,0,0:0:0:0:
217,379,287268,6,0,B|239:287|173:311|207:178,1,197.99999395752
330,24,287667,1,0,0:0:0:0:
506,250,287800,2,0,L|276:218,1,197.99999395752
62,126,288200,1,0,0:0:0:0:
105,361,288333,6,0,B|82:327|82:327|90:262,1,98.9999969787599
183,105,288600,1,0,0:0:0:0:
209,306,288733,1,0,0:0:0:0:
392,135,288866,2,0,P|342:115|243:223,1,197.99999395752
432,369,289266,1,0,0:0:0:0:
483,154,289399,6,0,P|488:112|448:57,1,98.9999969787599
242,197,289665,1,0,0:0:0:0:
458,273,289799,1,0,0:0:0:0:
197,370,289932,1,0,0:0:0:0:
260,103,290065,1,0,0:0:0:0:
432,369,290198,5,0,0:0:0:0:
369,67,290331,1,0,0:0:0:0:
179,278,290465,2,0,L|279:294,1,98.9999969787599
171,80,290731,1,0,0:0:0:0:
80,344,290864,1,0,0:0:0:0:
40,97,290998,5,0,0:0:0:0:
239,204,291131,1,0,0:0:0:0:
23,95,291264,1,0,0:0:0:0:
312,14,291397,1,0,0:0:0:0:
179,278,291530,6,0,P|151:233|225:109,1,197.99999395752
226,345,291930,1,0,0:0:0:0:
290,107,292063,6,0,P|342:105|413:231,1,197.99999395752
208,114,292463,1,0,0:0:0:0:
324,373,292596,6,0,B|330:314|330:314|313:283|313:283|322:207,1,148.49999546814
362,155,292863,1,0,0:0:0:0:
452,368,292996,1,0,0:0:0:0:
498,100,293129,2,0,P|472:120|457:194,1,98.9999969787599
296,294,293395,1,0,0:0:0:0:
253,46,293529,1,0,0:0:0:0:
19,213,293662,6,0,P|63:242|174:180,1,148.49999546814
186,141,293928,1,0,0:0:0:0:
233,358,294061,1,0,0:0:0:0:
389,183,294195,2,0,L|282:197,1,98.9999969787599
29,337,294461,2,0,L|136:351,1,98.9999969787599
290,195,294728,5,0,0:0:0:0:
108,89,294861,1,0,0:0:0:0:
252,51,294994,1,0,0:0:0:0:
147,233,295127,1,0,0:0:0:0:
407,85,295260,5,0,0:0:0:0:
251,352,295394,1,0,0:0:0:0:
195,141,295526,1,0,0:0:0:0:
464,295,295660,1,0,0:0:0:0:
252,51,295793,6,0,P|303:38|378:149,1,197.99999395752
251,352,296193,1,0,0:0:0:0:
93,120,296326,2,0,B|200:84|176:175|297:136,1,197.99999395752
464,295,296726,1,0,0:0:0:0:
175,384,296859,6,0,P|166:337|215:280,1,98.9999969787599
380,139,297125,2,0,P|403:181|394:229,1,98.9999969787599
52,55,297392,2,0,P|110:39|163:143,1,197.99999395752
59,344,297791,1,0,0:0:0:0:
248,144,297925,5,0,0:0:0:0:
328,375,298058,1,0,0:0:0:0:
320,82,298191,1,0,0:0:0:0:
155,271,298324,1,0,0:0:0:0:
439,220,298458,2,0,L|323:198,1,98.9999969787599
32,137,298724,2,0,P|83:152|139:132,1,98.9999969787599
245,378,298990,6,0,B|255:316|255:316|243:260|243:260|256:177,1,197.99999395752
365,26,299390,1,0,0:0:0:0:
340,318,299523,5,0,0:0:0:0:
237,32,299656,1,0,0:0:0:0:
344,332,299790,1,0,0:0:0:0:
478,7,299923,1,0,0:0:0:0:
209,289,300056,6,0,B|175:251|175:251|158:195|201:99,1,197.99999395752
460,203,300456,1,0,0:0:0:0:
274,362,300589,2,0,P|223:379|102:306,1,197.99999395752
288,121,300989,1,0,0:0:0:0:
428,377,301122,6,0,L|437:267,1,98.9999969787599
377,31,301388,1,0,0:0:0:0:
309,276,301521,1,0,0:0:0:0:
115,50,301655,2,0,L|230:29,1,98.9999969787599
109,335,301921,1,0,0:0:0:0:
22,56,302054,1,0,0:0:0:0:
230,225,302188,6,0,L|132:242,1,98.9999969787599
288,121,302454,1,0,0:0:0:0:
343,360,302587,1,0,0:0:0:0:
480,145,302720,2,0,P|437:144|388:183,1,98.9999969787599
241,384,302987,2,0,P|263:347|254:285,1,98.9999969787599
71,140,303253,5,0,0:0:0:0:
339,240,303387,1,0,0:0:0:0:
191,22,303520,1,0,0:0:0:0:
129,306,303653,1,0,0:0:0:0:
330,80,303786,5,0,0:0:0:0:
410,376,303919,1,0,0:0:0:0:
332,65,304053,1,0,0:0:0:0:
456,303,304186,1,0,0:0:0:0:
495,43,304319,6,0,P|463:47|447:173,1,165
339,240,304718,1,0,0:0:0:0:
339,240,304851,2,0,P|348:203|337:147,1,82.5
227,332,305118,6,0,P|259:346|313:334,1,82.5
271,198,305384,2,0,P|239:184|185:196,1,82.5
116,350,305651,2,0,L|106:265,1,82.5
17,146,305917,6,0,P|72:160|137:67,1,165
243,27,306317,1,0,0:0:0:0:
243,27,306450,2,0,P|230:62|235:117,1,82.5
400,82,306716,6,0,L|298:67,1,82.5
167,202,306983,2,0,L|269:187,1,82.5
417,188,307249,1,0,0:0:0:0:
314,259,307382,1,0,0:0:0:0:
434,336,307516,6,0,B|355:310|377:374|274:351,1,165
123,291,307915,1,0,0:0:0:0:
167,202,308048,2,0,P|205:207|241:242,1,82.5
79,375,308315,1,0,0:0:0:0:
49,177,308448,1,0,0:0:0:0:
201,305,308581,5,0,0:0:0:0:
166,98,308714,1,0,0:0:0:0:
208,323,308848,1,0,0:0:0:0:
265,61,308981,1,0,0:0:0:0:
297,279,309114,6,0,L|304:376,1,82.5
386,115,309381,2,0,L|391:32,1,82.5
460,287,309647,5,0,0:0:0:0:
190,206,309780,1,0,0:0:0:0:
471,298,309913,1,0,0:0:0:0:
265,61,310047,1,0,0:0:0:0:
366,370,310180,5,0,0:0:0:0:
480,83,310313,1,0,0:0:0:0:
373,381,310446,1,0,0:0:0:0:
265,61,310579,1,0,0:0:0:0:
114,335,310713,6,0,L|218:318,1,98.9999969787599
507,186,310979,2,0,L|392:167,1,107.249995090485
71,100,311246,5,0,0:0:0:0:
357,21,311379,1,0,0:0:0:0:
54,105,311512,1,0,0:0:0:0:
301,195,311645,1,0,0:0:0:0:
37,110,311778,6,0,P|45:189|37:283,1,148.49999546814
148,169,312177,1,0,0:0:0:0:
148,169,312310,2,0,P|141:213|132:260,1,74.2499977340699
234,224,312577,6,0,B|317:196|300:258|398:226,2,148.49999546814
273,310,313243,1,0,0:0:0:0:
378,231,313376,6,0,P|372:190|375:133,1,74.2499977340699
500,62,313643,2,0,P|471:86|439:104,1,74.2499977340699
293,40,313909,2,0,P|328:54|360:72,1,74.2499977340699
460,191,314175,5,0,0:0:0:0:
382,330,314442,2,0,B|444:287|444:287|489:347,1,148.49999546814
460,191,314841,1,0,0:0:0:0:
371,354,314975,6,0,P|306:321|211:355,1,148.49999546814
209,242,315374,1,0,0:0:0:0:
73,299,315508,2,0,P|106:315|153:305,1,74.2499977340699
104,57,315774,6,0,B|45:103|45:103|132:163,2,148.49999546814
256,238,316573,6,0,L|256:147,1,74.2499977340699
339,52,316840,2,0,B|353:85|353:85|338:140,1,74.2499977340699
438,180,317106,2,0,B|424:147|424:147|439:92,1,74.2499977340699
173,52,317373,6,0,B|159:85|159:85|174:140,1,74.2499977340699
74,180,317639,2,0,B|88:147|88:147|73:92,1,74.2499977340699
256,90,317905,2,0,L|256:181,1,74.2499977340699
255,288,318172,6,0,B|177:262|196:321|108:297,1,148.49999546814
16,286,318571,1,0,0:0:0:0:
98,225,318705,2,0,P|108:269|112:305,1,74.2499977340699
38,152,318971,6,0,B|69:84|69:84|123:133,2,148.49999546814
176,50,319770,6,0,L|269:60,1,74.2499977340699
359,69,320037,1,0,0:0:0:0:
253,85,320170,1,0,0:0:0:0:
363,97,320304,2,0,L|436:104,1,74.2499977340699
464,316,320570,6,0,P|470:278|482:234,1,74.2499977340699
382,201,320836,2,0,B|390:239|390:239|374:271,1,74.2499977340699
289,301,321103,2,0,B|281:263|281:263|297:231,1,74.2499977340699
184,180,321369,6,0,P|195:254|201:351,1,148.49999546814
104,226,321769,1,0,0:0:0:0:
104,226,321902,2,0,P|100:262|96:299,1,74.2499977340699
120,53,322168,6,0,B|104:87|104:87|119:122,1,74.2499977340699
263,61,322435,2,0,B|241:30|241:30|203:25,1,74.2499977340699
184,180,322701,2,0,B|221:176|221:176|244:146,1,74.2499977340699
331,122,322968,5,0,0:0:0:0:
474,113,323101,1,0,0:0:0:0:
474,113,323167,1,0,0:0:0:0:
474,113,323234,1,0,0:0:0:0:
398,46,323367,1,0,0:0:0:0:
407,189,323500,2,0,L|414:287,1,74.2499977340699
315,324,323767,6,0,L|322:226,1,74.2499977340699
202,204,324033,1,0,0:0:0:0:
222,328,324166,1,0,0:0:0:0:
104,283,324300,1,0,0:0:0:0:
320,249,324433,1,0,0:0:0:0:
76,357,324566,6,0,P|31:321|43:234,1,148.49999546814
176,267,324966,2,0,L|104:283,1,74.2499977340699
192,71,325365,6,0,P|235:127|306:123,2,148.49999546814
360,70,326165,6,0,B|390:93|390:93|382:128,1,74.2499977340699
303,246,326431,2,0,B|307:208|307:208|342:197,1,74.2499977340699
484,208,326698,2,0,B|449:222|449:222|422:198,1,74.2499977340699
360,70,326964,5,0,0:0:0:0:
150,180,327230,2,0,L|164:265,1,74.2499977340699
303,246,327497,2,0,L|289:331,1,74.2499977340699
52,384,327763,6,0,P|79:302|202:326,1,222.74999320221
131,365,328296,1,0,0:0:0:0:
6,189,328563,6,0,B|40:182|71:217|71:217|66:170|99:153,2,148.49999546814
193,44,329362,6,0,P|227:55|251:83,1,74.2499977340699
177,193,329628,2,0,P|169:157|182:122,1,74.2499977340699
314,131,329895,2,0,P|286:155|250:161,1,74.2499977340699
433,317,330161,6,0,P|440:281|427:246,1,74.2499977340699
296,255,330428,2,0,P|323:279|359:285,1,74.2499977340699
417,168,330694,2,0,P|382:179|358:207,1,74.2499977340699
252,328,330960,6,0,B|214:303|212:269|212:269|176:278|176:278|155:249|155:249|123:277|86:268,1,222.74999320221
151,349,331493,1,0,0:0:0:0:
0,121,331760,6,0,P|44:177|116:176,2,148.49999546814
308,23,332559,6,0,P|313:59|296:91,1,74.2499977340699
151,106,332825,2,0,P|179:83|216:81,1,74.2499977340699
302,201,333092,2,0,P|268:187|247:156,1,74.2499977340699
308,23,333358,5,0,0:0:0:0:
453,218,333625,2,0,L|468:141,1,74.2499977340699
302,201,333891,2,0,L|316:273,1,74.2499977340699
439,363,334158,6,0,B|374:288|374:288|279:315,1,198
346,384,334690,1,0,0:0:0:0:
196,292,334957,6,0,P|177:227|222:182,2,132
0,126,335756,6,0,L|74:115,1,57.7499982376099
209,90,336023,1,0,0:0:0:0:
120,166,336156,1,0,0:0:0:0:
97,52,336289,2,0,P|105:17|122:-3,1,57.7499982376099
209,90,336555,5,0,0:0:0:0:
304,27,336689,2,0,B|277:55|277:55|292:130,1,98.9999969787599
367,156,337088,2,0,L|358:196,1,41.25
321,265,337355,1,0,0:0:0:0:
