osu file format v14

[General]
AudioFilename: Himeringo.mp3
AudioLeadIn: 0
PreviewTime: 37470
Countdown: 0
SampleSet: Normal
StackLeniency: 0.3
Mode: 0
LetterboxInBreaks: 0
WidescreenStoryboard: 1

[Editor]
DistanceSpacing: 1.6
BeatDivisor: 4
GridSize: 4
TimelineZoom: 1.5

[Metadata]
Title:Koitsubakihime
TitleUnicode:恋椿姫
Artist:Himeringo
ArtistUnicode:ひめりんご
Creator:toybot
Version:Reol's Insane
Source:
Tags:PolyphonicBranch BUZZ ke-sanβ 色白 skystar amamiya yuko ongaku reol halloween frey
BeatmapID:893030
BeatmapSetID:408558

[Difficulty]
HPDrainRate:6
CircleSize:4
OverallDifficulty:7
ApproachRate:9
SliderMultiplier:1.6
SliderTickRate:1

[Events]
//Background and Video events
0,0,"__ia_vocaloid_drawn_by_yuma0020__4081f051332152df3c3b3ddb8f289172.jpg",0,0
//Break Periods
//Storyboard Layer 0 (Background)
//Storyboard Layer 1 (Fail)
//Storyboard Layer 2 (Pass)
//Storyboard Layer 3 (Foreground)
//Storyboard Sound Samples

[TimingPoints]
3971,333.333333333333,4,1,0,60,1,0
5304,-83.3333333333333,4,1,2,60,0,0
14637,-83.3333333333333,4,1,1,60,0,0
15470,-100,4,2,1,40,0,0
15970,-100,4,3,3,50,0,0
26637,-125,4,2,1,60,0,0
37137,-100,4,1,2,55,0,0
37470,-100,4,3,4,70,0,0
38637,-83.3333333333333,4,1,1,70,0,1
43887,-100,4,1,1,70,0,0
43970,-83.3333333333333,4,1,1,70,0,1
49304,-100,4,2,1,70,0,0
57304,-100,4,1,1,70,0,0
58637,-83.3333333333333,4,1,1,70,0,0
59970,-100,4,1,3,45,0,0
63970,-100,4,1,2,55,0,0
64220,-100,4,1,3,45,0,0
64637,-100,4,1,2,55,0,0
64720,-100,4,1,3,45,0,0
64970,-100,4,1,2,55,0,0
65137,-100,4,1,3,45,0,0
65304,-100,4,1,1,55,0,0
70637,-125,4,2,1,60,0,0
81137,-100,4,1,2,55,0,0
81470,-100,4,3,4,70,0,0
82637,-83.3333333333333,4,1,1,70,0,1
87887,-100,4,1,1,70,0,1
87970,-83.3333333333333,4,1,1,70,0,1
93304,-200,4,1,2,40,0,0
98637,-200,4,1,2,40,0,0
103304,-133.333333333333,4,1,2,40,0,0
103970,-133.333333333333,4,1,2,50,0,0
114637,-125,4,1,3,40,0,0
133304,-100,4,3,1,30,0,0
133637,-100,4,3,1,35,0,0
133970,-100,4,3,1,40,0,0
134304,-100,4,3,1,45,0,0
134637,-100,4,3,1,50,0,0
134970,-100,4,3,1,55,0,0
135304,-100,4,3,1,60,0,0
135970,-100,4,1,2,60,0,0
145470,-100,4,3,4,70,0,0
146637,-83.3333333333333,4,1,1,70,0,1
151887,-100,4,1,1,70,0,0
151970,-83.3333333333333,4,1,1,70,0,1
155970,-83.3333333333333,4,1,1,70,0,0
157304,-83.3333333333333,4,1,1,80,0,1
162554,-100,4,1,2,80,0,0
162637,-83.3333333333333,4,1,1,80,0,1
166637,-100,4,1,1,70,0,0
167304,-100,4,3,4,70,0,0
167970,-83.3333333333333,4,1,2,70,0,0
177304,-100,4,3,4,70,0,0
178304,-100,4,2,4,5,0,0

[Colours]
Combo1 : 125,62,105
Combo2 : 255,128,255
Combo3 : 209,27,136
Combo4 : 192,70,196

[HitObjects]
128,48,4637,5,0,0:0:0:0:
180,128,4804,1,0,0:0:0:0:
180,128,4887,1,0,0:0:0:0:
180,128,4970,2,0,L|171:173,3,40,0|0|0|0,0:0|0:0|0:0|0:0,0:0:0:0:
164,206,5304,6,0,P|199:235|332:199,1,191.999994140625,2|8,0:1|0:0,0:0:0:0:
247,103,5804,1,2,0:1:0:0:
120,117,5970,2,0,P|79:142|93:281,1,191.999994140625,0|8,0:1|0:0,0:0:0:0:
165,335,6470,1,2,0:1:0:0:
165,335,6554,1,0,0:0:0:0:
165,335,6637,5,2,0:0:0:0:
298,351,6804,1,2,0:0:0:0:
222,253,6970,2,0,P|226:215|269:167,2,95.9999970703126,8|2|0,0:0|0:0|0:3,0:0:0:0:
451,366,7637,1,8,0:0:0:0:
421,291,7804,1,0,0:0:0:0:
392,216,7970,6,0,B|397:157|397:157|411:134|411:134|418:66,1,143.999995605469,2|0,0:1|0:0,0:0:0:0:
419,37,8304,1,8,0:0:0:0:
309,144,8470,1,0,0:0:0:0:
184,54,8637,2,0,L|29:39,1,143.999995605469,2|0,0:0|0:0,0:0:0:0:
40,40,8970,2,0,P|18:82|29:136,1,95.9999970703126,8|0,0:0|0:0,0:0:0:0:
111,205,9304,5,2,0:0:0:0:
220,171,9470,1,2,0:0:0:0:
123,290,9637,2,0,P|81:288|34:244,1,95.9999970703126,8|2,0:0|0:0,0:0:0:0:
36,226,9887,1,0,0:0:0:0:
32,197,9970,2,0,L|48:97,1,95.9999970703126,2|2,0:3|0:3,0:0:0:0:
178,25,10304,2,0,L|167:80,3,47.9999985351563,8|0|2|0,0:0|0:0|0:3|0:0,0:0:0:0:
163,110,10637,6,0,P|230:155|340:127,1,191.999994140625,2|8,0:0|0:0,0:0:0:0:
261,18,11137,1,2,0:0:0:0:
126,21,11304,2,0,B|135:98|135:98|128:128|128:128|140:221,1,191.999994140625,2|8,0:0|0:0,0:0:0:0:
158,344,11804,1,2,0:0:0:0:
158,344,11887,1,0,0:0:0:0:
158,344,11970,6,0,P|201:359|262:342,1,95.9999970703126,2|2,0:0|0:0,0:0:0:0:
342,251,12304,1,8,0:0:0:0:
391,375,12470,1,2,0:0:0:0:
249,232,12637,2,0,P|266:185|312:163,1,95.9999970703126,2|2,0:0|0:3,0:0:0:0:
413,291,12970,2,0,P|380:329|330:334,1,95.9999970703126,8|2,0:0|0:3,0:0:0:0:
205,303,13304,6,0,B|145:292|145:292|121:301|121:301|51:290,1,143.999995605469,2|0,0:0|0:0,0:0:0:0:
26,301,13637,1,10,0:0:0:0:
103,145,13804,1,0,0:0:0:0:
103,145,13970,2,0,L|91:34,1,95.9999970703126,0|2,0:0|0:0,0:0:0:0:
44,217,14304,2,0,P|94:237|151:220,1,95.9999970703126,8|2,0:0|0:0,0:0:0:0:
160,217,14554,1,0,0:0:0:0:
185,204,14637,6,0,L|214:103,1,95.9999970703126,2|2,0:0|0:0,0:0:0:0:
221,84,14887,1,0,0:0:0:0:
221,84,14970,1,0,0:0:0:0:
299,168,15137,1,2,0:0:0:0:
398,109,15304,1,2,0:0:0:0:
321,25,15470,1,2,2:0:0:0:
321,25,15554,1,2,0:0:0:0:
321,25,15637,2,0,L|276:19,3,40,2|2|2|2,0:0|0:0|0:0|0:0,0:0:0:0:
255,39,15970,6,0,L|153:23,1,80,10|0,0:0|0:0,0:0:0:0:
146,39,16220,1,8,0:0:0:0:
146,39,16304,2,0,P|122:77|126:116,1,80,2|10,0:0|0:0,0:0:0:0:
195,175,16637,2,0,L|255:164,2,40,0|0|8,0:0|0:0|0:0,0:0:0:0:
100,194,16970,1,12,0:0:0:0:
73,286,17137,1,4,0:0:0:0:
158,329,17304,6,0,L|258:311,1,80,8|0,0:0|0:0,0:0:0:0:
268,310,17554,1,8,0:0:0:0:
268,310,17637,1,2,0:0:0:0:
358,343,17804,1,10,0:0:0:0:
436,287,17970,2,0,L|483:293,2,40,0|0|8,0:0|0:0|0:0,0:0:0:0:
367,218,18304,2,0,P|352:178|364:130,1,80,4|12,0:0|0:0,0:0:0:0:
377,116,18554,1,0,0:0:0:0:
377,116,18637,6,0,L|245:106,1,120,10|8,0:0|0:0,0:0:0:0:
225,104,18970,2,0,P|205:141|207:189,1,80,2|12,0:0|0:0,0:0:0:0:
254,260,19304,2,0,L|315:246,2,40,0|0|10,0:0|0:0|0:0,0:0:0:0:
159,280,19637,1,12,0:0:0:0:
99,204,19804,1,4,0:0:0:0:
139,117,19970,6,0,L|128:73,3,40,10|0|2|0,0:0|0:0|0:0|0:0,0:0:0:0:
120,47,20304,1,12,0:0:0:0:
214,61,20470,1,12,0:0:0:0:
309,75,20637,1,10,0:0:0:0:
338,100,20720,1,0,0:0:0:0:
353,137,20803,1,0,0:0:0:0:
348,177,20886,1,0,0:0:0:0:
337,215,20970,2,0,L|349:270,3,40,12|4|12|4,0:0|0:0|0:0|0:0,0:0:0:0:
356,293,21304,6,0,P|319:318|234:307,1,120,10|0,0:0|0:0,0:0:0:0:
246,314,21637,2,0,P|208:292|165:292,1,80,2|10,0:0|0:0,0:0:0:0:
90,339,21970,2,0,L|80:381,2,40,0|0|8,0:0|0:0|0:0,0:0:0:0:
101,242,22304,2,0,L|90:151,1,80,12|4,0:0|0:0,0:0:0:0:
81,66,22637,6,0,P|115:45|167:45,1,80,8|0,0:0|0:0,0:0:0:0:
182,57,22887,1,8,0:0:0:0:
182,57,22970,2,0,L|278:45,1,80,2|10,0:0|0:0,0:0:0:0:
357,33,23304,2,0,L|394:15,2,40,0|0|0,0:0|0:0|0:0,0:0:0:0:
322,122,23637,2,0,P|315:161|334:210,1,80,4|12,0:0|0:0,0:0:0:0:
404,254,23970,6,0,P|376:283|288:286,1,120,10|0,0:0|0:0,0:0:0:0:
299,291,24304,2,0,P|263:269|221:272,1,80,0|12,0:0|0:0,0:0:0:0:
151,328,24637,2,0,P|133:342|110:349,2,40,0|0|8,0:0|0:0|0:0,0:0:0:0:
148,231,24970,1,12,0:0:0:0:
207,155,25137,1,4,0:0:0:0:
207,155,25220,1,0,0:0:0:0:
207,155,25304,6,0,L|258:141,3,40,10|2|2|0,0:0|0:0|0:0|0:0,0:0:0:0:
324,119,25637,2,0,L|338:170,3,40,6|2|14|0,0:0|0:0|0:0|0:0,0:0:0:0:
356,233,25970,2,0,L|305:247,3,40,2|2|2|2,0:0|0:0|0:0|0:0,0:0:0:0:
286,252,26304,1,12,2:3:0:0:
255,243,26387,1,0,0:0:0:0:
223,241,26470,1,4,2:3:0:0:
191,248,26554,1,0,0:0:0:0:
165,266,26637,5,4,0:0:0:0:
31,358,26970,1,0,1:0:0:0:
69,291,27137,2,0,B|63:239|63:239|70:214|70:214|60:151,2,128,0|0|0,3:0|3:0|1:0,0:0:0:0:
266,171,28137,1,0,3:0:0:0:
228,238,28303,2,0,B|234:290|234:290|227:315|227:315|237:378,1,128,0|0,1:0|0:0,0:0:0:0:
346,305,28804,1,0,3:0:0:0:
418,328,28970,1,2,0:3:0:0:
442,255,29137,1,2,0:0:0:0:
369,228,29304,6,0,L|373:85,1,128,4|0,0:2|1:0,0:0:0:0:
378,23,29804,2,0,B|303:16|327:55|228:35,1,128,0|0,3:0|3:0,0:0:0:0:
177,21,30304,1,0,0:0:0:0:
108,55,30470,1,0,1:0:0:0:
252,40,30804,1,0,3:0:0:0:
279,111,30970,2,0,B|285:147|285:147|269:241,1,128,0|2,1:0|0:0,0:0:0:0:
241,362,31470,1,2,0:3:0:0:
241,362,31637,1,2,0:3:0:0:
315,342,31804,1,2,0:0:0:0:
389,323,31970,6,0,L|412:185,1,128,4|0,0:0|1:0,0:0:0:0:
427,121,32470,2,0,P|408:90|305:79,2,128,0|0|0,3:0|3:0|1:0,0:0:0:0:
315,342,33470,1,0,3:0:0:0:
389,323,33636,2,0,L|412:185,1,128,0|0,1:0|0:0,0:0:0:0:
277,200,34137,1,0,3:0:0:0:
231,261,34304,2,0,L|242:325,1,64,2|2,0:3|0:0,0:0:0:0:
173,359,34637,6,0,P|139:364|64:302,1,128,0|2,0:0|1:2,0:0:0:0:
68,235,35137,2,0,B|79:186|79:186|76:168|76:168|91:101,1,128,0|0,3:0|3:0,0:0:0:0:
185,25,35637,1,2,1:2:0:0:
224,147,35804,1,4,0:0:0:0:
9,8,36137,5,0,1:0:0:0:
21,161,36304,1,0,1:0:0:0:
163,216,36470,1,0,1:0:0:0:
273,108,36637,1,0,1:0:0:0:
273,108,37137,6,0,L|267:59,2,40,8|8|8,2:3|2:3|2:3,0:0:0:0:
363,141,37470,1,0,0:3:0:0:
363,141,37554,1,0,0:3:0:0:
363,141,37637,1,0,0:3:0:0:
373,237,37804,1,0,0:3:0:0:
288,280,37970,1,0,0:3:0:0:
217,214,38137,1,0,0:3:0:0:
127,249,38304,1,0,0:3:0:0:
75,168,38470,1,0,0:3:0:0:
75,168,38554,1,0,0:0:0:0:
75,168,38637,6,0,P|60:115|137:43,1,143.999995605469,12|0,0:2|0:0,0:0:0:0:
147,42,38970,2,0,P|190:69|253:55,1,95.9999970703126,8|2,0:0|0:2,0:0:0:0:
327,42,39304,1,0,0:0:0:0:
407,94,39470,1,8,0:2:0:0:
418,189,39637,1,8,0:0:0:0:
370,272,39804,1,2,2:2:0:0:
370,272,39887,1,0,0:0:0:0:
370,272,39970,6,0,P|322:290|268:278,1,95.9999970703126,10|2,0:2|0:2,0:0:0:0:
191,147,40304,2,0,P|242:146|288:176,1,95.9999970703126,8|0,0:0|0:0,0:0:0:0:
154,241,40637,2,0,B|140:166|140:166|149:134|149:134|133:48,1,191.999994140625,0|8,0:0|0:0,0:0:0:0:
18,54,41137,1,2,2:2:0:0:
57,164,41304,6,0,L|46:262,1,95.9999970703126,10|0,0:2|0:2,0:0:0:0:
43,298,41554,1,0,0:0:0:0:
43,298,41637,2,0,P|81:321|139:309,1,95.9999970703126,8|0,0:0|0:2,0:0:0:0:
208,257,41970,1,2,0:2:0:0:
304,256,42137,2,0,L|332:313,2,47.9999985351563,8|0|8,0:2|0:0|0:0,0:0:0:0:
311,160,42470,1,2,0:2:0:0:
311,160,42554,1,0,0:0:0:0:
311,160,42637,6,0,L|320:8,1,143.999995605469,10|0,0:2|0:0,0:0:0:0:
319,16,42970,1,8,0:0:0:0:
226,113,43137,1,0,0:2:0:0:
115,37,43304,1,2,0:3:0:0:
83,59,43387,1,0,0:0:0:0:
67,93,43470,1,0,0:0:0:0:
69,131,43554,1,0,0:0:0:0:
83,166,43637,2,0,L|76:220,3,47.9999985351563,8|0|2|8,0:3|0:0|0:3|0:3,0:0:0:0:
73,252,43970,6,0,P|113:282|218:261,1,143.999995605469,12|0,0:2|0:0,0:0:0:0:
232,248,44304,2,0,P|262:228|334:235,1,95.9999970703126,8|2,0:0|0:2,0:0:0:0:
403,276,44637,1,0,0:0:0:0:
475,212,44804,1,8,0:2:0:0:
471,116,44970,1,8,0:0:0:0:
401,49,45137,1,2,2:0:0:0:
401,49,45220,1,0,0:0:0:0:
401,49,45304,6,0,P|350:37|296:64,1,95.9999970703126,10|0,0:2|0:2,0:0:0:0:
224,138,45637,2,0,P|267:166|327:159,1,95.9999970703126,8|0,0:0|0:0,0:0:0:0:
169,40,45970,2,0,B|190:111|190:111|184:144|184:144|206:231,1,191.999994140625,0|8,0:0|0:0,0:0:0:0:
259,327,46470,1,2,2:0:0:0:
144,343,46637,6,0,P|103:333|67:275,1,95.9999970703126,10|0,0:2|0:0,0:0:0:0:
58,196,46970,2,0,L|49:38,1,143.999995605469,8|0,0:0|0:0,0:0:0:0:
49,52,47304,1,2,0:2:0:0:
152,136,47470,1,8,0:2:0:0:
247,40,47637,2,0,P|282:27|342:34,1,95.9999970703126,8|2,0:0|0:2,0:0:0:0:
374,49,47887,1,0,0:0:0:0:
374,49,47970,6,0,L|366:161,1,95.9999970703126,10|8,0:2|0:0,0:0:0:0:
364,183,48220,1,0,0:0:0:0:
364,183,48304,1,8,0:0:0:0:
351,335,48470,1,8,0:0:0:0:
231,239,48637,2,0,L|173:227,3,47.9999985351563,0|0|0|0,1:0|2:0|2:0|2:0,0:0:0:0:
148,130,48970,2,0,L|195:139,3,47.9999985351563,0|0|0|0,2:0|2:0|2:0|2:0,0:0:0:0:
230,147,49304,5,0,1:0:0:0:
317,108,49470,1,0,0:0:0:0:
317,108,49554,1,0,0:0:0:0:
317,108,49637,2,0,L|326:196,1,80,8|2,1:0|2:0,0:0:0:0:
336,209,49887,1,8,1:0:0:0:
350,228,49970,2,0,L|354:267,3,40,0|2|2|0,1:0|2:0|1:0|0:0,0:0:0:0:
358,291,50304,2,0,P|386:313|443:314,1,80,2|8,2:0|1:0,0:0:0:0:
493,246,50637,6,0,L|483:152,1,80,0|0,0:0|1:0,0:0:0:0:
468,148,50887,1,2,0:0:0:0:
449,133,50970,2,0,L|439:39,1,80,8|2,1:0|0:0,0:0:0:0:
422,37,51220,1,8,1:0:0:0:
403,21,51304,2,0,L|345:32,3,40,0|2|0|0,1:0|0:0|1:0|0:0,0:0:0:0:
340,34,51637,1,8,1:0:0:0:
316,127,51804,1,2,0:0:0:0:
316,127,51887,1,0,0:0:0:0:
316,127,51970,6,0,P|281:140|228:130,1,80,0|0,1:0|0:0,0:0:0:0:
218,123,52220,1,0,0:0:0:0:
196,111,52304,2,0,L|103:124,1,80,8|2,1:0|0:0,0:0:0:0:
98,138,52554,1,8,1:0:0:0:
80,154,52637,2,0,L|72:203,3,40,2|2|2|0,1:0|0:0|1:0|0:0,0:0:0:0:
80,216,52970,2,0,L|72:265,3,40,0|0|8|0,0:0|0:0|1:0|0:0,0:0:0:0:
71,279,53304,6,0,P|87:295|155:302,1,80,0|8,0:0|1:0,0:0:0:0:
171,294,53554,1,2,0:0:0:0:
197,276,53637,2,0,L|313:265,1,80,8|2,1:0|0:0,0:0:0:0:
366,233,53970,2,0,L|377:191,3,40,0|2|0|0,1:0|0:0|1:0|1:0,0:0:0:0:
383,170,54304,1,8,1:0:0:0:
398,76,54470,1,0,0:0:0:0:
398,76,54554,1,0,0:0:0:0:
398,76,54637,6,0,P|355:53|321:53,1,80,0|0,1:0|0:0,0:0:0:0:
305,67,54887,1,0,0:0:0:0:
286,82,54970,2,0,P|249:92|203:78,1,80,8|2,1:0|0:0,0:0:0:0:
190,67,55220,1,8,1:0:0:0:
170,52,55304,2,0,L|115:57,3,40,0|2|2|0,1:0|0:0|1:0|0:0,0:0:0:0:
98,58,55637,1,2,0:0:0:0:
75,151,55804,1,8,1:0:0:0:
145,215,55970,6,0,L|141:302,1,80,0|0,0:0|1:0,0:0:0:0:
154,315,56220,1,2,0:0:0:0:
167,335,56304,2,0,P|203:347|254:330,1,80,8|2,1:0|0:0,0:0:0:0:
311,269,56637,1,0,1:0:0:0:
319,255,56720,1,2,0:0:0:0:
328,241,56804,1,0,1:0:0:0:
337,228,56887,1,0,0:0:0:0:
346,215,56970,2,0,L|343:164,3,40,8|0|2|0,1:0|0:0|0:0|0:0,0:0:0:0:
337,134,57304,5,2,2:0:0:0:
278,61,57470,1,2,2:0:0:0:
186,64,57637,1,8,0:0:0:0:
132,139,57803,1,8,0:0:0:0:
163,230,57970,1,0,0:0:0:0:
163,230,58054,2,0,B|152:326|152:326|135:302,1,120,0|8,0:0|0:0,0:0:0:0:
108,293,58387,1,0,0:0:0:0:
76,294,58470,1,0,0:0:0:0:
195,351,58637,6,0,P|237:364|294:345,1,95.9999970703126,8|8,0:0|0:0,0:0:0:0:
364,266,58970,1,8,0:0:0:0:
364,266,59137,1,8,0:0:0:0:
307,165,59304,1,8,0:0:0:0:
315,137,59387,1,8,0:0:0:0:
323,109,59470,1,8,0:0:0:0:
331,81,59554,1,0,0:0:0:0:
340,53,59637,2,0,L|333:6,2,47.9999985351563,2|0|0,2:3|0:0|0:0,0:0:0:0:
223,138,59970,6,0,P|164:152|88:122,1,120,4|8,0:2|0:0,0:0:0:0:
108,136,60304,2,0,L|122:230,1,80,8|8,0:0|0:0,0:0:0:0:
137,310,60637,2,0,P|109:312|86:301,2,40,0|8|0,0:0|0:0|0:0,0:0:0:0:
211,248,60970,2,0,P|249:229|299:236,1,80,8|8,0:0|0:0,0:0:0:0:
371,275,61304,5,8,0:0:0:0:
371,275,61387,2,0,L|378:183,1,80,0|8,0:0|0:0,0:0:0:0:
390,175,61637,2,0,L|397:88,1,80,0|8,0:0|0:0,0:0:0:0:
410,0,61970,2,0,P|440:7|449:14,2,40,0|0|8,0:0|0:0|0:0,0:0:0:0:
324,44,62304,1,8,0:0:0:0:
229,60,62470,1,8,0:0:0:0:
229,60,62554,1,0,0:0:0:0:
229,60,62637,6,0,L|95:47,1,120,8|8,0:0|0:0,0:0:0:0:
77,44,62970,1,8,0:0:0:0:
90,139,63137,1,8,0:0:0:0:
86,235,63304,2,0,L|93:284,3,40,0|8|8|0,0:0|0:0|0:0|0:0,0:0:0:0:
97,306,63637,1,8,0:0:0:0:
188,277,63804,1,8,0:0:0:0:
203,280,63887,1,0,0:0:0:0:
218,283,63970,2,0,L|267:275,3,40,2|0|2|8,0:2|0:0|0:2|0:0,0:0:0:0:
296,268,64304,6,0,P|311:222|298:176,1,80,8|8,0:0|0:0,0:0:0:0:
253,110,64637,2,0,L|264:62,2,40,0|8|0,0:0|0:0|0:0,0:0:0:0:
167,154,64970,1,0,0:0:0:0:
129,169,65054,1,0,0:0:0:0:
89,167,65137,1,8,0:0:0:0:
54,147,65220,1,0,0:0:0:0:
36,110,65304,6,0,L|40:263,1,120,0|0,0:0|0:0,0:0:0:0:
42,261,65637,2,0,P|71:280|122:277,1,80,0|0,3:0|3:0,0:0:0:0:
198,231,65970,1,0,0:0:0:0:
214,203,66054,1,0,0:0:0:0:
217,171,66137,1,0,0:0:0:0:
186,79,66304,2,0,P|157:60|106:63,1,80,0|0,3:0|3:0,0:0:0:0:
274,101,66637,6,0,L|405:86,1,120,0|0,0:0|0:0,0:0:0:0:
424,81,66970,1,0,3:0:0:0:
350,200,67137,1,0,3:0:0:0:
350,200,67304,2,0,L|366:249,2,40,0|0|0,0:0|0:0|0:0,0:0:0:0:
254,184,67637,1,0,3:0:0:0:
178,243,67804,1,0,3:0:0:0:
181,258,67887,1,0,0:0:0:0:
184,273,67970,6,0,P|145:295|62:273,1,120,0|0,0:0|0:0,0:0:0:0:
73,282,68304,2,0,L|55:183,1,80,0|0,3:0|3:0,0:0:0:0:
84,110,68637,2,0,L|76:70,2,40,0|0|0,0:0|0:0|0:0,0:0:0:0:
175,140,68970,2,0,P|212:147|266:125,1,80,0|0,3:0|3:0,0:0:0:0:
269,118,69220,1,0,0:0:0:0:
286,101,69304,6,0,L|338:91,3,40,0|0|0|0,0:0|0:0|0:0|0:0,0:0:0:0:
370,169,69637,2,0,L|330:176,3,40,0|0|0|0,0:0|0:0|0:0|0:0,0:0:0:0:
313,262,69970,2,0,L|365:252,3,40,0|0|0|0,0:0|0:0|0:0|0:0,0:0:0:0:
383,248,70304,1,0,0:0:0:0:
406,269,70387,1,0,0:0:0:0:
416,299,70470,1,0,0:0:0:0:
408,329,70553,1,0,0:0:0:0:
386,352,70637,5,4,0:0:0:0:
240,305,70970,1,0,1:0:0:0:
173,344,71137,2,0,B|122:334|122:334|98:340|98:340|34:329,1,128,0|0,3:0|3:0,0:0:0:0:
31,256,71637,1,0,0:0:0:0:
75,193,71804,2,0,L|66:51,1,128,0|0,1:0|3:0,0:0:0:0:
131,24,72304,1,0,1:0:0:0:
198,60,72470,1,2,0:0:0:0:
224,132,72637,1,0,0:0:0:0:
206,206,72804,2,0,L|211:283,2,64,0|2|2,3:0|0:3|0:0,0:0:0:0:
246,58,73304,5,4,0:2:0:0:
381,130,73637,1,0,1:0:0:0:
339,194,73804,2,0,L|351:338,2,128,0|0|0,3:0|3:0|1:0,0:0:0:0:
246,58,74804,5,0,3:0:0:0:
191,112,74970,2,0,L|203:256,1,128,0|2,1:0|0:0,0:0:0:0:
209,343,75470,2,0,P|174:346|137:331,2,64,2|2|2,0:3|0:3|0:0,0:0:0:0:
291,280,75970,6,0,P|318:262|415:269,1,128,4|0,0:0|1:0,0:0:0:0:
460,323,76470,2,0,P|441:278|469:197,1,128,0|0,3:0|3:0,0:0:0:0:
431,53,77137,1,0,1:0:0:0:
462,204,77470,1,0,3:0:0:0:
405,151,77637,2,0,L|336:140,1,64,0|2,1:0|0:0,0:0:0:0:
298,204,77970,2,0,L|335:255,1,64,0|0,0:0|3:0,0:0:0:0:
218,294,78304,2,0,L|228:230,1,64,2|2,0:3|0:0,0:0:0:0:
251,134,78637,6,0,B|198:126|198:126|182:134|182:134|115:125,1,128,0|2,0:0|1:2,0:0:0:0:
42,42,79137,2,0,B|95:50|95:50|111:42|111:42|178:51,1,128,0|0,3:0|3:0,0:0:0:0:
280,28,79637,1,2,1:2:0:0:
340,126,79804,1,4,0:0:0:0:
215,326,80137,5,0,1:0:0:0:
191,174,80304,1,0,1:0:0:0:
343,150,80470,1,0,1:0:0:0:
367,302,80637,1,0,1:0:0:0:
215,326,81137,6,0,L|162:313,2,40,8|8|8,2:3|2:3|2:3,0:0:0:0:
278,253,81470,1,0,0:0:0:0:
294,252,81554,1,0,0:0:0:0:
309,251,81637,1,0,0:0:0:0:
263,157,81804,1,0,0:0:0:0:
172,125,81970,1,0,0:0:0:0:
91,178,82137,1,0,0:0:0:0:
83,273,82304,1,0,0:0:0:0:
156,334,82470,1,0,0:0:0:0:
172,332,82554,1,0,2:0:0:0:
191,331,82637,6,0,B|251:325|251:325|274:334|274:334|349:328,1,143.999995605469,12|0,0:2|0:0,0:0:0:0:
370,325,82970,2,0,P|392:295|386:227,1,95.9999970703126,8|2,0:0|0:2,0:0:0:0:
348,151,83304,1,0,0:0:0:0:
259,114,83470,1,8,0:2:0:0:
173,157,83637,1,8,0:0:0:0:
80,130,83804,1,2,2:2:0:0:
80,130,83887,1,0,0:0:0:0:
80,130,83970,6,0,L|72:23,1,95.9999970703126,10|2,0:2|0:2,0:0:0:0:
28,207,84304,2,0,P|74:224|124:210,1,95.9999970703126,8|0,0:0|0:0,0:0:0:0:
181,141,84637,2,0,B|260:130|260:130|289:140|289:140|377:129,1,191.999994140625,0|8,0:0|0:0,0:0:0:0:
464,112,85137,1,2,2:2:0:0:
464,112,85220,1,0,0:0:0:0:
464,112,85304,6,0,P|487:154|477:216,1,95.9999970703126,10|0,0:2|0:0,0:0:0:0:
467,224,85554,1,0,0:0:0:0:
446,244,85637,2,0,L|349:256,1,95.9999970703126,8|0,0:0|0:2,0:0:0:0:
255,271,85970,2,0,P|237:309|245:364,1,95.9999970703126,2|8,0:2|0:2,0:0:0:0:
297,187,86304,2,0,P|293:145|259:101,1,95.9999970703126,8|2,0:0|0:2,0:0:0:0:
166,90,86637,6,0,L|58:106,1,95.9999970703126,10|2,0:2|2:2,0:0:0:0:
23,112,86887,1,0,0:0:0:0:
23,112,86970,2,0,P|11:152|29:205,1,95.9999970703126,8|0,0:0|0:2,0:0:0:0:
95,271,87304,1,2,0:3:0:0:
128,288,87387,1,0,0:0:0:0:
166,291,87470,1,0,0:0:0:0:
204,284,87554,1,0,0:0:0:0:
235,262,87637,2,0,L|241:209,3,47.9999985351563,8|0|2|0,0:3|0:0|0:3|0:0,0:0:0:0:
244,176,87970,6,0,P|294:141|379:153,1,143.999995605469,12|0,0:2|0:0,0:0:0:0:
402,175,88304,1,8,0:0:0:0:
300,246,88470,1,0,0:0:0:0:
176,225,88637,2,0,P|146:184|175:80,1,143.999995605469,0|0,0:0|0:0,0:0:0:0:
187,70,88970,2,0,L|288:55,1,95.9999970703126,8|2,0:0|2:0,0:0:0:0:
429,25,89304,5,10,0:2:0:0:
429,25,89470,1,0,0:2:0:0:
376,105,89637,1,8,0:0:0:0:
417,191,89804,1,0,0:0:0:0:
393,283,89970,2,0,B|310:274|310:274|282:286|282:286|190:275,1,191.999994140625,0|8,0:0|0:0,0:0:0:0:
109,264,90470,1,2,2:0:0:0:
109,264,90554,1,0,0:0:0:0:
109,264,90637,6,0,P|96:215|114:165,1,95.9999970703126,10|0,0:2|0:0,0:0:0:0:
135,144,90887,1,0,0:0:0:0:
135,144,90970,1,8,0:0:0:0:
224,109,91137,2,0,P|220:81|205:52,2,47.9999985351563,0|8|2,0:0|0:0|0:2,0:0:0:0:
202,202,91470,1,8,0:2:0:0:
267,272,91637,2,0,P|314:288|369:271,1,95.9999970703126,8|2,0:0|0:2,0:0:0:0:
387,252,91887,1,0,0:0:0:0:
387,252,91970,6,0,L|402:150,1,95.9999970703126,10|8,0:2|0:0,0:0:0:0:
423,43,92304,1,8,0:0:0:0:
326,104,92470,1,8,0:0:0:0:
221,54,92637,1,0,1:0:0:0:
185,67,92720,1,0,2:0:0:0:
158,95,92804,1,0,2:0:0:0:
144,130,92887,1,0,2:0:0:0:
142,168,92970,2,0,L|137:221,3,47.9999985351563,2|2|2|2,2:0|2:0|2:0|2:0,0:0:0:0:
136,248,93304,5,0,0:0:0:0:
256,348,95970,5,0,0:3:0:0:
376,248,98637,5,0,0:0:0:0:
256,151,101304,5,0,0:0:0:0:
136,248,103304,5,0,0:0:0:0:
125,254,103387,1,0,0:0:0:0:
114,260,103470,1,0,0:0:0:0:
104,266,103554,1,0,0:0:0:0:
94,272,103637,2,0,L|56:266,3,30.0000011444092,0|0|0|0,0:0|0:0|0:0|0:0,0:0:0:0:
35,259,103970,5,0,0:0:0:0:
93,153,104304,1,0,0:0:0:0:
106,133,104470,1,2,0:3:0:0:
120,113,104637,2,0,L|249:103,1,120.000004577637,8|0,0:0|0:0,0:0:0:0:
306,43,105137,1,0,0:0:0:0:
323,25,105304,6,0,L|317:92,1,60.0000022888184,8|8,0:3|0:0,0:0:0:0:
399,122,105637,2,0,L|405:189,1,60.0000022888184,0|0,0:0|0:0,0:0:0:0:
471,242,105970,2,0,L|465:309,1,60.0000022888184,8|8,0:3|0:0,0:0:0:0:
397,361,106304,1,0,0:0:0:0:
397,361,106637,5,0,0:0:0:0:
293,301,106970,2,0,P|261:289|222:292,1,60.0000022888184,0|2,0:0|0:3,0:0:0:0:
196,317,107304,2,0,P|210:261|178:199,1,120.000004577637,8|0,0:0|0:0,0:0:0:0:
118,106,107970,6,0,P|107:81|103:39,1,60.0000022888184,8|0,0:3|0:0,0:0:0:0:
191,58,108304,2,0,P|195:29|207:1,1,60.0000022888184,0|0,0:0|0:0,0:0:0:0:
280,53,108637,2,0,P|296:30|330:6,1,60.0000022888184,8|8,0:3|0:0,0:0:0:0:
370,87,108970,1,0,0:0:0:0:
370,87,109304,5,0,0:0:0:0:
327,199,109637,1,0,0:0:0:0:
332,222,109804,1,2,0:3:0:0:
337,245,109970,2,0,P|310:264|212:247,1,120.000004577637,8|0,0:0|0:0,0:0:0:0:
171,187,110470,1,0,0:0:0:0:
166,163,110637,6,0,P|145:146|109:139,1,60.0000022888184,8|0,0:3|0:0,0:0:0:0:
42,195,110970,2,0,P|37:221|49:256,1,60.0000022888184,0|2,0:0|0:3,0:0:0:0:
133,282,111304,2,0,P|158:272|182:244,1,60.0000022888184,8|0,0:3|0:0,0:0:0:0:
115,212,111637,1,0,0:0:0:0:
115,212,111970,5,0,0:0:0:0:
244,160,112304,2,0,P|277:148|309:157,1,60.0000022888184,0|2,0:0|0:3,0:0:0:0:
333,225,112637,2,0,P|276:207|243:158,1,120.000004577637,8|0,0:0|0:0,0:0:0:0:
203,55,113304,6,0,P|173:40|142:39,1,60.0000022888184,8|0,0:3|0:0,0:0:0:0:
73,90,113637,2,0,L|89:160,1,60.0000022888184,0|2,0:0|0:3,0:0:0:0:
137,222,113970,2,0,P|167:237|198:238,1,60.0000022888184,8|8,0:3|0:0,0:0:0:0:
268,188,114304,1,0,0:0:0:0:
268,188,114637,6,0,B|411:120|388:255|525:176,1,256,2|2,0:0|0:2,0:0:0:0:
334,251,115637,2,0,P|297:267|260:268,1,64,0|2,0:0|0:0,0:0:0:0:
186,246,115970,2,0,B|149:125|213:162|179:50,1,192,10|0,0:0|0:0,0:0:0:0:
103,102,116637,1,2,0:0:0:0:
80,227,116970,1,2,0:0:0:0:
149,334,117304,6,0,B|201:323|201:323|225:330|225:330|296:318,1,128,2|0,0:0|0:0,0:0:0:0:
355,259,117804,1,0,0:0:0:0:
399,197,117970,2,0,P|437:140|411:68,1,128,0|0,0:0|0:0,0:0:0:0:
360,128,118470,1,0,0:0:0:0:
319,193,118637,6,0,P|285:148|412:184,1,384,8|4,0:0|0:0,0:0:0:0:
278,256,119970,6,0,P|228:215|234:32,1,256,6|2,0:0|0:2,0:0:0:0:
345,197,120970,2,0,P|365:228|362:269,1,64,0|2,0:0|0:0,0:0:0:0:
278,256,121304,2,0,B|199:242|199:242|177:249|177:249|71:232,1,192,10|0,0:0|0:0,0:0:0:0:
39,160,121970,2,0,P|31:123|102:46,1,128,2|2,0:0|0:0,0:0:0:0:
186,121,122637,6,0,P|220:147|349:83,1,192,2|0,0:0|0:0,0:0:0:0:
364,23,123304,2,0,B|354:100|354:100|363:122|363:122|354:216,1,192,2|0,0:0|0:0,0:0:0:0:
343,301,123970,5,8,0:0:0:0:
216,319,124304,1,2,0:0:0:0:
89,338,124637,1,2,0:0:0:0:
111,212,124970,2,0,L|104:145,1,64,4|0,0:0|0:0,0:0:0:0:
28,99,125304,6,0,B|138:134|108:66|229:97,1,192,6|0,0:0|0:0,0:0:0:0:
287,147,125970,2,0,P|305:189|281:269,1,128,2|0,0:2|0:0,0:0:0:0:
163,309,126637,6,0,B|115:296|67:325|67:325|-10:262|57:168,1,256,10|2,0:0|0:0,0:0:0:0:
148,105,127637,1,2,0:0:0:0:
270,141,127970,2,0,B|373:176|359:115|462:142,1,192,2|0,0:0|0:0,0:0:0:0:
494,208,128637,1,2,0:0:0:0:
320,67,128970,2,0,P|288:56|249:58,1,64,2|0,0:0|0:0,0:0:0:0:
193,98,129304,6,0,P|182:153|314:68,1,384,8|4,0:0|0:0,0:0:0:0:
193,14,130637,6,0,P|141:31|94:152,1,192,6|0,0:0|0:0,0:0:0:0:
125,234,131304,2,0,L|265:216,1,128,2|0,0:0|0:0,0:0:0:0:
418,186,131970,2,0,P|349:279|250:217,1,256,10|2,0:0|0:0,0:0:0:0:
315,77,132970,1,2,0:0:0:0:
337,197,133304,1,0,0:0:0:0:
312,55,133637,6,0,L|317:12,3,40,0|0|0|0,0:0|0:0|0:0|0:0,0:0:0:0:
222,60,133970,2,0,L|217:99,3,40,0|0|0|0,0:0|0:0|0:0|0:0,0:0:0:0:
303,171,134304,6,0,L|308:128,3,40,0|0|0|0,0:0|0:0|0:0|0:0,0:0:0:0:
213,176,134637,2,0,L|208:215,3,40,0|0|0|0,0:0|0:0|0:0|0:0,0:0:0:0:
293,292,134970,6,0,L|298:249,3,40,0|0|0|0,0:0|0:0|0:0|0:0,0:0:0:0:
303,220,135304,1,0,0:0:0:0:
329,202,135387,1,0,0:0:0:0:
361,197,135470,1,0,0:0:0:0:
392,204,135554,1,0,0:0:0:0:
416,219,135637,2,0,P|444:192|453:153,1,80,2|2,0:0|0:0,0:0:0:0:
452,116,135887,1,2,0:0:0:0:
452,116,135970,5,4,0:2:0:0:
344,32,136137,1,0,0:0:0:0:
344,32,136220,1,0,0:3:0:0:
344,32,136304,2,0,L|251:46,1,80,8|2,0:0|0:3,0:0:0:0:
131,69,136637,1,0,0:0:0:0:
131,69,136804,1,2,0:3:0:0:
203,131,136970,2,0,P|208:172|186:224,1,80,8|2,0:0|0:3,0:0:0:0:
113,257,137304,6,0,L|22:249,1,80,0|2,0:0|0:3,0:0:0:0:
206,302,137637,1,8,0:0:0:0:
206,302,137720,1,0,0:0:0:0:
206,302,137804,1,2,0:3:0:0:
287,238,137970,2,0,L|378:246,1,80,0|2,0:3|0:3,0:0:0:0:
470,256,138304,2,0,P|478:294|452:344,1,80,8|2,0:0|0:3,0:0:0:0:
415,169,138637,5,6,2:0:0:0:
294,212,138804,1,2,0:0:0:0:
294,84,138970,2,0,P|314:51|361:31,1,80,10|2,1:0|0:0,0:0:0:0:
415,169,139304,2,0,L|406:271,1,80,2|2,0:0|0:0,0:0:0:0:
399,352,139637,1,10,0:0:0:0:
275,276,139804,1,2,0:0:0:0:
148,344,139970,6,0,P|107:350|66:336,1,80,2|2,0:0|0:0,0:0:0:0:
104,197,140304,2,0,P|144:205|178:232,1,80,10|2,0:0|0:0,0:0:0:0:
231,305,140637,1,2,0:0:0:0:
324,328,140804,1,2,0:0:0:0:
347,323,140887,1,0,0:0:0:0:
370,319,140970,1,8,0:0:0:0:
298,241,141137,1,2,0:0:0:0:
348,159,141304,5,0,0:0:0:0:
409,232,141470,1,2,0:3:0:0:
409,232,141554,1,0,0:0:0:0:
409,232,141637,2,0,P|450:240|498:222,1,80,8|2,0:0|0:3,0:0:0:0:
507,205,141887,1,0,0:0:0:0:
507,205,141970,2,0,L|500:109,1,80,0|2,0:0|0:3,0:0:0:0:
469,33,142304,1,8,0:0:0:0:
369,151,142470,2,0,B|382:212|382:212|377:239|377:239|391:314,1,160,2|2,0:3|0:3,0:0:0:0:
380,338,142887,1,0,0:0:0:0:
380,338,142970,6,0,P|337:359|244:328,1,120,8|0,0:0|0:0,0:0:0:0:
246,323,143304,2,0,P|217:302|152:298,1,80,0|2,0:0|0:3,0:0:0:0:
71,339,143637,1,8,0:0:0:0:
61,227,143804,1,2,0:3:0:0:
144,153,143970,6,0,P|188:146|239:172,1,80,0|2,0:0|0:3,0:0:0:0:
102,304,144304,1,8,0:0:0:0:
181,224,144471,1,2,0:3:0:0:
291,240,144637,2,0,P|324:269|337:324,1,80,0|2,0:0|0:3,0:0:0:0:
333,333,144887,1,0,0:0:0:0:
333,333,144970,1,8,0:0:0:0:
444,318,145137,1,2,0:3:0:0:
437,205,145304,5,8,0:0:0:0:
463,96,145470,1,0,0:0:0:0:
466,72,145554,1,0,0:0:0:0:
470,48,145637,1,0,0:0:0:0:
369,97,145804,1,0,0:0:0:0:
259,75,145970,1,0,0:0:0:0:
157,122,146137,1,0,0:0:0:0:
256,173,146304,1,0,0:0:0:0:
169,20,146470,1,0,0:0:0:0:
76,118,146637,6,0,P|59:164|89:264,1,143.999995605469,12|0,0:2|0:0,0:0:0:0:
110,278,146970,2,0,L|220:284,1,95.9999970703126,8|2,0:0|0:2,0:0:0:0:
302,287,147304,1,0,0:0:0:0:
352,206,147470,1,8,0:2:0:0:
345,110,147637,1,8,0:0:0:0:
273,45,147804,1,2,2:2:0:0:
273,45,147887,1,0,0:0:0:0:
273,45,147970,6,0,P|218:33|178:43,1,95.9999970703126,10|2,0:2|0:2,0:0:0:0:
345,110,148304,2,0,P|400:122|440:112,1,95.9999970703126,8|0,0:0|0:0,0:0:0:0:
273,45,148637,2,0,P|252:90|337:207,1,191.999994140625,0|8,0:0|0:0,0:0:0:0:
413,199,149137,1,2,2:2:0:0:
413,199,149220,1,0,0:0:0:0:
413,199,149304,6,0,L|401:305,1,95.9999970703126,10|0,0:2|0:2,0:0:0:0:
396,332,149554,1,0,0:0:0:0:
396,332,149637,2,0,P|344:338|297:305,1,95.9999970703126,8|0,0:0|0:2,0:0:0:0:
251,239,149970,2,0,L|263:124,1,95.9999970703126,2|8,0:2|0:2,0:0:0:0:
156,237,150304,2,0,L|146:332,1,95.9999970703126,8|2,0:0|0:2,0:0:0:0:
61,216,150637,6,0,L|73:101,1,95.9999970703126,10|2,0:2|2:2,0:0:0:0:
75,82,150887,1,0,0:0:0:0:
75,82,150970,1,8,0:0:0:0:
171,145,151137,1,0,0:2:0:0:
255,65,151304,2,0,L|371:52,1,95.9999970703126,2|0,0:3|0:0,0:0:0:0:
388,48,151554,1,0,0:0:0:0:
388,48,151637,1,8,0:3:0:0:
477,121,151804,1,2,0:3:0:0:
371,162,151970,6,0,L|227:177,1,143.999995605469,12|0,0:2|0:0,0:0:0:0:
227,177,152304,2,0,P|217:227|241:271,1,95.9999970703126,8|2,0:0|0:2,0:0:0:0:
328,294,152637,1,0,0:0:0:0:
419,264,152804,1,8,0:2:0:0:
458,176,152970,1,8,0:0:0:0:
436,82,153137,1,2,2:0:0:0:
436,82,153220,1,0,0:0:0:0:
436,82,153304,6,0,P|396:59|344:65,1,95.9999970703126,10|0,0:2|0:2,0:0:0:0:
342,223,153637,2,0,P|387:230|434:207,1,95.9999970703126,8|0,0:0|0:0,0:0:0:0:
291,140,153970,2,0,B|216:128|216:128|177:140|177:140|92:125,1,191.999994140625,0|8,0:0|0:0,0:0:0:0:
49,46,154470,1,2,2:0:0:0:
51,198,154637,6,0,P|59:239|114:275,1,95.9999970703126,10|0,0:2|0:0,0:0:0:0:
137,266,154887,1,0,0:0:0:0:
137,266,154970,2,0,L|237:273,1,95.9999970703126,8|0,0:0|0:0,0:0:0:0:
271,274,155220,1,8,0:0:0:0:
271,274,155304,1,2,0:2:0:0:
360,307,155470,1,8,0:2:0:0:
442,257,155637,2,0,P|451:204|428:153,1,95.9999970703126,8|2,0:0|0:2,0:0:0:0:
371,70,155970,5,0,0:3:0:0:
288,150,156137,1,2,0:3:0:0:
293,168,156220,1,2,0:3:0:0:
298,186,156304,1,0,0:0:0:0:
207,95,156470,1,2,0:3:0:0:
121,138,156637,1,2,0:3:0:0:
126,156,156720,1,2,0:3:0:0:
131,174,156804,1,2,0:3:0:0:
135,192,156887,1,0,0:0:0:0:
139,210,156970,1,2,0:3:0:0:
263,300,157137,1,2,0:3:0:0:
109,292,157304,5,4,0:0:0:0:
109,292,157387,2,0,P|70:266|76:160,1,143.999995605469,0|8,0:0|0:0,0:0:0:0:
145,68,157804,1,0,0:0:0:0:
145,68,157887,1,0,0:0:0:0:
145,68,157970,2,0,P|188:45|249:52,1,95.9999970703126,0|8,0:0|0:2,0:0:0:0:
361,93,158304,1,8,0:0:0:0:
241,153,158470,1,2,2:2:0:0:
106,143,158637,6,0,P|70:112|66:58,1,95.9999970703126,10|2,0:2|0:2,0:0:0:0:
242,24,158970,2,0,P|257:68|234:117,1,95.9999970703126,8|0,0:0|0:0,0:0:0:0:
209,135,159220,1,0,0:0:0:0:
209,135,159304,2,0,L|202:252,1,95.9999970703126,0|8,0:0|0:2,0:0:0:0:
195,346,159637,1,8,0:0:0:0:
305,313,159804,1,2,2:2:0:0:
412,352,159970,6,0,B|418:297|418:297|430:277|430:277|438:201,1,143.999995605469,10|0,0:2|0:0,0:0:0:0:
443,173,160304,1,8,0:0:0:0:
360,93,160470,1,0,0:2:0:0:
360,93,160554,1,0,0:0:0:0:
360,93,160637,2,0,P|317:84|260:112,1,95.9999970703126,2|0,0:2|0:0,0:0:0:0:
245,264,160970,2,0,P|288:273|345:245,1,95.9999970703126,8|2,0:0|0:2,0:0:0:0:
178,177,161304,6,0,P|137:221|150:319,1,143.999995605469,10|0,0:2|0:0,0:0:0:0:
160,332,161637,1,8,0:0:0:0:
278,267,161804,1,0,0:2:0:0:
259,134,161970,2,0,P|222:99|163:96,1,95.9999970703126,2|2,0:3|0:3,0:0:0:0:
141,102,162220,1,0,0:0:0:0:
141,102,162304,1,8,0:3:0:0:
340,163,162470,1,2,0:3:0:0:
203,203,162637,6,0,B|191:262|191:262|197:287|197:287|185:352,1,143.999995605469,12|0,0:2|0:0,0:0:0:0:
191,362,162970,2,0,P|139:367|97:337,1,95.9999970703126,8|2,0:0|0:2,0:0:0:0:
62,257,163304,1,0,0:0:0:0:
164,126,163470,1,8,0:2:0:0:
75,162,163637,1,8,0:0:0:0:
247,173,163804,1,2,2:0:0:0:
247,173,163887,1,0,0:0:0:0:
247,173,163970,6,0,L|351:155,1,95.9999970703126,10|0,0:2|0:2,0:0:0:0:
379,147,164220,1,0,0:0:0:0:
379,147,164304,2,0,P|404:181|407:241,1,95.9999970703126,8|0,0:0|0:0,0:0:0:0:
287,106,164637,2,0,P|293:64|333:19,1,95.9999970703126,0|0,0:0|0:0,0:0:0:0:
417,52,164970,1,8,0:0:0:0:
279,186,165137,1,2,2:0:0:0:
279,186,165220,1,0,0:0:0:0:
279,186,165304,6,0,P|239:201|180:189,1,95.9999970703126,10|0,0:2|0:0,0:0:0:0:
59,127,165637,1,8,0:0:0:0:
120,224,165804,1,0,0:0:0:0:
120,224,165887,1,0,0:0:0:0:
120,224,165970,2,0,L|110:332,1,95.9999970703126,2|8,0:2|0:2,0:0:0:0:
277,276,166304,2,0,P|291:238|273:177,1,95.9999970703126,8|2,0:0|0:2,0:0:0:0:
174,126,166637,5,2,0:3:0:0:
275,61,166804,1,2,0:3:0:0:
296,71,166887,1,2,0:3:0:0:
317,82,166970,1,2,0:3:0:0:
183,34,167137,1,2,0:3:0:0:
94,72,167304,5,0,0:0:0:0:
86,167,167470,1,0,0:0:0:0:
163,223,167637,1,0,0:0:0:0:
249,181,167804,1,0,0:0:0:0:
338,213,167970,6,0,B|378:238|367:290|367:290|397:335|485:318,1,191.999994140625,2|8,0:1|0:0,0:0:0:0:
447,182,168470,1,2,0:1:0:0:
320,116,168637,2,0,P|266:136|247:262,1,191.999994140625,0|8,0:1|0:0,0:0:0:0:
312,349,169137,1,2,0:1:0:0:
312,349,169220,1,0,0:0:0:0:
312,349,169304,6,0,L|418:330,1,95.9999970703126,2|2,0:0|0:0,0:0:0:0:
476,240,169637,2,0,P|486:200|460:140,2,95.9999970703126,8|2|0,0:0|0:0|0:3,0:0:0:0:
286,271,170304,1,8,0:0:0:0:
214,334,170470,1,0,0:0:0:0:
119,318,170637,6,0,B|92:274|92:274|120:228|96:167,1,143.999995605469,2|0,0:1|0:0,0:0:0:0:
83,150,170970,1,8,0:0:0:0:
170,47,171137,1,0,0:0:0:0:
280,123,171304,2,0,L|427:102,1,143.999995605469,2|0,0:0|0:0,0:0:0:0:
422,102,171637,2,0,P|445:144|437:199,1,95.9999970703126,8|0,0:0|0:0,0:0:0:0:
356,270,171970,5,2,0:0:0:0:
253,217,172137,1,2,0:0:0:0:
328,349,172304,2,0,P|373:356|422:318,1,95.9999970703126,8|2,0:0|0:0,0:0:0:0:
428,305,172554,1,0,0:0:0:0:
437,277,172637,2,0,L|442:172,1,95.9999970703126,2|0,0:3|0:0,0:0:0:0:
349,58,172970,2,0,L|345:121,3,47.9999985351563,8|0|2|0,0:0|0:0|0:3|0:0,0:0:0:0:
345,144,173304,6,0,P|298:158|206:62,1,191.999994140625,2|8,0:0|0:0,0:0:0:0:
315,33,173804,1,2,0:0:0:0:
411,95,173970,2,0,B|397:175|397:175|401:198|401:198|386:286,1,191.999994140625,2|8,0:0|0:0,0:0:0:0:
287,344,174470,1,2,0:0:0:0:
287,344,174554,1,0,0:0:0:0:
287,344,174637,6,0,P|243:362|189:346,1,95.9999970703126,2|2,0:0|0:0,0:0:0:0:
124,262,174970,1,8,0:0:0:0:
236,234,175137,1,2,0:0:0:0:
114,351,175304,2,0,P|63:333|37:282,1,95.9999970703126,2|2,0:0|0:3,0:0:0:0:
160,183,175637,2,0,P|201:217|208:274,1,95.9999970703126,8|2,0:0|0:3,0:0:0:0:
63,193,175970,6,0,P|69:141|151:98,1,143.999995605469,2|0,0:0|0:0,0:0:0:0:
180,107,176304,1,10,0:0:0:0:
373,38,176470,1,0,0:0:0:0:
373,38,176637,2,0,L|356:151,1,95.9999970703126,0|2,0:0|0:0,0:0:0:0:
331,264,176970,2,0,P|378:269|437:229,1,95.9999970703126,8|2,0:0|0:0,0:0:0:0:
244,177,177304,5,0,0:0:0:0:
187,273,177470,1,0,0:0:0:0:
195,295,177554,1,0,0:0:0:0:
203,317,177637,1,0,0:0:0:0:
98,218,177804,1,0,0:0:0:0:
227,97,177970,2,0,P|273:98|323:205,1,160,0|0,0:0|0:0,0:0:0:0:
