osu file format v14

[General]
AudioFilename: Himeringo.mp3
AudioLeadIn: 0
PreviewTime: 37470
Countdown: 0
SampleSet: Normal
StackLeniency: 0.3
Mode: 0
LetterboxInBreaks: 0
WidescreenStoryboard: 1

[Editor]
DistanceSpacing: 1.1
BeatDivisor: 4
GridSize: 4
TimelineZoom: 1.5

[Metadata]
Title:Koitsubakihime
TitleUnicode:恋椿姫
Artist:Himeringo
ArtistUnicode:ひめりんご
Creator:toybot
Version:Frey's Normal
Source:
Tags:PolyphonicBranch BUZZ ke-sanβ 色白 skystar amamiya yuko ongaku reol halloween frey
BeatmapID:916571
BeatmapSetID:408558

[Difficulty]
HPDrainRate:4
CircleSize:3
OverallDifficulty:4
ApproachRate:5
SliderMultiplier:1
SliderTickRate:1

[Events]
//Background and Video events
0,0,"__ia_vocaloid_drawn_by_yuma0020__4081f051332152df3c3b3ddb8f289172.jpg",0,0
//Break Periods
//Storyboard Layer 0 (Background)
//Storyboard Layer 1 (Fail)
//Storyboard Layer 2 (Pass)
//Storyboard Layer 3 (Foreground)
//Storyboard Sound Samples

[TimingPoints]
3971,333.333333333333,4,1,0,60,1,0
5304,-100,4,1,2,60,0,0
14637,-100,4,1,1,60,0,0
15470,-100,4,2,1,40,0,0
15970,-100,4,3,3,50,0,0
26637,-100,4,2,1,60,0,0
35804,-100,4,2,1,60,0,0
36637,-100,4,2,1,60,0,0
37137,-100,4,1,2,70,0,0
37470,-100,4,3,4,70,0,0
37720,-100,4,3,4,5,0,0
37804,-100,4,3,4,70,0,0
37887,-100,4,3,4,5,0,0
37970,-100,4,3,4,70,0,0
38054,-100,4,3,4,5,0,0
38137,-100,4,3,4,70,0,0
38220,-100,4,3,4,5,0,0
38304,-100,4,3,4,70,0,0
38387,-100,4,3,4,5,0,0
38470,-100,4,3,4,70,0,0
38554,-100,4,3,4,5,0,0
38637,-100,4,1,1,70,0,1
43304,-100,4,1,2,70,0,1
43970,-100,4,1,1,70,0,1
49304,-100,4,2,1,70,0,0
57304,-100,4,1,1,70,0,0
58637,-100,4,1,1,70,0,0
59637,-100,4,1,1,70,0,0
59970,-100,4,1,3,60,0,0
63970,-100,4,1,2,60,0,0
64220,-100,4,1,3,60,0,0
64637,-100,4,1,2,60,0,0
64720,-100,4,1,3,60,0,0
64970,-100,4,1,2,60,0,0
65137,-100,4,1,3,60,0,0
65304,-100,4,1,3,60,0,0
70637,-100,4,2,1,60,0,0
78637,-100,4,2,1,60,0,0
79804,-100,4,2,1,60,0,0
80637,-100,4,2,1,60,0,0
81137,-100,4,1,2,70,0,0
81470,-100,4,3,4,70,0,0
81720,-100,4,3,4,5,0,0
81804,-100,4,3,4,70,0,0
81887,-100,4,3,4,5,0,0
81970,-100,4,3,4,70,0,0
82054,-100,4,3,4,5,0,0
82137,-100,4,3,4,70,0,0
82220,-100,4,3,4,5,0,0
82304,-100,4,3,4,70,0,0
82387,-100,4,3,4,5,0,0
82470,-100,4,3,4,70,0,0
82554,-100,4,3,4,5,0,0
82637,-100,4,1,1,70,0,1
87304,-100,4,1,2,70,0,1
87970,-100,4,1,1,70,0,1
93304,-100,4,1,2,40,0,0
93637,-100,4,1,2,40,0,0
98637,-100,4,1,2,40,0,0
103220,-100,4,2,2,5,0,0
103304,-100,4,1,2,40,0,0
103970,-100,4,1,2,50,0,0
114637,-100,4,1,3,40,0,0
133304,-100,4,3,1,30,0,0
133637,-100,4,3,1,35,0,0
133970,-100,4,3,1,40,0,0
134304,-100,4,3,1,45,0,0
134637,-100,4,3,1,50,0,0
134970,-100,4,3,1,55,0,0
135304,-100,4,3,1,60,0,0
135970,-100,4,1,2,60,0,0
145470,-100,4,3,4,70,0,0
145720,-100,4,2,4,5,0,0
145804,-100,4,3,4,70,0,0
145887,-100,4,2,4,5,0,0
145970,-100,4,3,4,70,0,0
146054,-100,4,2,4,5,0,0
146137,-100,4,3,4,70,0,0
146220,-100,4,2,4,5,0,0
146304,-100,4,3,4,70,0,0
146387,-100,4,2,4,5,0,0
146470,-100,4,3,4,70,0,0
146554,-100,4,2,4,5,0,0
146637,-100,4,1,1,70,0,1
151304,-100,4,1,2,70,0,1
151970,-100,4,1,1,70,0,1
157304,-100,4,1,1,80,0,1
161970,-100,4,1,2,80,0,1
162637,-100,4,1,1,80,0,1
166637,-100,4,1,1,70,0,1
167304,-100,4,3,4,70,0,0
167970,-100,4,1,2,70,0,0
177304,-100,4,3,4,70,0,0
177387,-100,4,3,4,5,0,0
177470,-100,4,3,4,70,0,0
177720,-100,4,3,4,5,0,0
177804,-100,4,3,4,70,0,0
177887,-100,4,3,4,5,0,0
177970,-100,4,3,4,70,0,0
178304,-100,4,2,4,5,0,0

[Colours]
Combo1 : 125,62,105
Combo2 : 255,128,255
Combo3 : 209,27,136
Combo4 : 192,70,196

[HitObjects]
72,196,4637,6,0,P|51:150|52:101,1,100,0|0,0:0|0:0,0:0:0:0:
160,128,5304,1,6,0:0:0:0:
176,236,5637,2,0,L|232:228,1,50,8|0,0:0|0:0,0:0:0:0:
256,184,5970,2,0,L|354:198,1,100,2|8,0:0|0:0,0:0:0:0:
404,176,6470,1,0,0:0:0:0:
428,128,6637,2,0,P|432:78|412:33,2,100,2|8|2,0:0|0:0|0:0,0:0:0:0:
324,95,7637,1,8,0:0:0:0:
256,184,7970,6,0,L|276:292,1,100,2|8,0:0|0:0,0:0:0:0:
288,336,8470,2,0,L|352:344,1,50,0|2,0:0|0:0,0:0:0:0:
404,256,8970,2,0,L|394:194,1,50,8|0,0:0|0:0,0:0:0:0:
384,152,9304,1,2,0:0:0:0:
300,84,9637,1,8,0:0:0:0:
256,184,9970,2,0,P|200:200|152:204,1,100,2|8,0:0|0:0,0:0:0:0:
64,144,10637,5,6,0:0:0:0:
4,236,10970,2,0,P|0:276|0:300,1,50,8|0,0:0|0:0,0:0:0:0:
36,328,11304,2,0,B|80:340|96:312|140:324,1,100,2|8,0:0|0:0,0:0:0:0:
180,356,11804,1,0,0:0:0:0:
232,372,11970,2,0,P|268:332|268:284,2,100,2|8|2,0:0|0:0|0:0,0:0:0:0:
134,322,12970,1,8,0:0:0:0:
84,224,13304,6,0,P|76:172|84:124,1,100,2|8,0:0|0:0,0:0:0:0:
156,40,13970,2,0,L|224:32,2,50,2|0|8,0:0|0:0|0:0,0:0:0:0:
83,125,14637,1,8,0:0:0:0:
180,176,14970,1,8,0:0:0:0:
256,96,15304,2,0,L|372:108,1,100,8|2,0:0|0:0,0:0:0:0:
443,43,15970,6,0,P|463:89|458:138,1,100,4|8,0:0|0:0,0:0:0:0:
376,212,16637,2,0,P|370:261|390:306,1,100,4|8,0:0|0:0,0:0:0:0:
480,244,17304,1,4,0:0:0:0:
458,138,17637,1,8,0:0:0:0:
352,104,17970,2,0,B|260:92|296:144|204:136,1,150,4|8,0:0|0:0,0:0:0:0:
160,108,18637,5,4,0:0:0:0:
200,4,18970,1,8,0:0:0:0:
312,4,19304,1,4,0:0:0:0:
352,104,19637,1,8,0:0:0:0:
256,156,19970,2,0,L|152:168,2,100,4|8|4,0:0|0:0|0:0,0:0:0:0:
352,212,20970,2,0,L|358:261,1,50,8|0,0:0|0:0,0:0:0:0:
324,304,21304,6,0,L|220:316,1,100,4|8,0:0|0:0,0:0:0:0:
132,372,21970,2,0,P|84:356|24:360,1,100,4|8,0:0|0:0,0:0:0:0:
4,252,22637,2,0,P|52:268|112:264,1,100,4|8,0:0|0:0,0:0:0:0:
196,212,23304,1,4,0:0:0:0:
164,108,23637,1,8,0:0:0:0:
64,160,23970,5,4,0:0:0:0:
100,266,24304,1,8,0:0:0:0:
204,304,24637,2,0,L|303:292,1,100,4|8,0:0|0:0,0:0:0:0:
408,332,25304,2,0,P|484:276|416:140,1,250,4|0,0:0|0:0,0:0:0:0:
384,132,26304,2,0,L|372:72,1,50,8|0,0:0|0:0,0:0:0:0:
364,28,26637,5,4,1:2:0:0:
284,104,26970,1,0,1:0:0:0:
284,104,27137,2,0,P|226:98|176:96,2,100,2|0|0,0:0|0:0|1:2,0:0:0:0:
304,212,28137,1,0,0:0:0:0:
304,212,28304,2,0,P|248:264|176:256,1,150,0|0,1:0|0:0,0:0:0:0:
140,220,28970,2,0,P|104:216|72:228,1,50,8|0,1:0|0:0,0:0:0:0:
48,252,29304,6,0,P|28:288|28:348,1,100,4|0,1:2|1:0,0:0:0:0:
72,380,29804,2,0,L|180:368,2,100,2|0|0,0:0|0:0|1:0,0:0:0:0:
132,284,30804,1,0,0:0:0:0:
132,284,30970,2,0,L|240:272,1,100,0|0,1:0|0:0,0:0:0:0:
276,308,31470,1,8,1:0:0:0:
320,344,31637,2,0,L|369:338,1,50,8|0,1:0|0:0,0:0:0:0:
424,332,31970,5,4,1:2:0:0:
484,240,32304,1,0,1:0:0:0:
484,240,32470,2,0,P|496:192|500:141,2,100,2|0|0,0:0|0:0|1:0,0:0:0:0:
376,256,33470,1,0,0:0:0:0:
376,256,33637,2,0,P|336:208|368:120,1,150,0|0,1:0|0:0,0:0:0:0:
404,100,34304,1,8,1:0:0:0:
324,24,34637,6,0,L|216:32,1,100,0|0,0:0|1:0,0:0:0:0:
176,8,35137,2,0,L|168:107,2,100,2|0|4,0:0|0:0|1:2,0:0:0:0:
76,52,36137,2,0,L|72:112,1,50,0|0,1:0|1:0,1:0:0:0:
68,152,36470,1,0,1:0:0:0:
64,208,36637,2,0,B|124:200|124:200|172:236|172:236|256:224,1,200,0|0,1:0|0:0,0:0:0:0:
284,120,37637,2,0,L|300:64,2,50
356,204,38304,2,0,L|405:196,1,50
456,220,38637,6,0,P|440:272|448:324,1,100,4|8,0:0|0:0,0:0:0:0:
352,376,39304,2,0,L|303:368,1,50
256,336,39637,2,0,L|207:328,1,50,8|0,0:0|0:0,0:0:0:0:
160,296,39970,2,0,L|61:314,2,100,0|8|0,0:0|0:0|0:0,0:0:0:0:
240,220,40970,2,0,P|246:190|244:160,1,50,8|0,0:0|0:0,0:0:0:0:
224,120,41304,6,0,P|208:84|216:16,1,100,0|8,0:0|0:0,0:0:0:0:
268,12,41804,1,0,0:0:0:0:
312,48,41970,2,0,L|412:60,1,100,0|8,0:0|0:0,0:0:0:0:
504,120,42637,1,0,0:0:0:0:
452,216,42970,2,0,L|381:209,1,50,8|0,0:0|0:0,0:0:0:0:
348,204,43304,1,2,0:0:0:0:
256,144,43637,2,0,L|184:152,1,50,8|0,0:0|0:0,0:0:0:0:
168,192,43970,6,0,P|160:244|160:312,1,100,4|8,0:0|0:0,0:0:0:0:
268,304,44637,2,0,P|276:268|276:232,1,50
324,224,44970,2,0,P|360:232|396:232,1,50,8|0,0:0|0:0,0:0:0:0:
424,212,45304,2,0,P|436:160|424:116,2,100,0|8|0,0:0|0:0|0:0,0:0:0:0:
376,312,46304,1,8,0:0:0:0:
268,304,46637,6,0,P|216:296|152:280,1,100,0|8,0:0|0:0,0:0:0:0:
68,324,47304,2,0,P|40:328|8:336,2,50,0|0|8,0:0|0:0|0:0,0:0:0:0:
56,216,47970,1,0,0:0:0:0:
144,148,48304,1,8,0:0:0:0:
164,256,48637,2,0,P|260:256|320:176,1,200,0|4,0:0|0:0,0:0:0:0:
348,72,49637,5,0,1:0:0:0:
456,88,49970,2,0,P|444:160|448:200,1,100
396,212,50470,2,0,P|396:261|385:310,1,100,0|0,1:0|0:0,0:0:0:0:
348,352,50970,2,0,P|297:359|232:364,2,100,0|0|0,1:0|0:0|1:0,0:0:0:0:
460,340,51970,5,0,0:0:0:0:
484,232,52304,1,0,1:0:0:0:
392,168,52637,2,0,B|324:156|304:208|240:196,1,150,0|4,0:0|1:2,0:0:0:0:
144,160,53470,1,0,0:0:0:0:
144,160,53637,2,0,L|132:56,2,100,0|0|0,1:0|0:0|1:0,0:0:0:0:
76,248,54637,5,0,0:0:0:0:
88,356,54970,1,0,1:0:0:0:
192,384,55304,2,0,P|264:376|312:368,1,100
328,328,55804,2,0,P|312:284|316:228,1,100,0|0,1:0|0:0,0:0:0:0:
348,188,56304,2,0,P|351:138|334:91,2,100,0|0|0,1:0|0:0|1:0,0:0:0:0:
244,152,57304,5,4,0:0:0:0:
236,44,57637,2,0,L|164:32,1,50,8|0,0:0|0:0,0:0:0:0:
144,72,57970,2,0,L|45:86,1,100,2|8,0:0|0:0,0:0:0:0:
8,192,58637,2,0,P|0:240|4:260,1,50,2|0,0:0|0:0,0:0:0:0:
36,284,58970,2,0,P|84:292|104:288,1,50,8|0,0:0|0:0,0:0:0:0:
140,276,59304,2,2,P|192:276|236:300,1,100,2|8,0:0|0:0,0:0:0:0:
299,208,59970,6,0,P|250:208|206:186,1,100,0|8,0:0|0:0,0:0:0:0:
276,100,60637,1,0,0:0:0:0:
380,132,60970,1,8,0:0:0:0:
404,240,61304,2,0,P|420:320|432:356,1,100,0|8,0:0|0:0,0:0:0:0:
512,268,61970,1,0,0:0:0:0:
484,164,62304,1,8,0:0:0:0:
380,132,62637,6,0,P|328:140|280:132,1,100,0|8,0:0|0:0,0:0:0:0:
232,32,63304,2,0,P|182:24|133:32,1,100,0|8,0:0|0:0,0:0:0:0:
56,112,63970,2,0,P|26:72|22:23,2,100,0|8|0,0:0|0:0|0:0,0:0:0:0:
144,180,64970,2,0,L|134:229,1,50,8|0,0:0|0:0,0:0:0:0:
124,284,65304,5,4,0:0:0:0:
208,356,65637,1,8,0:0:0:0:
228,248,65970,2,0,L|248:140,1,100,0|8,0:0|0:0,0:0:0:0:
164,72,66637,1,0,0:0:0:0:
144,180,66970,1,8,0:0:0:0:
228,248,67304,2,0,P|280:240|332:236,1,100,0|8,0:0|0:0,0:0:0:0:
424,188,67970,6,0,P|436:235|424:283,1,100,0|8,0:0|0:0,0:0:0:0:
328,340,68637,2,0,P|278:344|228:351,1,100,0|8,0:0|0:0,0:0:0:0:
124,316,69304,2,0,P|80:280|168:140,1,250
208,132,70304,2,0,L|224:68,1,50,8|0,0:0|0:0,0:0:0:0:
232,28,70637,5,4,1:0:0:0:
312,100,70970,1,0,1:0:0:0:
312,100,71137,2,0,B|364:108|368:84|412:92,2,100,2|0|0,0:0|0:0|1:0,0:0:0:0:
208,132,72137,1,0,0:0:0:0:
208,132,72304,2,0,P|168:204|196:276,1,150,0|0,1:0|0:0,0:0:0:0:
216,312,72970,2,0,L|284:300,1,50,8|0,1:0|0:0,0:0:0:0:
308,268,73304,6,0,L|320:148,1,100,4|0,0:0|1:0,0:0:0:0:
364,140,73804,2,0,L|462:158,2,100,2|0|0,0:0|0:0|1:0,0:0:0:0:
296,52,74804,1,0,0:0:0:0:
296,52,74970,2,0,P|248:64|192:64,1,100,0|0,1:0|0:0,0:0:0:0:
144,60,75470,1,8,1:0:0:0:
100,92,75637,2,0,P|88:128|88:160,1,50,8|0,1:0|0:0,0:0:0:0:
112,188,75970,5,4,1:2:0:0:
220,172,76304,1,0,1:0:0:0:
220,172,76470,2,0,P|232:256|240:292,2,100,2|0|0,0:0|0:0|1:0,0:0:0:0:
328,156,77470,1,0,0:0:0:0:
328,156,77637,2,0,P|344:264|356:324,1,150,0|0,1:0|0:0,0:0:0:0:
364,360,78304,1,8,1:0:0:0:
256,324,78637,6,0,P|212:312|148:300,1,100,0|0,0:0|1:0,0:0:0:0:
104,288,79137,1,2,0:0:0:0:
4,336,79470,1,0,0:0:0:0:
12,228,79804,1,4,1:2:0:0:
112,180,80137,2,0,P|160:176|180:176,1,50,0|0,1:0|1:0,0:0:0:0:
216,160,80470,1,0,1:0:0:0:
260,128,80637,2,0,P|252:60|144:92,1,200,0|0,1:0|0:0,0:0:0:0:
112,180,81637,2,0,L|104:248,2,50
200,244,82304,2,0,L|192:312,1,50
156,332,82637,6,0,P|108:336|56:344,1,100,4|8,0:0|0:0,0:0:0:0:
0,252,83304,2,0,L|5:202,1,50
36,156,83637,2,0,L|85:150,1,50,8|0,0:0|0:0,0:0:0:0:
132,180,83970,2,0,L|240:168,2,100,0|8|0,0:0|0:0|0:0,0:0:0:0:
100,284,84970,2,0,P|100:313|112:340,1,50,8|0,0:0|0:0,0:0:0:0:
144,372,85304,6,0,P|193:376|248:380,1,100,0|8,0:0|0:0,0:0:0:0:
296,364,85804,1,0,0:0:0:0:
332,324,85970,2,0,P|348:272|344:220,1,100,0|8,0:0|0:0,0:0:0:0:
256,164,86637,1,0,0:0:0:0:
166,101,86970,2,0,L|172:48,1,50,8|0,0:0|0:0,0:0:0:0:
216,20,87304,2,0,L|320:32,1,100,2|8,0:0|0:0,0:0:0:0:
368,40,87804,1,0,0:0:0:0:
420,52,87970,6,0,P|439:97|432:146,2,100,4|8|0,0:0|0:0|0:0,0:0:0:0:
328,112,88970,2,0,L|320:168,1,50,8|0,0:0|0:0,0:0:0:0:
336,216,89304,2,0,L|440:236,2,100,0|8|0,0:0|0:0|0:0,0:0:0:0:
236,168,90304,1,8,0:0:0:0:
148,236,90637,6,0,P|140:292|160:340,1,100,0|8,0:0|0:0,0:0:0:0:
256,372,91304,2,0,P|287:375|316:376,2,50,0|0|8,0:0|0:0|0:0,0:0:0:0:
256,264,91970,1,0,0:0:0:0:
148,236,92304,1,8,0:0:0:0:
79,323,92637,2,0,P|35:238|79:152,1,200
188,132,93637,6,0,P|236:140|296:144,1,100
364,64,94304,1,0,0:0:0:0:
256,44,94637,1,0,0:0:0:0:
188,132,94970,1,0,0:0:0:0:
224,236,95304,2,0,P|224:288|212:340,1,100
104,316,95970,6,0,P|104:264|116:212,1,100
188,132,96637,2,0,P|256:128|296:124,1,100
376,192,97304,2,0,P|425:196|475:199,2,100
324,288,98304,2,0,P|305:288|273:292,1,50
223,311,98637,6,0,P|174:313|128:294,1,100
192,208,99304,2,0,P|204:168|200:108,1,100
312,88,99970,2,0,P|307:137|320:185,1,100
416,128,100637,1,0,0:0:0:0:
400,20,100970,1,0,0:0:0:0:
312,88,101304,6,0,B|260:96|252:76|200:84,1,100
116,132,101970,2,0,P|96:176|96:228,1,100
156,320,102637,2,0,B|244:352|264:268|348:304,1,200
432,376,103637,1,0,0:0:0:0:
456,268,103970,6,0,L|448:168,1,100,4|0,0:0|0:0,0:0:0:0:
356,108,104637,1,8,0:0:0:0:
348,220,104970,2,0,L|284:212,1,50
256,248,105304,2,0,L|156:258,1,100
56,212,105970,2,0,P|32:148|76:80,1,150,8|0,0:0|0:0,0:0:0:0:
116,48,106637,6,0,P|184:56|236:56,1,100
296,132,107304,2,0,P|364:124|416:124,1,100,8|0,0:0|0:0,0:0:0:0:
436,160,107804,1,0,0:0:0:0:
464,208,107970,2,0,P|472:256|472:312,1,100
368,352,108637,2,0,B|280:368|308:328|208:344,1,150,8|0,0:0|0:0,0:0:0:0:
168,360,109304,5,4,0:0:0:0:
220,260,109637,1,0,0:0:0:0:
120,220,109970,1,8,0:0:0:0:
68,316,110304,2,0,L|4:324,1,50
0,268,110637,2,0,B|16:204|16:204|0:140|0:140|20:72,1,200,0|8,0:0|0:0,0:0:0:0:
116,24,111637,1,0,0:0:0:0:
160,128,111970,6,0,B|208:152|256:136|256:136|304:152|356:128,1,200,0|8,0:0|0:0,0:0:0:0:
396,24,112970,2,0,P|436:40|452:44,1,50
496,56,113304,1,0,0:0:0:0:
508,164,113637,1,0,0:0:0:0:
408,208,113970,2,0,P|412:248|412:268,2,50,8|0|0,0:0|0:0|0:0,0:0:0:0:
336,120,114637,6,0,P|278:119|232:132,1,100
152,200,115304,1,2,0:0:0:0:
40,180,115637,2,0,P|32:144|32:116,1,50
52,80,115970,2,0,P|128:88|196:52,1,150,8|0,0:0|0:0,0:0:0:0:
232,16,116637,1,2,0:0:0:0:
312,96,116970,1,0,0:0:0:0:
232,176,117304,6,0,P|216:256|220:340,1,150
264,356,117970,1,2,0:0:0:0:
368,324,118304,2,0,B|360:264,1,50
352,220,118637,1,8,0:0:0:0:
456,252,118970,1,0,0:0:0:0:
488,148,119304,1,2,0:0:0:0:
384,116,119637,1,4,0:0:0:0:
352,220,119970,6,0,P|296:224|232:236,1,100,4|0,0:0|0:0,0:0:0:0:
148,200,120637,1,2,0:0:0:0:
92,108,120970,2,0,P|88:80|88:48,1,50
116,8,121304,2,0,P|200:4|232:56,1,150,8|0,0:0|0:0,0:0:0:0:
240,108,121970,1,2,0:0:0:0:
308,192,122304,1,0,0:0:0:0:
416,168,122637,6,0,B|408:224|408:224|420:268|420:268|413:315,1,150
404,372,123304,1,2,0:0:0:0:
296,348,123637,2,0,L|304:296,1,50
316,244,123970,2,0,B|236:236|244:276|168:268,1,150,8|0,0:0|0:0,0:0:0:0:
120,244,124637,1,2,0:0:0:0:
44,324,124970,1,4,0:0:0:0:
12,220,125304,6,0,L|4:68,1,150,4|0,0:0|0:0,0:0:0:0:
32,24,125970,1,2,0:0:0:0:
108,104,126304,1,0,0:0:0:0:
208,148,126637,2,0,P|260:152|328:152,1,100,8|0,0:0|0:0,0:0:0:0:
376,240,127304,2,0,P|425:239|475:235,1,100,2|0,0:0|0:0,0:0:0:0:
432,336,127970,6,0,P|357:340|282:337,1,150
228,332,128637,1,2,0:0:0:0:
268,232,128970,1,0,0:0:0:0:
376,240,129304,2,0,P|364:172|360:128,2,100,8|0|2,0:0|0:0|0:0,0:0:0:0:
336,344,130304,1,4,0:0:0:0:
228,332,130637,6,0,B|160:320|144:364|72:348,1,150,4|0,0:0|0:0,0:0:0:0:
32,324,131304,1,2,0:0:0:0:
108,244,131637,1,0,0:0:0:0:
92,136,131970,2,0,L|76:28,1,100,8|0,0:0|0:0,0:0:0:0:
180,76,132637,2,0,L|194:174,1,100,0|2,0:0|0:0,0:0:0:0:
108,244,133304,5,0,0:0:0:0:
4,204,133637,1,0,0:0:0:0:
92,136,133970,1,0,0:0:0:0:
196,176,134304,1,0,0:0:0:0:
212,284,134637,2,0,P|272:276|324:272,1,100,0|0,0:0|1:0,0:0:0:0:
416,304,135304,1,0,1:0:0:0:
448,200,135637,2,0,P|440:148|440:132,1,50,2|2,0:0|0:0,0:0:0:0:
432,96,135970,5,6,0:0:0:0:
328,56,136304,2,0,P|325:31|321:6,2,50,8|0|2,0:0|0:0|0:0,0:0:0:0:
344,168,136970,2,0,P|319:173|294:175,1,50,8|0,0:0|0:0,0:0:0:0:
240,184,137304,1,2,0:0:0:0:
148,124,137637,2,0,P|120:112|40:108,2,100,8|2|8,0:0|0:0|0:0,0:0:0:0:
80,212,138637,5,2,0:0:0:0:
172,272,138970,2,0,P|180:304|180:336,2,50,8|0|2,0:0|0:0|0:0,0:0:0:0:
240,184,139637,2,0,P|232:152|232:120,1,50,8|0,0:0|0:0,0:0:0:0:
268,96,139970,1,2,0:0:0:0:
372,128,140304,1,8,0:0:0:0:
380,236,140637,1,2,0:0:0:0:
276,268,140970,1,8,0:0:0:0:
204,184,141304,5,2,0:0:0:0:
104,224,141637,2,0,P|110:283|112:344,1,100,8|2,0:0|0:0,0:0:0:0:
212,368,142304,1,8,0:0:0:0:
212,368,142470,2,0,P|328:356|380:360,1,150,2|8,0:0|0:0,0:0:0:0:
472,368,143304,2,0,P|466:309|464:248,1,100,2|8,0:0|0:0,0:0:0:0:
508,168,143970,5,2,0:0:0:0:
412,112,144304,1,8,0:0:0:0:
368,212,144637,2,0,P|352:248|344:276,2,50,2|0|8,0:0|0:0|0:0,0:0:0:0:
464,268,145304,1,2,0:0:0:0:
508,168,145637,2,0,P|508:128|512:96,1,50
512,64,145970,1,0,0:0:0:0:
412,112,146304,2,0,P|364:108|340:104,1,50
308,100,146637,6,0,P|292:156|300:208,1,100,4|8,0:0|0:0,0:0:0:0:
324,304,147304,2,0,L|296:372,1,50
256,376,147637,2,0,L|188:348,1,50,8|0,0:0|0:0,0:0:0:0:
160,335,147970,2,0,P|175:288|171:239,2,100,0|8|0,0:0|0:0|0:0,0:0:0:0:
68,276,148970,2,0,L|60:216,1,50,8|0,0:0|0:0,0:0:0:0:
76,172,149304,6,0,L|188:156,1,100,0|8,0:0|0:0,0:0:0:0:
228,148,149804,1,0,0:0:0:0:
260,104,149970,2,0,P|264:54|244:9,1,100,0|8,0:0|0:0,0:0:0:0:
136,28,150637,1,0,0:0:0:0:
83,123,150970,2,0,P|75:167|79:191,1,50,8|0,0:0|0:0,0:0:0:0:
76,228,151304,1,10,0:0:0:0:
164,292,151637,2,8,P|208:288|236:280,1,50
268,280,151970,6,0,P|317:288|367:292,1,100,4|8,0:0|0:0,0:0:0:0:
460,348,152637,2,0,P|456:300|456:276,1,50
484,252,152970,2,0,P|482:227|479:202,1,50,8|0,0:0|0:0,0:0:0:0:
440,164,153304,2,0,P|390:155|340:151,2,100,0|8|0,0:0|0:0|0:0,0:0:0:0:
508,80,154304,1,8,0:0:0:0:
400,60,154637,6,0,P|350:51|300:47,1,100,0|8,0:0|0:0,0:0:0:0:
232,136,155304,2,0,P|240:176|240:208,2,50,0|0|8,0:0|0:0|0:0,0:0:0:0:
340,151,155970,1,0,0:0:0:0:
300,47,156304,1,8,0:0:0:0:
192,32,156637,2,0,P|144:45|80:56,1,100,0|8,0:0|0:0,0:0:0:0:
44,76,157137,1,0,0:0:0:0:
16,124,157304,6,0,P|16:184|36:220,1,100,4|8,0:0|0:0,0:0:0:0:
140,252,157970,2,0,P|180:260|212:264,1,50
232,224,158304,2,0,P|256:219|281:214,1,50,8|0,0:0|0:0,0:0:0:0:
336,200,158637,2,0,P|352:160|344:96,2,100,0|8|0,0:0|0:0|0:0,0:0:0:0:
284,300,159637,2,0,P|272:328|268:360,1,50,8|0,0:0|0:0,0:0:0:0:
224,380,159970,6,0,P|178:358|131:344,1,100,0|8,0:0|0:0,0:0:0:0:
76,336,160470,1,0,0:0:0:0:
35,299,160637,2,0,P|20:253|27:204,1,100,0|8,0:0|0:0,0:0:0:0:
132,244,161304,1,0,0:0:0:0:
227,187,161637,2,0,P|228:152|216:124,1,50,8|0,0:0|0:0,0:0:0:0:
212,84,161970,1,2,0:0:0:0:
284,0,162304,2,0,P|283:35|295:63,1,50,8|0,0:0|0:0,0:0:0:0:
299,104,162637,6,0,L|408:116,1,100,4|8,0:0|0:0,0:0:0:0:
508,100,163304,2,0,P|503:130|500:168,1,50
492,204,163637,2,0,P|467:206|442:210,1,50,8|0,0:0|0:0,0:0:0:0:
388,224,163970,2,0,P|382:276|373:322,2,100,0|8|0,0:0|0:0|0:0,0:0:0:0:
316,140,164970,1,8,0:0:0:0:
208,160,165304,6,0,P|148:172|92:180,1,100,0|8,0:0|0:0,0:0:0:0:
40,92,165970,2,0,P|57:56|68:24,2,50,0|0|8,0:0|0:0|0:0,0:0:0:0:
0,196,166637,1,0,0:0:0:0:
69,281,166970,1,8,0:0:0:0:
176,259,167304,2,0,P|272:268|324:352,1,200,0|6,0:0|0:0,0:0:0:0:
216,364,168304,6,0,L|148:376,1,50,8|0,0:0|0:0,0:0:0:0:
112,384,168637,1,2,0:0:0:0:
69,281,168970,2,0,P|80:236|80:216,1,50,8|0,0:0|0:0,0:0:0:0:
80,176,169304,2,0,P|68:128|72:72,2,100,2|8|2,0:0|0:0|0:0,0:0:0:0:
168,244,170304,1,8,0:0:0:0:
276,264,170637,6,0,P|332:256|384:244,1,100,2|8,0:0|0:0,0:0:0:0:
428,232,171137,2,0,P|448:260|472:288,1,50,0|2,0:0|0:0,0:0:0:0:
508,172,171637,2,0,P|492:152|478:131,1,50,8|0,0:0|0:0,0:0:0:0:
448,84,171970,1,2,0:0:0:0:
360,148,172304,1,8,0:0:0:0:
428,232,172637,2,0,P|428:284|408:344,1,100,2|8,0:0|0:0,0:0:0:0:
312,372,173304,6,0,L|204:364,1,100,6|8,0:0|0:0,0:0:0:0:
160,344,173804,1,0,0:0:0:0:
132,296,173970,2,0,P|132:244|152:184,1,100,2|8,0:0|0:0,0:0:0:0:
200,188,174470,1,0,0:0:0:0:
256,180,174637,2,0,P|264:128|244:76,2,100,2|8|2,0:0|0:0|0:0,0:0:0:0:
216,284,175637,1,8,0:0:0:0:
145,198,175970,6,0,P|124:152|128:100,1,100,2|8,0:0|0:0,0:0:0:0:
172,4,176637,2,0,L|232:12,1,50,2|0,0:0|0:0,0:0:0:0:
276,20,176970,1,8,0:0:0:0:
332,116,177304,2,0,L|381:109,1,50
437,101,177637,2,0,L|468:164,1,50
484,196,177970,1,4,0:2:0:0:
