osu file format v14

[General]
AudioFilename: Himeringo.mp3
AudioLeadIn: 0
PreviewTime: 37470
Countdown: 0
SampleSet: Normal
StackLeniency: 0.3
Mode: 0
LetterboxInBreaks: 0
WidescreenStoryboard: 1

[Editor]
DistanceSpacing: 1.1
BeatDivisor: 4
GridSize: 4
TimelineZoom: 1.5

[Metadata]
Title:Koitsubakihime
TitleUnicode:恋椿姫
Artist:Himeringo
ArtistUnicode:ひめりんご
Creator:toybot
Version:Easy
Source:
Tags:PolyphonicBranch BUZZ ke-sanβ 色白 skystar amamiya yuko ongaku reol halloween frey
BeatmapID:916570
BeatmapSetID:408558

[Difficulty]
HPDrainRate:2
CircleSize:3
OverallDifficulty:3
ApproachRate:3
SliderMultiplier:0.8
SliderTickRate:1

[Events]
//Background and Video events
0,0,"__ia_vocaloid_drawn_by_yuma0020__4081f051332152df3c3b3ddb8f289172.jpg",0,0
//Break Periods
//Storyboard Layer 0 (Background)
//Storyboard Layer 1 (Fail)
//Storyboard Layer 2 (Pass)
//Storyboard Layer 3 (Foreground)
//Storyboard Sound Samples

[TimingPoints]
3971,333.333333333333,4,1,0,60,1,0
5304,-100,4,1,2,60,0,0
14637,-100,4,1,1,60,0,0
15470,-100,4,2,1,40,0,0
15970,-100,4,3,3,50,0,0
26637,-100,4,2,1,60,0,0
35804,-100,4,2,1,60,0,0
36637,-100,4,2,1,60,0,0
37137,-100,4,1,2,70,0,0
37470,-100,4,3,4,70,0,0
37720,-100,4,3,4,5,0,0
37804,-100,4,3,4,70,0,0
37887,-100,4,3,4,5,0,0
37970,-100,4,3,4,70,0,0
38054,-100,4,3,4,5,0,0
38137,-100,4,3,4,70,0,0
38220,-100,4,3,4,5,0,0
38304,-100,4,3,4,70,0,0
38387,-100,4,3,4,5,0,0
38470,-100,4,3,4,70,0,0
38554,-100,4,3,4,5,0,0
38637,-100,4,1,1,70,0,1
43304,-100,4,1,2,70,0,1
43970,-100,4,1,1,70,0,1
49304,-100,4,2,1,70,0,0
57304,-100,4,1,1,70,0,0
58637,-100,4,1,1,70,0,0
59637,-100,4,1,1,70,0,0
59970,-100,4,1,3,60,0,0
63970,-100,4,1,2,60,0,0
64220,-100,4,1,3,60,0,0
64637,-100,4,1,2,60,0,0
64720,-100,4,1,3,60,0,0
64970,-100,4,1,2,60,0,0
65137,-100,4,1,3,60,0,0
65304,-100,4,1,3,60,0,0
70637,-100,4,2,1,60,0,0
78637,-100,4,2,1,60,0,0
79804,-100,4,2,1,60,0,0
80637,-100,4,2,1,60,0,0
81137,-100,4,1,2,70,0,0
81470,-100,4,3,4,70,0,0
81720,-100,4,3,4,5,0,0
81804,-100,4,3,4,70,0,0
81887,-100,4,3,4,5,0,0
81970,-100,4,3,4,70,0,0
82054,-100,4,3,4,5,0,0
82137,-100,4,3,4,70,0,0
82220,-100,4,3,4,5,0,0
82304,-100,4,3,4,70,0,0
82387,-100,4,3,4,5,0,0
82470,-100,4,3,4,70,0,0
82554,-100,4,3,4,5,0,0
82637,-100,4,1,1,70,0,1
87304,-100,4,1,2,70,0,1
87970,-100,4,1,1,70,0,1
93304,-100,4,1,2,40,0,0
93637,-100,4,1,2,40,0,0
98637,-100,4,1,2,40,0,0
103220,-100,4,2,2,5,0,0
103304,-100,4,1,2,40,0,0
103970,-100,4,1,2,50,0,0
114637,-100,4,1,3,40,0,0
133304,-100,4,3,1,30,0,0
133637,-100,4,3,1,35,0,0
133970,-100,4,3,1,40,0,0
134304,-100,4,3,1,45,0,0
134637,-100,4,3,1,50,0,0
134970,-100,4,3,1,55,0,0
135304,-100,4,3,1,60,0,0
135970,-100,4,1,2,60,0,0
145470,-100,4,3,4,70,0,0
145720,-100,4,2,4,5,0,0
145804,-100,4,3,4,70,0,0
145887,-100,4,2,4,5,0,0
145970,-100,4,3,4,70,0,0
146054,-100,4,2,4,5,0,0
146137,-100,4,3,4,70,0,0
146220,-100,4,2,4,5,0,0
146304,-100,4,3,4,70,0,0
146387,-100,4,2,4,5,0,0
146470,-100,4,3,4,70,0,0
146554,-100,4,2,4,5,0,0
146637,-100,4,1,1,70,0,1
151304,-100,4,1,2,70,0,1
151970,-100,4,1,1,70,0,1
157304,-100,4,1,1,80,0,1
161970,-100,4,1,2,80,0,1
162637,-100,4,1,1,80,0,1
166637,-100,4,1,1,70,0,1
167304,-100,4,3,4,70,0,0
167970,-100,4,1,2,70,0,0
177304,-100,4,3,4,70,0,0
177387,-100,4,3,4,5,0,0
177470,-100,4,3,4,70,0,0
177720,-100,4,3,4,5,0,0
177804,-100,4,3,4,70,0,0
177887,-100,4,3,4,5,0,0
177970,-100,4,3,4,70,0,0
178304,-100,4,2,4,5,0,0

[Colours]
Combo1 : 125,62,105
Combo2 : 255,128,255
Combo3 : 209,27,136
Combo4 : 192,70,196

[HitObjects]
56,148,4637,6,0,P|100:152|144:136,1,80,0|0,0:0|0:0,0:0:0:0:
204,88,5304,2,0,P|256:72|344:144,1,160,2|0,0:1|0:1,0:0:0:0:
200,232,6637,1,2,0:0:0:0:
336,344,7304,1,0,0:3:0:0:
488,252,7970,6,0,P|500:204|432:112,1,160,2|2,0:1|0:0,0:0:0:0:
276,172,9304,2,0,P|264:124|272:88,2,80,2|8|2,0:0|0:0|0:3,0:0:0:0:
192,324,10637,6,0,P|120:336|44:284,1,160,2|2,0:0|0:0,0:0:0:0:
8,120,11970,1,2,0:0:0:0:
176,168,12637,1,2,0:0:0:0:
8,120,13304,6,0,B|-4:80|-4:80|4:36,1,80,2|10,0:0|0:0,0:0:0:0:
84,12,13970,1,0,0:0:0:0:
252,64,14637,2,0,P|224:92|172:104,2,80,2|0|2,0:0|0:0|0:0,0:0:0:0:
364,200,15970,6,0,P|412:208|508:148,2,160,10|0|8,0:0|0:0|0:0,0:0:0:0:
200,148,17970,2,0,P|160:176|148:212,1,80,0|4,0:0|0:0,0:0:0:0:
180,288,18637,6,0,B|220:268|229:231|229:231|272:276|312:272,2,160,10|0|10,0:0|0:0|0:0,0:0:0:0:
20,212,20637,1,10,0:0:0:0:
88,48,21304,6,0,L|260:60,1,160,10|0,0:0|0:0,0:0:0:0:
364,192,22637,2,0,P|320:204|284:196,1,80,8|2,0:0|0:0,0:0:0:0:
208,144,23304,1,0,0:0:0:0:
84,268,23970,6,0,P|132:312|228:288,1,160,10|0,0:0|0:0,0:0:0:0:
308,144,25304,2,0,P|306:104|300:52,2,80,10|6|2,0:0|0:0|0:0,0:0:0:0:
132,148,26637,6,0,B|84:145|84:145|56:153|56:153|1:150,1,120,4|0,0:0|3:0,0:0:0:0:
32,64,27470,1,0,3:0:0:0:
116,44,27804,2,0,L|248:36,1,120,0|0,1:0|1:0,0:0:0:0:
308,88,28637,2,0,P|324:120|324:168,1,80,0|2,0:0|0:3,0:0:0:0:
268,232,29304,6,0,P|308:252|380:236,1,120,4|0,0:2|3:0,0:0:0:0:
413,155,30137,1,0,3:0:0:0:
324,163,30470,2,0,L|276:40,1,120,0|0,1:0|1:0,0:0:0:0:
195,72,31304,2,0,P|187:110|192:150,1,80,2|2,0:0|0:3,0:0:0:0:
148,226,31970,6,0,B|104:230|104:230|76:222|76:222|16:226,1,120,4|0,0:0|3:0,0:0:0:0:
56,309,32804,1,0,3:0:0:0:
141,329,33137,2,0,P|213:338|255:298,1,120,0|0,1:0|1:0,0:0:0:0:
297,238,33970,2,0,L|305:142,1,80,0|2,0:0|0:3,0:0:0:0:
313,70,34637,5,0,0:0:0:0:
229,90,34970,1,2,1:2:0:0:
145,114,35304,2,0,L|21:98,2,120,2|4|0,0:0|0:0|1:0,0:0:0:0:
197,186,36637,5,0,1:0:0:0:
76,272,38304,1,0,0:3:0:0:
20,204,38637,6,0,P|64:184|160:240,1,160,12|0,0:2|0:0,0:0:0:0:
324,292,39970,2,0,P|336:248|328:204,1,80,10|8,0:2|0:0,0:0:0:0:
260,160,40637,2,0,P|248:116|256:72,1,80,0|8,0:0|0:0,0:0:0:0:
320,28,41304,6,0,B|384:32|384:32|416:44|416:44|488:48,2,160,10|2|10,0:2|0:2|0:2,0:0:0:0:
252,82,42970,1,8,0:0:0:0:
184,136,43304,2,0,L|92:148,1,80,2|8,0:3|0:3,0:0:0:0:
28,104,43970,6,0,B|8:152|32:192|32:192|12:264,1,160,12|0,0:2|0:0,0:0:0:0:
180,316,45304,2,0,P|220:305|272:296,1,80,10|8,0:2|0:0,0:0:0:0:
344,316,45970,2,0,P|356:248|356:224,1,80,0|8,0:0|0:0,0:0:0:0:
316,160,46637,6,0,P|264:140|180:212,2,160,10|2|10,0:2|0:2|0:2,0:0:0:0:
380,100,48304,1,8,0:0:0:0:
404,16,48637,2,0,B|304:8|352:56|240:48,1,160,0|0,1:0|1:0,0:0:0:0:
76,40,49970,6,0,B|52:100|52:100|84:192,1,160,0|0,1:0|0:0,0:0:0:0:
148,248,50970,2,0,P|168:212|168:168,2,80,8|0|8,1:0|1:0|1:0,0:0:0:0:
88,312,51970,5,0,1:0:0:0:
260,272,52637,2,0,P|316:268|376:304,2,120,2|8|8,1:0|1:0|1:0,0:0:0:0:
188,324,53970,2,0,P|172:276|176:248,1,80,0|8,1:0|1:0,0:0:0:0:
220,172,54637,6,0,B|168:128|168:128|124:152|76:144,2,160,0|0|0,1:0|1:0|0:0,0:0:0:0:
384,108,56637,2,0,P|400:64|392:16,1,80,0|8,1:0|1:0,0:0:0:0:
312,56,57304,6,0,L|328:220,1,160,2|0,2:0|0:0,0:0:0:0:
340,304,58304,1,8,0:0:0:0:
412,256,58637,2,0,B|420:216|420:216|412:168,2,80,8|8|8,0:0|0:0|0:0,0:0:0:0:
240,288,59970,6,0,P|160:296|68:296,2,160,4|0|8,0:2|0:0|0:0,0:0:0:0:
316,240,61637,1,8,0:0:0:0:
348,156,61970,2,0,P|352:104|340:68,1,80,0|8,0:0|0:0,0:0:0:0:
264,40,62637,6,0,B|248:80|268:120|268:120|184:100,2,160,8|0|2,0:0|0:0|0:2,0:0:0:0:
88,60,64637,1,0,0:0:0:0:
44,232,65304,6,0,P|96:260|188:216,1,160,0|0,0:0|0:0,0:0:0:0:
192,136,66304,1,0,3:0:0:0:
256,76,66637,2,0,P|280:132|276:164,1,80,0|0,0:0|3:0,0:0:0:0:
272,236,67304,2,0,L|360:224,1,80,0|0,0:0|3:0,0:0:0:0:
432,256,67970,6,0,B|444:220|428:184|428:184|444:148|428:92,1,160,0|0,0:0|0:0,0:0:0:0:
258,135,69304,2,0,L|259:56,2,80,0|0|0,0:0|0:0|0:0,0:0:0:0:
170,145,70304,1,0,0:0:0:0:
224,214,70637,6,0,P|283:217|332:184,1,120,4|0,0:0|3:0,0:0:0:0:
331,96,71470,1,0,3:0:0:0:
412,64,71804,2,0,L|432:192,1,120,0|0,1:0|1:0,0:0:0:0:
500,236,72637,2,0,P|512:280|500:320,1,80,0|2,0:0|0:3,0:0:0:0:
424,352,73304,6,0,L|300:336,1,120,4|0,0:2|3:0,0:0:0:0:
280,252,74137,1,0,3:0:0:0:
324,176,74470,2,0,P|272:164|204:204,1,120,0|0,1:0|1:0,0:0:0:0:
196,280,75304,2,0,P|159:308|120:308,1,80,2|2,0:0|0:3,0:0:0:0:
60,252,75970,6,0,B|36:184|76:200|52:120,1,120,4|0,0:0|3:0,0:0:0:0:
124,76,76804,1,0,3:0:0:0:
208,98,77137,2,0,P|256:150|252:212,1,120,0|0,1:0|1:0,0:0:0:0:
292,280,77970,2,0,P|331:274|371:268,1,80,0|2,0:0|0:3,0:0:0:0:
412,192,78637,5,0,0:0:0:0:
340,140,78970,1,2,1:2:0:0:
252,136,79304,2,0,B|227:138|208:140|208:140|180:152|180:152|151:149|124:148,2,120,2|4|0,0:0|0:0|1:0,0:0:0:0:
292,216,80637,5,0,1:0:0:0:
60,100,82304,1,0,0:0:0:0:
132,152,82637,6,0,P|184:160|264:88,1,160,12|0,0:2|0:0,0:0:0:0:
424,32,83970,2,0,L|432:116,1,80,10|8,0:2|0:0,0:0:0:0:
360,164,84637,2,0,L|352:248,1,80,0|8,0:0|0:0,0:0:0:0:
316,324,85304,6,0,B|412:344|376:292|480:316,2,160,10|2|0,0:2|0:2|0:0,0:0:0:0:
244,272,86970,1,8,0:0:0:0:
176,328,87304,2,0,P|124:352|96:348,1,80,2|8,0:3|0:3,0:0:0:0:
32,300,87970,6,0,B|64:260|116:264|116:264|111:238|108:192,1,160,12|0,0:2|0:0,0:0:0:0:
68,28,89304,2,0,P|128:56|152:52,1,80,10|8,0:2|0:0,0:0:0:0:
228,44,89970,2,0,P|288:16|312:20,1,80,0|8,0:0|0:0,0:0:0:0:
372,68,90637,6,0,B|376:128|376:128|360:168|360:168|364:236,2,160,10|2|10,0:2|0:2|0:2,0:0:0:0:
292,104,92304,1,8,0:0:0:0:
208,128,92637,6,0,L|36:108,1,160,0|0,1:0|0:0,0:0:0:0:
30,267,93970,1,0,0:0:0:0:
188,286,94637,1,2,0:3:0:0:
208,128,95304,1,0,0:0:0:0:
364,98,95970,5,0,0:3:0:0:
440,237,96638,1,0,0:0:0:0:
332,353,97304,1,0,0:0:0:0:
188,286,97970,2,0,P|176:248|180:200,1,80,0|0,0:0|0:0,0:0:0:0:
208,128,98637,5,0,0:0:0:0:
336,224,99304,1,0,0:0:0:0:
188,286,99970,1,2,0:3:0:0:
60,190,100637,1,0,0:0:0:0:
80,32,101304,5,0,0:0:0:0:
208,128,101970,1,0,0:0:0:0:
316,12,102637,2,0,P|384:12|448:88,1,160,0|0,0:0|0:0,0:0:0:0:
456,160,103637,1,0,0:0:0:0:
392,216,103970,6,0,L|304:232,1,80,0|0,0:0|0:0,0:0:0:0:
244,288,104637,2,0,P|224:244|228:204,1,80,8|0,0:0|0:0,0:0:0:0:
276,140,105304,2,0,P|228:124|140:184,1,160,8|8,0:3|0:3,0:0:0:0:
32,316,106637,6,0,P|72:320|116:328,1,80,0|0,0:0|0:0,0:0:0:0:
172,264,107304,2,0,P|212:260|256:252,1,80,8|0,0:0|0:0,0:0:0:0:
312,316,107970,2,0,B|344:280|336:240|336:240|372:268|408:264,1,160,8|8,0:3|0:3,0:0:0:0:
468,100,109304,6,0,L|380:92,1,80,0|0,0:0|0:0,0:0:0:0:
304,120,109970,2,0,P|296:176|304:208,1,80,8|0,0:0|0:0,0:0:0:0:
328,284,110637,2,0,B|264:280|264:280|240:268|240:268|172:264,2,160,8|8|0,0:3|0:3|0:0,0:0:0:0:
392,120,112637,5,8,0:0:0:0:
320,72,112970,1,0,0:0:0:0:
244,120,113304,2,0,B|160:144|176:84|88:108,1,160,8|8,0:3|0:3,0:0:0:0:
4,260,114637,6,0,P|64:312|176:228,1,240,2|0,0:0|0:0,0:0:0:0:
200,148,115970,2,0,P|240:120|336:176,1,160,10|2,0:0|0:0,0:0:0:0:
348,248,116970,1,2,0:0:0:0:
428,208,117304,6,0,B|444:160|428:120|428:120|480:52,2,160,2|0|8,0:0|0:0|0:0,0:0:0:0:
280,304,119304,2,0,L|192:316,1,80,2|4,0:0|0:0,0:0:0:0:
128,364,119970,6,0,B|68:256|208:248|144:132,1,240,6|0,0:0|0:0,0:0:0:0:
64,112,121304,2,0,P|104:64|208:76,1,160,10|2,0:0|0:0,0:0:0:0:
240,144,122304,1,2,0:0:0:0:
328,132,122637,6,0,L|496:100,2,160,2|2|8,0:0|0:0|0:0,0:0:0:0:
184,232,124637,2,0,P|170:270|180:320,1,80,2|4,0:0|0:0,0:0:0:0:
260,284,125304,6,0,P|275:240|206:141,2,160,6|2|10,0:0|0:2|0:0,0:0:0:0:
88,324,127304,2,0,P|72:288|72:232,1,80,2|2,0:0|0:0,0:0:0:0:
67,158,127970,6,0,P|148:168|231:142,1,160,2|2,0:0|0:0,0:0:0:0:
380,68,129304,2,0,P|408:156|384:216,1,160,8|2,0:0|0:0,0:0:0:0:
308,260,130304,1,4,0:0:0:0:
224,240,130637,6,0,B|164:236|164:236|120:248|120:248|56:244,2,160,6|2|10,0:0|0:0|0:0,0:0:0:0:
340,108,132637,2,0,L|424:116,1,80,2|2,0:0|0:0,0:0:0:0:
496,160,133304,5,0,0:0:0:0:
388,20,133970,1,0,0:0:0:0:
260,140,134637,1,0,0:0:0:0:
132,260,135304,2,0,L|40:268,1,80,0|2,0:0|0:0,0:0:0:0:
12,188,135970,6,0,P|56:152|156:176,1,160,4|0,0:2|0:0,0:0:0:0:
264,304,137304,2,0,P|304:308|352:296,1,80,0|8,0:0|0:0,0:0:0:0:
388,224,137970,2,0,L|392:136,1,80,0|8,0:3|0:0,0:0:0:0:
316,100,138637,6,0,P|367:60|456:85,2,160,6|2|2,2:0|0:0|0:0,0:0:0:0:
272,176,140304,1,10,0:0:0:0:
184,180,140637,2,0,P|168:132|180:92,1,80,2|8,0:0|0:0,0:0:0:0:
244,48,141304,6,0,L|80:64,1,160,0|0,0:0|0:0,0:0:0:0:
48,236,142637,2,0,P|79:247|140:240,1,80,0|8,0:0|0:0,0:0:0:0:
184,180,143304,2,0,L|263:172,1,80,0|8,0:0|0:0,0:0:0:0:
340,216,143970,6,0,P|364:280|312:364,2,160,0|0|8,0:0|0:0|0:0,0:0:0:0:
264,172,145637,1,0,0:0:0:0:
180,200,145970,2,0,L|92:196,1,80,0|0,0:0|0:0,0:0:0:0:
32,144,146637,6,0,P|36:108|144:88,1,160,12|0,0:2|0:0,0:0:0:0:
310,118,147970,2,0,P|315:78|308:40,1,80,10|8,0:2|0:0,0:0:0:0:
392,16,148637,2,0,L|476:24,1,80,0|8,0:0|0:0,0:0:0:0:
508,104,149304,6,0,B|476:116|448:108|448:108|476:204,2,160,10|2|10,0:2|0:2|0:2,0:0:0:0:
471,23,150970,1,8,0:0:0:0:
384,40,151304,2,0,P|360:68|356:116,1,80,2|8,0:3|0:3,0:0:0:0:
376,196,151970,6,0,B|320:192|320:192|276:208|276:208|204:200,1,160,12|0,0:2|0:0,0:0:0:0:
52,244,153304,2,0,P|44:296|56:324,1,80,10|8,0:2|0:0,0:0:0:0:
136,356,153970,2,0,L|224:344,1,80,0|8,0:0|0:0,0:0:0:0:
284,292,154637,6,0,P|316:328|432:324,2,160,10|2|0,0:2|0:2|0:3,0:0:0:0:
256,208,156304,1,0,0:0:0:0:
312,140,156637,2,0,P|356:128|404:144,1,80,2|2,0:3|0:3,0:0:0:0:
475,143,157304,6,0,P|433:207|356:216,1,160,4|0,0:0|0:0,0:0:0:0:
212,116,158637,2,0,L|116:108,1,80,10|8,0:2|0:0,0:0:0:0:
56,60,159304,2,0,B|44:100|44:100|52:144,1,80,0|8,0:0|0:0,0:0:0:0:
96,212,159970,6,0,B|148:208|148:208|192:232|192:232|259:227,1,160,10|2,0:2|0:2,0:0:0:0:
336,212,160970,1,8,0:0:0:0:
416,252,161304,2,0,P|424:196|412:164,1,80,10|8,0:2|0:0,0:0:0:0:
348,120,161970,2,0,L|360:32,1,80,2|8,0:3|0:3,0:0:0:0:
276,12,162637,6,0,P|232:44|244:148,1,160,12|0,0:2|0:0,0:0:0:0:
160,300,163970,2,0,P|116:304|80:296,2,80,10|8|0,0:2|0:0|0:0,0:0:0:0:
332,260,165304,6,0,B|348:216|328:180|328:180|376:180|404:212,1,160,10|2,0:2|0:2,0:0:0:0:
456,276,166304,1,8,0:0:0:0:
388,328,166637,6,0,P|352:344|312:344,1,80,2|2,0:3|0:3,0:0:0:0:
240,292,167304,2,0,B|148:276|180:336|80:320,2,160,0|2|0,0:0|0:1|0:1,0:0:0:0:
312,240,168970,1,8,0:0:0:0:
340,156,169304,2,0,P|344:112|336:60,2,80,2|8|0,0:0|0:0|0:3,0:0:0:0:
168,116,170637,6,0,L|84:124,1,80,2|8,0:1|0:0,0:0:0:0:
20,180,171304,2,0,P|16:224|24:276,1,80,2|8,0:0|0:0,0:0:0:0:
100,300,171970,2,0,P|104:256|96:204,2,80,2|8|2,0:0|0:0|0:3,0:0:0:0:
260,224,173304,6,0,B|316:200|316:200|424:224,1,160,2|2,0:0|0:0,0:0:0:0:
500,240,174304,1,8,0:0:0:0:
512,152,174637,2,0,L|504:68,2,80,2|8|2,0:0|0:0|0:0,0:0:0:0:
400,288,175970,6,0,P|336:312|252:256,1,160,2|0,0:0|0:0,0:0:0:0:
196,212,176970,1,8,0:0:0:0:
116,248,177304,2,0,L|108:168,1,80,0|0,0:0|0:0,0:0:0:0:
100,80,177970,1,0,0:0:0:0:
