osu file format v14

[General]
AudioFilename: Himeringo.mp3
AudioLeadIn: 0
PreviewTime: 37470
Countdown: 0
SampleSet: Normal
StackLeniency: 0.3
Mode: 0
LetterboxInBreaks: 0
WidescreenStoryboard: 1

[Editor]
DistanceSpacing: 0.7
BeatDivisor: 4
GridSize: 4
TimelineZoom: 1.5

[Metadata]
Title:Koitsubakihime
TitleUnicode:恋椿姫
Artist:Himeringo
ArtistUnicode:ひめりんご
Creator:toybot
Version:Hard
Source:
Tags:PolyphonicBranch BUZZ ke-sanβ 色白 skystar amamiya yuko ongaku reol halloween frey
BeatmapID:893028
BeatmapSetID:408558

[Difficulty]
HPDrainRate:5
CircleSize:4
OverallDifficulty:6
ApproachRate:7.5
SliderMultiplier:1.35
SliderTickRate:1

[Events]
//Background and Video events
0,0,"__ia_vocaloid_drawn_by_yuma0020__4081f051332152df3c3b3ddb8f289172.jpg",0,0
//Break Periods
//Storyboard Layer 0 (Background)
//Storyboard Layer 1 (Fail)
//Storyboard Layer 2 (Pass)
//Storyboard Layer 3 (Foreground)
//Storyboard Sound Samples

[TimingPoints]
3971,333.333333333333,4,1,0,60,1,0
5304,-100,4,1,2,60,0,0
14637,-100,4,1,1,60,0,0
15470,-100,4,2,1,40,0,0
15970,-100,4,3,3,50,0,0
26637,-100,4,2,1,60,0,0
35804,-100,4,2,1,60,0,0
36637,-100,4,2,1,60,0,0
37137,-100,4,1,2,70,0,0
37470,-100,4,3,4,70,0,0
37720,-100,4,3,4,5,0,0
37804,-100,4,3,4,70,0,0
37887,-100,4,3,4,5,0,0
37970,-100,4,3,4,70,0,0
38054,-100,4,3,4,5,0,0
38137,-100,4,3,4,70,0,0
38220,-100,4,3,4,5,0,0
38304,-100,4,3,4,70,0,0
38387,-100,4,3,4,5,0,0
38470,-100,4,3,4,70,0,0
38554,-100,4,3,4,5,0,0
38637,-100,4,1,1,70,0,1
43304,-100,4,1,2,70,0,1
43970,-100,4,1,1,70,0,1
49304,-100,4,2,1,70,0,0
57304,-100,4,1,1,70,0,0
58637,-100,4,1,1,70,0,0
59637,-100,4,1,1,70,0,0
59970,-100,4,1,3,70,0,0
63970,-100,4,1,2,70,0,0
64220,-100,4,1,3,70,0,0
64637,-100,4,1,2,70,0,0
64720,-100,4,1,3,70,0,0
64970,-100,4,1,2,70,0,0
65137,-100,4,1,3,70,0,0
65304,-100,4,1,1,70,0,0
70637,-100,4,2,1,60,0,0
78637,-100,4,2,1,60,0,0
79804,-100,4,2,1,60,0,0
80637,-100,4,2,1,60,0,0
81137,-100,4,1,2,70,0,0
81470,-100,4,3,4,70,0,0
81720,-100,4,3,4,5,0,0
81804,-100,4,3,4,70,0,0
81887,-100,4,3,4,5,0,0
81970,-100,4,3,4,70,0,0
82054,-100,4,3,4,5,0,0
82137,-100,4,3,4,70,0,0
82220,-100,4,3,4,5,0,0
82304,-100,4,3,4,70,0,0
82387,-100,4,3,4,5,0,0
82470,-100,4,3,4,70,0,0
82554,-100,4,3,4,5,0,0
82637,-100,4,1,1,70,0,1
87304,-100,4,1,2,70,0,1
87970,-100,4,1,1,70,0,1
93304,-100,4,1,2,40,0,0
93637,-125,4,1,2,40,0,0
98637,-125,4,1,2,40,0,0
103220,-100,4,2,2,5,0,0
103304,-100,4,1,2,40,0,0
103970,-100,4,1,2,50,0,0
114637,-100,4,1,3,40,0,0
133304,-100,4,3,1,30,0,0
133637,-100,4,3,1,35,0,0
133970,-100,4,3,1,40,0,0
134304,-100,4,3,1,45,0,0
134637,-100,4,3,1,50,0,0
134970,-100,4,3,1,55,0,0
135304,-100,4,3,1,60,0,0
135970,-100,4,1,2,60,0,0
145470,-100,4,3,4,70,0,0
145720,-100,4,2,4,5,0,0
145804,-100,4,3,4,70,0,0
145887,-100,4,2,4,5,0,0
145970,-100,4,3,4,70,0,0
146054,-100,4,2,4,5,0,0
146137,-100,4,3,4,70,0,0
146220,-100,4,2,4,5,0,0
146304,-100,4,3,4,70,0,0
146387,-100,4,2,4,5,0,0
146470,-100,4,3,4,70,0,0
146554,-100,4,2,4,5,0,0
146637,-100,4,1,1,70,0,1
151304,-100,4,1,2,70,0,1
151970,-100,4,1,1,70,0,1
157304,-100,4,1,1,80,0,1
161970,-100,4,1,2,80,0,1
162637,-100,4,1,1,80,0,1
166637,-100,4,1,1,70,0,1
167304,-100,4,3,4,70,0,0
167970,-100,4,1,2,70,0,0
177304,-100,4,3,4,70,0,0
177387,-100,4,3,4,5,0,0
177470,-100,4,3,4,70,0,0
177720,-100,4,3,4,5,0,0
177804,-100,4,3,4,70,0,0
177887,-100,4,3,4,5,0,0
177970,-100,4,3,4,70,0,0
178304,-100,4,2,4,5,0,0

[Colours]
Combo1 : 125,62,105
Combo2 : 255,128,255
Combo3 : 209,27,136
Combo4 : 192,70,196

[HitObjects]
148,236,4637,6,0,P|200:236|236:212,1,67.5,0|0,0:0|0:0,0:0:0:0:
320,216,4970,2,0,P|284:196|268:156,1,67.5,0|0,0:0|0:0,0:0:0:0:
329,89,5304,6,0,B|352:52|352:52|341:142,1,135,2|8,0:1|0:0,0:0:0:0:
320,216,5804,1,2,0:1:0:0:
384,280,5970,2,0,B|414:313|414:313|403:223,1,135,0|8,0:1|0:0,0:0:0:0:
424,144,6470,1,2,0:1:0:0:
341,142,6637,6,0,P|304:128|265:134,1,67.5,2|2,0:0|0:0,0:0:0:0:
220,192,6970,2,0,P|183:206|144:200,1,67.5,8|2,0:0|0:0,0:0:0:0:
69,162,7304,2,0,P|112:115|176:128,1,135,0|8,0:3|0:0,0:0:0:0:
220,192,7804,1,0,0:0:0:0:
168,296,7970,6,0,L|32:276,1,135,2|8,0:1|0:0,0:0:0:0:
0,208,8470,1,0,0:0:0:0:
40,128,8637,2,0,B|72:140|84:168|84:168|116:136|168:144,1,135,2|8,0:0|0:0,0:0:0:0:
220,192,9137,1,0,0:0:0:0:
280,128,9304,6,0,P|288:88|280:48,1,67.5,2|2,0:0|0:0,0:0:0:0:
204,24,9637,2,0,P|200:57|208:90,1,67.5,8|2,0:0|0:0,0:0:0:0:
364,120,9970,2,0,B|444:120|408:88|492:88,1,135,2|8,0:3|0:0,0:0:0:0:
476,172,10470,1,2,0:3:0:0:
496,256,10637,6,0,P|436:248|380:304,1,135,2|8,0:0|0:0,0:0:0:0:
456,324,11137,1,2,0:0:0:0:
408,224,11304,2,0,L|380:72,1,135,2|8,0:0|0:0,0:0:0:0:
360,16,11804,1,2,0:0:0:0:
304,100,11970,6,0,P|260:116|224:108,1,67.5,2|2,0:0|0:0,0:0:0:0:
144,168,12304,2,0,P|177:167|207:181,1,67.5,8|2,0:0|0:0,0:0:0:0:
256,240,12637,2,0,B|230:257|204:256|204:256|192:312|148:320,1,135,2|8,0:0|0:0,0:0:0:0:
128,248,13137,1,2,0:3:0:0:
68,196,13304,6,0,B|52:148|52:148|72:56,1,135,2|10,0:0|0:0,0:0:0:0:
136,24,13804,1,0,0:0:0:0:
200,100,13970,2,0,L|284:88,1,67.5,0|2,0:0|0:0,0:0:0:0:
368,32,14304,2,0,L|284:20,1,67.5,8|2,0:0|0:0,0:0:0:0:
368,112,14637,5,2,0:0:0:0:
368,112,14804,1,2,0:0:0:0:
268,176,14970,1,0,0:0:0:0:
268,176,15137,1,2,0:0:0:0:
374,231,15304,1,2,0:0:0:0:
280,80,15970,6,0,B|196:72|232:116|128:104,1,135,10|2,0:0|0:0,0:0:0:0:
80,64,16470,1,10,0:0:0:0:
64,152,16637,2,0,L|72:224,1,67.5,0|8,0:0|0:0,0:0:0:0:
148,256,16970,2,0,L|140:328,1,67.5,12|4,0:0|0:0,0:0:0:0:
224,352,17304,6,0,B|256:308|256:308|232:204,1,135,8|2,0:0|0:0,0:0:0:0:
199,153,17804,2,0,P|230:143|264:148,1,67.5,10|0,0:0|0:0,0:0:0:0:
332,208,18137,1,8,0:0:0:0:
408,188,18304,1,4,0:0:0:0:
484,168,18470,1,12,0:0:0:0:
432,96,18637,6,0,B|380:88|380:88|360:72|360:72|284:60,1,135,10|2,0:0|0:0,0:0:0:0:
224,52,19137,1,12,0:0:0:0:
264,137,19304,2,0,P|208:153|180:153,1,67.5,0|10,0:0|0:0,0:0:0:0:
148,88,19637,2,0,P|92:72|64:72,1,67.5,12|4,0:0|0:0,0:0:0:0:
0,208,19970,6,0,P|60:212|96:140,2,135,10|12|10,0:0|0:0|0:0,0:0:0:0:
56,300,20804,1,0,0:0:0:0:
124,264,20970,2,0,P|168:252|204:256,1,67.5,12|12,0:0|0:0,0:0:0:0:
272,296,21304,6,0,P|265:225|252:148,1,135,10|2,0:0|0:0,0:0:0:0:
344,92,21804,1,10,0:0:0:0:
384,160,21970,2,0,P|378:195|376:240,1,67.5,0|8,0:0|0:0,0:0:0:0:
460,136,22304,2,0,P|454:100|452:56,1,67.5,12|4,0:0|0:0,0:0:0:0:
388,24,22637,6,0,B|304:48|332:4|240:28,1,135,8|2,0:0|0:0,0:0:0:0:
200,84,23137,1,10,0:0:0:0:
284,172,23304,2,0,P|288:120|272:80,1,67.5,0|8,0:0|0:0,0:0:0:0:
124,56,23637,2,0,P|118:89|124:122,1,67.5,4|12,0:0|0:0,0:0:0:0:
176,180,23970,6,0,P|116:173|32:172,1,135,10|0,0:0|0:0,0:0:0:0:
88,268,24470,1,12,0:0:0:0:
172,256,24637,2,0,P|224:252|256:252,1,67.5,0|8,0:0|0:0,0:0:0:0:
320,288,24970,2,0,P|312:228|312:200,1,67.5,12|4,0:0|0:0,0:0:0:0:
348,144,25304,6,0,L|356:100,3,33.75,10|2|2|0,0:0|0:0|0:0|0:0,0:0:0:0:
308,132,25637,2,0,L|300:80,3,33.75,6|2|14|0,0:0|0:0|0:0|0:0,0:0:0:0:
272,140,25970,2,0,P|232:148|192:152,1,67.5,2|2,0:0|0:0,0:0:0:0:
112,40,26304,2,0,P|145:44|178:51,1,67.5,12|4,2:3|2:3,0:0:0:0:
180,228,26637,6,0,P|136:192|140:108,1,135,4|0,0:0|1:0,0:0:0:0:
178,51,27137,2,0,L|322:31,1,135,0|0,3:0|3:0,0:0:0:0:
392,16,27637,1,0,0:0:0:0:
408,128,27804,6,0,B|328:140|360:100|272:112,1,135,0|0,1:0|3:0,0:0:0:0:
304,188,28304,2,0,P|312:232|308:268,1,67.5,0|2,1:0|0:0,0:0:0:0:
232,232,28637,1,0,0:0:0:0:
176,172,28804,2,0,P|168:128|172:92,2,67.5,0|2|2,3:0|0:3|0:0,0:0:0:0:
240,76,29304,6,0,L|84:64,1,135,4|0,0:2|1:0,0:0:0:0:
69,207,29804,2,0,P|132:220|176:172,1,135,0|0,3:0|3:0,0:0:0:0:
256,156,30304,1,0,0:0:0:0:
296,240,30470,6,0,P|344:240|380:260,1,67.5,0|0,1:0|0:0,0:0:0:0:
424,300,30804,1,0,3:0:0:0:
484,236,30970,2,0,B|496:200|496:200|484:100,1,135,0|2,1:0|0:0,0:0:0:0:
412,68,31470,1,2,0:3:0:0:
336,88,31637,1,2,0:3:0:0:
260,108,31804,1,2,0:0:0:0:
184,68,31970,6,0,B|148:68|124:56|124:56|108:84|64:104,1,135,4|0,0:0|1:0,0:0:0:0:
117,220,32470,2,0,B|63:183|63:183|99:183|127:159,1,135,0|0,3:0|3:0,0:0:0:0:
196,204,32970,1,0,0:0:0:0:
172,280,33137,6,0,P|136:300|96:300,1,67.5,0|2,1:0|0:0,0:0:0:0:
117,220,33470,1,0,3:0:0:0:
232,132,33637,2,0,P|268:168|252:260,1,135,0|0,1:0|0:0,0:0:0:0:
196,204,34137,1,0,3:0:0:0:
184,72,34304,2,0,P|220:56|268:68,1,67.5,2|2,0:3|0:0,0:0:0:0:
316,92,34637,5,0,0:0:0:0:
424,228,34970,1,2,1:2:0:0:
424,228,35137,2,0,L|280:248,1,135,0|0,3:0|3:0,0:0:0:0:
304,172,35637,1,2,1:2:0:0:
196,204,35804,6,0,P|156:164|60:184,1,135,4|0,0:0|1:0,0:0:0:0:
135,302,36304,2,0,L|123:235,1,67.5,0|0,1:0|1:0,0:0:0:0:
248,136,36637,2,0,L|240:276,1,135,0|0,1:0|0:0,0:0:0:0:
288,332,37137,2,0,L|336:344,2,33.75,8|8|8,2:3|2:3|2:3,0:0:0:0:
212,360,37470,5,0,0:3:0:0:
212,360,37637,1,0,0:3:0:0:
212,360,37804,1,0,0:3:0:0:
135,302,37970,2,0,P|119:250|127:214,1,67.5,0|0,0:3|0:3,0:0:0:0:
216,188,38304,2,0,P|214:221|200:252,1,67.5,0|0,0:3|0:3,0:0:0:0:
60,172,38637,6,0,B|92:144|140:152|140:152|148:128|188:104,1,135,12|8,0:2|0:0,0:0:0:0:
236,72,39137,1,2,0:2:0:0:
216,188,39304,2,0,L|204:264,1,67.5,0|8,0:0|0:2,0:0:0:0:
292,228,39637,2,0,P|328:220|368:216,1,67.5,8|2,0:0|2:2,0:0:0:0:
436,232,39970,5,10,0:2:0:0:
436,232,40137,1,2,0:2:0:0:
476,144,40304,1,8,0:0:0:0:
476,144,40470,1,0,0:0:0:0:
392,96,40637,2,0,P|344:88|284:168,1,135,0|8,0:0|0:0,0:0:0:0:
360,164,41137,1,2,2:2:0:0:
300,72,41304,6,0,L|156:56,1,135,10|8,0:2|0:0,0:0:0:0:
88,48,41804,1,0,0:2:0:0:
68,160,41970,2,0,P|116:160|152:136,1,67.5,2|8,0:2|0:2,0:0:0:0:
224,236,42304,2,0,P|192:225|158:228,1,67.5,8|2,0:0|0:2,0:0:0:0:
92,272,42637,6,0,L|104:344,1,67.5,10|2,0:2|2:2,0:0:0:0:
180,304,42970,1,8,0:0:0:0:
256,344,43137,1,0,0:2:0:0:
324,288,43304,2,0,P|336:236|304:152,1,135,2|8,0:3|0:3,0:0:0:0:
240,116,43804,1,2,0:3:0:0:
128,52,43970,6,0,B|208:68|180:20|268:36,1,135,12|8,0:2|0:0,0:0:0:0:
340,24,44470,1,2,0:2:0:0:
388,112,44637,2,0,L|321:101,1,67.5,0|8,0:0|0:2,0:0:0:0:
240,116,44970,2,0,P|232:160|248:208,1,67.5,8|2,0:0|2:0,0:0:0:0:
296,252,45304,5,10,0:2:0:0:
376,228,45470,1,0,0:2:0:0:
288,336,45637,2,0,L|212:320,1,67.5,8|0,0:0|0:0,0:0:0:0:
202,251,45970,2,0,B|164:260|152:296|152:296|124:288|88:300,2,135,0|8|10,0:0|0:0|0:2,0:0:0:0:
232,176,46804,5,0,0:0:0:0:
155,191,46970,2,0,P|136:129|176:64,1,135,8|2,0:0|0:2,0:0:0:0:
364,192,47637,2,0,L|448:180,1,67.5,8|2,0:0|0:2,0:0:0:0:
464,256,47970,5,10,0:2:0:0:
384,296,48137,1,8,0:0:0:0:
304,248,48304,2,0,P|284:220|292:160,1,67.5,8|8,0:0|0:0,0:0:0:0:
304,104,48637,6,0,P|328:172|200:196,1,236.25,0|0,1:0|2:0,0:0:0:0:
192,188,49304,6,0,B|140:180|140:180|116:200|116:200|52:192,1,135,0|8,1:0|1:0,0:0:0:0:
128,288,49804,2,0,L|184:276,2,33.75,2|8|0,2:0|1:0|1:0,0:0:0:0:
48,308,50137,1,2,1:0:0:0:
260,356,50470,1,8,1:0:0:0:
320,300,50637,6,0,B|336:264|336:264|320:164,1,135,0|8,0:0|1:0,0:0:0:0:
304,96,51137,1,2,0:0:0:0:
184,132,51304,2,0,P|213:148|246:146,1,67.5,0|0,1:0|1:0,0:0:0:0:
320,20,51637,2,0,P|286:18|257:34,1,67.5,8|2,1:0|0:0,0:0:0:0:
304,96,51970,6,0,B|384:108|352:60|444:76,1,135,0|8,1:0|1:0,0:0:0:0:
418,185,52470,2,0,L|412:152,2,33.75,2|8|2,0:0|1:0|1:0,0:0:0:0:
436,260,52804,1,2,1:0:0:0:
240,336,53137,6,0,B|248:288|248:288|244:272|244:272|260:260|260:260|256:244|256:244|264:180,1,135,8|8,1:0|1:0,0:0:0:0:
176,236,53637,2,0,P|140:252|88:248,1,67.5,8|2,1:0|0:0,0:0:0:0:
176,156,53970,1,0,1:0:0:0:
252,132,54137,2,0,P|285:134|315:149,1,67.5,0|8,1:0|1:0,0:0:0:0:
352,220,54470,1,0,0:0:0:0:
432,136,54637,6,0,P|388:136|336:44,1,135,0|8,1:0|1:0,0:0:0:0:
256,48,55137,2,0,P|272:20|288:4,2,33.75,2|8|0,0:0|1:0|1:0,0:0:0:0:
252,132,55470,1,2,1:0:0:0:
52,88,55804,1,8,1:0:0:0:
68,164,55970,6,0,B|116:152|128:96|128:96|140:120|140:148,1,135,0|8,0:0|1:0,0:0:0:0:
124,228,56470,2,0,P|96:240|76:244,2,33.75,2|8|0,0:0|1:0|1:0,0:0:0:0:
196,184,56804,1,0,1:0:0:0:
248,252,56970,2,0,L|236:336,1,67.5,8|2,1:0|0:0,0:0:0:0:
348,336,57304,5,2,2:0:0:0:
332,256,57470,1,2,2:0:0:0:
316,176,57637,2,0,P|332:120|424:96,2,135,8|0|8,0:0|0:0|0:0,0:0:0:0:
396,172,58470,1,0,0:0:0:0:
476,116,58637,6,0,B|480:84|480:84|468:32,1,67.5,8|8,0:0|0:0,0:0:0:0:
316,24,58970,2,0,B|312:56|312:56|324:108,1,67.5,8|8,0:0|0:0,0:0:0:0:
396,172,59304,2,0,L|452:180,3,33.75,8|8|8|0,0:0|0:0|0:0|0:0,0:0:0:0:
372,192,59637,2,0,L|284:204,1,67.5,2|0,2:3|3:0,0:0:0:0:
156,224,59970,6,0,P|124:172|144:88,1,135,4|8,0:2|0:0,0:0:0:0:
208,152,60470,1,8,0:0:0:0:
372,80,60804,1,8,0:0:0:0:
416,148,60970,2,0,P|424:192|408:240,1,67.5,8|8,0:0|0:0,0:0:0:0:
344,188,61304,6,0,B|268:172|288:228|200:208,1,135,8|8,0:0|0:0,0:0:0:0:
324,264,61804,1,8,0:0:0:0:
136,344,62137,1,8,0:0:0:0:
84,284,62304,2,0,P|132:264|176:276,1,67.5,8|8,0:0|0:0,0:0:0:0:
233,344,62637,6,0,L|213:200,1,135,8|8,0:0|0:0,0:0:0:0:
168,139,63137,2,0,B|196:124|196:124|232:128,1,67.5,8|0,0:0|0:0,0:0:0:0:
344,188,63470,1,8,0:0:0:0:
348,112,63637,2,0,L|352:36,1,67.5,8|8,0:0|0:0,0:0:0:0:
428,92,63970,6,0,B|448:136|448:136|440:244,1,135,2|8,0:2|0:0,0:0:0:0:
384,288,64470,1,8,0:0:0:0:
272,224,64637,2,0,P|224:212|188:212,1,67.5,0|0,0:0|0:0,0:0:0:0:
120,248,64970,2,0,L|108:196,4,33.75,0|0|8|0|0,0:0|0:0|0:0|0:0|0:0,0:0:0:0:
300,308,65637,5,0,3:0:0:0:
352,212,65804,2,0,B|340:160|296:148|296:148|300:84,1,135,0|0,3:0|0:0,0:0:0:0:
304,28,66304,2,0,P|344:44|368:76,1,67.5,0|0,3:0|3:0,0:0:0:0:
272,224,66637,6,0,B|216:236|216:236|196:224|196:224|136:236,1,135,0|0,0:0|3:0,0:0:0:0:
82,298,67137,2,0,P|55:238|78:177,1,135,0|0,3:0|0:0,0:0:0:0:
226,86,67637,2,0,P|235:118|232:152,1,67.5,0|0,3:0|3:0,0:0:0:0:
156,124,67970,5,0,0:0:0:0:
272,224,68304,1,0,3:0:0:0:
336,168,68470,1,0,3:0:0:0:
380,236,68637,2,0,P|388:280|380:320,1,67.5,0|0,0:0|0:0,0:0:0:0:
248,364,68970,2,0,P|240:320|248:280,1,67.5,0|0,3:0|3:0,0:0:0:0:
272,224,69304,6,0,B|224:228|224:228|192:216|192:216|116:224,2,135,0|0|0,0:0|0:0|0:0,0:0:0:0:
336,168,70137,1,0,0:0:0:0:
264,112,70304,1,0,0:0:0:0:
300,36,70470,1,0,0:0:0:0:
188,60,70637,6,0,B|108:76|132:32|52:48,1,135,4|0,0:0|1:0,0:0:0:0:
11,205,71137,2,0,P|72:191|79:127,1,135,0|0,3:0|3:0,0:0:0:0:
0,108,71637,1,0,0:0:0:0:
56,47,71804,6,0,L|196:35,1,135,0|0,1:0|3:0,0:0:0:0:
224,124,72304,2,0,P|188:132|144:116,2,67.5,0|2|0,1:0|0:0|0:0,0:0:0:0:
304,76,72804,1,0,3:0:0:0:
340,148,72970,1,2,0:3:0:0:
376,220,73137,1,2,0:0:0:0:
464,176,73304,6,0,B|484:136|484:136|460:40,1,135,4|0,0:2|1:0,0:0:0:0:
384,80,73804,2,0,B|308:100|332:44|240:68,1,135,0|0,3:0|3:0,0:0:0:0:
276,140,74304,1,0,0:0:0:0:
216,192,74470,6,0,P|180:204|132:200,1,67.5,0|0,1:0|0:0,0:0:0:0:
168,128,74804,1,0,3:0:0:0:
96,104,74970,2,0,P|52:104|8:192,1,135,0|2,1:0|0:0,0:0:0:0:
28,252,75470,1,2,0:3:0:0:
28,252,75637,1,2,0:3:0:0:
112,192,75804,1,2,0:0:0:0:
164,280,75970,6,0,B|220:296|220:296|304:276,1,135,4|0,0:0|1:0,0:0:0:0:
376,296,76470,2,0,P|316:268|316:184,1,135,0|0,3:0|3:0,0:0:0:0:
360,148,76970,1,0,0:0:0:0:
424,192,77137,6,0,P|388:220|300:200,1,135,0|0,1:0|3:0,0:0:0:0:
252,148,77637,2,0,P|244:100|244:68,1,67.5,0|2,1:0|0:0,0:0:0:0:
320,68,77970,1,0,0:0:0:0:
144,160,78304,1,2,0:3:0:0:
312,252,78637,6,0,B|396:264|364:220|468:236,1,135,0|2,0:0|1:2,0:0:0:0:
424,320,79137,1,0,3:0:0:0:
344,344,79304,2,0,P|300:352|252:352,1,67.5,2|0,0:0|3:0,0:0:0:0:
232,284,79637,1,2,1:2:0:0:
148,332,79804,6,0,L|164:180,1,135,4|0,0:0|1:0,0:0:0:0:
192,112,80304,2,0,P|148:108|108:124,1,67.5,0|0,1:0|1:0,0:0:0:0:
162,197,80637,2,0,B|214:201|214:201|244:192|244:192|310:197,1,135,0|0,1:0|0:0,0:0:0:0:
372,232,81137,2,0,L|380:272,2,33.75,8|8|8,2:3|2:3|2:3,0:0:0:0:
416,152,81470,5,0,0:0:0:0:
356,88,81637,2,0,P|320:72|272:80,1,67.5,0|0,0:0|0:0,0:0:0:0:
240,176,81970,2,0,P|273:175|303:160,1,67.5,0|0,0:0|0:0,0:0:0:0:
212,64,82304,1,0,0:0:0:0:
212,64,82470,1,0,0:0:0:0:
148,124,82637,6,0,B|96:128|96:128|68:120|68:120|0:124,2,135,12|8|0,0:2|0:0|0:0,0:0:0:0:
212,64,83470,1,8,0:2:0:0:
274,123,83637,2,0,P|266:155|240:176,1,67.5,8|2,0:0|2:2,0:0:0:0:
172,216,83970,5,10,0:2:0:0:
172,216,84137,1,2,0:2:0:0:
228,292,84304,1,8,0:0:0:0:
228,292,84470,1,0,0:0:0:0:
304,240,84637,2,0,B|340:256|380:232|380:232|403:258|448:256,1,135,0|8,0:0|0:0,0:0:0:0:
512,220,85137,1,2,2:2:0:0:
436,176,85304,6,0,B|420:80|420:80|440:20,1,135,10|8,0:2|0:0,0:0:0:0:
500,96,85804,1,0,0:2:0:0:
344,64,85970,2,0,P|288:52|256:56,1,67.5,2|8,0:2|0:2,0:0:0:0:
232,136,86304,2,0,P|176:148|144:144,1,67.5,8|2,0:0|0:2,0:0:0:0:
92,100,86637,6,0,L|84:16,1,67.5,10|2,0:2|2:2,0:0:0:0:
0,152,86970,2,0,L|8:68,1,67.5,8|0,0:0|0:2,0:0:0:0:
68,200,87304,2,0,B|152:216|124:172|220:184,1,135,2|8,0:3|0:3,0:0:0:0:
180,268,87804,1,2,0:3:0:0:
259,241,87970,6,0,P|282:180|257:119,2,135,12|8|0,0:2|0:0|0:0,0:0:0:0:
180,268,88804,1,8,0:2:0:0:
248,328,88970,2,0,P|288:324|328:300,1,67.5,8|2,0:0|2:0,0:0:0:0:
348,236,89304,5,10,0:2:0:0:
348,236,89470,1,0,0:2:0:0:
280,156,89637,1,8,0:0:0:0:
280,156,89804,1,0,0:0:0:0:
360,100,89970,2,0,P|400:88|488:140,1,135,0|8,0:0|0:0,0:0:0:0:
408,172,90470,1,2,2:0:0:0:
280,156,90637,6,0,L|192:148,1,67.5,10|0,0:2|0:0,0:0:0:0:
136,120,90970,2,0,B|124:152|136:180|136:180|108:216|124:264,1,135,8|2,0:0|0:2,0:0:0:0:
220,312,91470,1,8,0:2:0:0:
263,242,91637,2,0,P|233:229|200:232,1,67.5,8|2,0:0|0:2,0:0:0:0:
128,328,91970,5,10,0:2:0:0:
120,249,92137,1,8,0:0:0:0:
40,212,92304,2,0,P|32:248|44:292,1,67.5,8|8,0:0|0:0,0:0:0:0:
112,169,92637,6,0,P|122:114|272:160,1,270,0|0,1:0|0:0,0:0:0:0:
264,236,93637,1,0,0:0:0:0:
332,272,93970,2,0,P|380:280|448:236,1,108,0|0,0:0|0:0,0:0:0:0:
476,156,94637,6,0,L|460:44,1,108,2|0,0:3|0:0,0:0:0:0:
384,16,95304,1,0,0:0:0:0:
328,76,95637,1,0,0:0:0:0:
240,40,95970,6,0,B|180:28|192:60|128:48,2,108,0|0|0,0:3|0:0|0:0,0:0:0:0:
216,120,96970,1,0,0:0:0:0:
284,164,97304,2,0,B|344:176|332:144|396:156,2,108,0|0|0,0:0|0:0|0:0,0:0:0:0:
180,260,98304,2,0,L|104:252,1,54,0|0,0:0|0:0,0:0:0:0:
72,200,98637,6,0,P|48:148|68:80,1,108,0|0,0:0|0:0,0:0:0:0:
128,48,99304,1,0,0:0:0:0:
136,136,99637,1,0,0:0:0:0:
248,96,99970,6,0,P|277:93|304:88,1,54,2|0,0:3|0:0,0:0:0:0:
376,72,100304,1,2,0:3:0:0:
460,164,100637,2,0,P|400:156|348:152,1,108,0|0,0:0|0:0,0:0:0:0:
244,196,101304,6,0,P|220:252|244:308,1,108,0|0,0:0|0:0,0:0:0:0:
364,308,101970,2,0,P|388:252|364:196,1,108,0|0,0:0|0:0,0:0:0:0:
304,252,102637,1,0,0:0:0:0:
304,252,103304,6,0,L|260:256,6,33.75,0|0|0|0|0|0|0,0:0|0:0|0:0|0:0|0:0|0:0|0:0,0:0:0:0:
200,228,103970,6,0,B|176:180|176:180|204:88,1,135,0|0,0:0|0:0,0:0:0:0:
224,28,104470,1,2,0:3:0:0:
288,112,104637,2,0,B|343:115|343:115|364:101|364:101|432:106,2,135,8|0|8,0:0|0:0|0:3,0:0:0:0:
199,102,105470,5,8,0:0:0:0:
110,92,105637,2,0,P|114:132|138:172,1,67.5,0|2,0:0|0:3,0:0:0:0:
288,112,105970,2,0,P|284:72|260:32,1,67.5,8|8,0:3|0:0,0:0:0:0:
199,102,106304,2,0,L|204:184,1,67.5,0|0,0:0|0:0,0:0:0:0:
176,256,106637,6,0,B|256:268|228:228|312:240,1,135,0|0,0:0|0:0,0:0:0:0:
384,272,107137,1,2,0:3:0:0:
464,304,107304,2,0,L|448:160,1,135,8|0,0:0|0:0,0:0:0:0:
496,44,107970,6,0,P|440:64|364:20,1,135,8|0,0:3|0:0,0:0:0:0:
316,92,108470,1,2,0:3:0:0:
252,48,108637,2,0,P|216:36|160:40,1,67.5,8|8,0:3|0:0,0:0:0:0:
112,68,108970,2,0,P|88:100|80:140,1,67.5,0|8,0:0|0:0,0:0:0:0:
128,255,109304,6,0,B|132:200|132:200|156:180|156:180|160:132,1,135,0|0,0:0|0:0,0:0:0:0:
186,34,109804,1,2,0:3:0:0:
260,80,109970,2,0,P|332:92|392:40,1,135,8|0,0:0|0:0,0:0:0:0:
436,120,110470,1,0,0:0:0:0:
392,188,110637,6,0,P|376:236|376:272,1,67.5,8|8,0:3|0:0,0:0:0:0:
408,328,110970,2,0,L|272:312,1,135,0|8,0:0|0:3,0:0:0:0:
192,300,111470,1,0,0:0:0:0:
124,360,111637,2,0,P|104:316|112:268,1,67.5,0|0,0:0|0:0,0:0:0:0:
136,216,111970,5,0,0:0:0:0:
40,124,112304,2,0,P|60:168|52:216,2,67.5,0|2|8,0:0|0:3|0:0,0:0:0:0:
24,258,112970,2,0,P|76:266|140:198,1,135,0|8,0:0|0:3,0:0:0:0:
140,136,113470,1,8,0:0:0:0:
208,88,113637,6,0,L|284:76,1,67.5,0|2,0:0|0:3,0:0:0:0:
400,184,113970,2,0,L|324:172,1,67.5,8|8,0:3|0:0,0:0:0:0:
256,160,114304,1,0,0:0:0:0:
256,160,114637,6,0,P|244:228|476:216,1,405,2|0,0:0|0:0,0:0:0:0:
456,156,115804,1,2,0:0:0:0:
396,104,115970,6,0,L|176:72,1,202.5,10|0,0:0|0:0,0:0:0:0:
128,40,116637,2,0,P|120:88|180:148,1,135,2|2,0:0|0:0,0:0:0:0:
252,168,117137,1,0,0:0:0:0:
316,220,117304,6,0,B|260:268|204:232|204:232|192:276|136:288,1,202.5,2|0,0:0|0:0,0:0:0:0:
132,208,117970,2,0,P|125:173|200:116,1,135,0|0,0:0|0:0,0:0:0:0:
252,168,118470,1,0,0:0:0:0:
328,140,118637,6,0,B|344:92|344:92|332:0,2,135,8|2|2,0:0|0:0|0:0,0:0:0:0:
228,248,119637,1,4,0:0:0:0:
76,236,119970,6,0,P|88:111|212:98,1,270,6|2,0:0|0:2,0:0:0:0:
296,208,120970,2,0,P|328:220|372:216,1,67.5,0|2,0:0|0:0,0:0:0:0:
412,165,121304,6,0,B|420:120|396:64|396:64|376:116|340:144,1,202.5,10|0,0:0|0:0,0:0:0:0:
296,208,121970,2,0,L|156:224,1,135,2|2,0:0|0:0,0:0:0:0:
60,96,122637,6,0,P|116:68|224:156,1,202.5,2|0,0:0|0:0,0:0:0:0:
296,208,123304,2,0,B|388:220|344:176|448:192,1,135,2|0,0:0|0:0,0:0:0:0:
484,248,123804,1,0,0:0:0:0:
408,268,123970,5,8,0:0:0:0:
336,104,124304,1,2,0:0:0:0:
172,84,124637,1,2,0:0:0:0:
232,284,124970,1,4,0:0:0:0:
68,304,125304,6,0,B|48:208|48:208|88:152|88:152|68:40,1,270,6|2,0:0|0:2,0:0:0:0:
136,224,126304,2,0,L|216:232,1,67.5,0|2,0:0|0:0,0:0:0:0:
280,240,126637,6,0,P|312:184|276:96,1,135,10|0,0:0|0:0,0:0:0:0:
160,44,127304,1,2,0:0:0:0:
236,172,127637,1,2,0:0:0:0:
360,72,127970,6,0,B|440:60|408:100|516:84,1,135,2|0,0:0|0:0,0:0:0:0:
388,148,128470,1,0,0:0:0:0:
448,204,128637,2,0,B|480:244|480:244|456:324,1,135,2|2,0:0|0:0,0:0:0:0:
384,296,129137,1,0,0:0:0:0:
320,340,129304,6,0,L|184:360,1,135,8|2,0:0|0:0,0:0:0:0:
64,292,129970,1,2,0:0:0:0:
180,232,130304,1,4,0:0:0:0:
68,172,130637,6,0,P|48:120|160:36,1,202.5,6|0,0:0|0:0,0:0:0:0:
194,99,131304,2,0,P|165:115|132:116,1,67.5,2|0,0:0|2:0,0:0:0:0:
68,172,131637,2,0,L|80:244,1,67.5,0|2,0:0|0:0,0:0:0:0:
60,320,131970,6,0,P|100:272|240:368,1,270,10|2,0:0|0:0,0:0:0:0:
148,352,132970,1,2,0:0:0:0:
184,176,133304,5,0,0:0:0:0:
256,192,133637,12,2,135637,0:0:0:0:
96,120,135970,6,0,L|240:92,1,135,4|8,0:2|0:0,0:0:0:0:
304,72,136470,1,2,0:3:0:0:
360,128,136637,2,0,P|376:176|376:216,1,67.5,0|2,0:0|0:3,0:0:0:0:
308,252,136970,2,0,P|292:204|292:164,1,67.5,8|2,0:0|0:3,0:0:0:0:
462,181,137304,6,0,P|446:245|387:275,1,135,0|8,0:0|0:0,0:0:0:0:
308,252,137804,1,2,0:3:0:0:
224,244,137970,2,0,L|136:236,1,67.5,0|2,0:3|0:3,0:0:0:0:
192,332,138304,2,0,L|280:324,1,67.5,8|2,0:0|0:3,0:0:0:0:
308,252,138637,5,6,2:0:0:0:
280,172,138804,2,0,P|272:127|289:76,1,67.5,2|2,0:0|0:0,0:0:0:0:
352,140,139137,1,2,0:0:0:0:
308,252,139304,2,0,B|228:272|252:216|160:236,1,135,2|2,0:0|0:0,0:0:0:0:
116,284,139804,1,2,0:0:0:0:
146,357,139970,6,0,P|174:340|192:312,1,67.5,2|2,0:0|0:0,0:0:0:0:
178,232,140304,2,0,L|162:144,1,67.5,10|2,0:0|0:0,0:0:0:0:
96,104,140637,6,0,P|75:154|80:186,1,67.5,2|2,0:0|0:0,0:0:0:0:
178,232,140970,2,0,L|260:220,1,67.5,8|2,0:0|0:0,0:0:0:0:
328,232,141304,6,0,B|340:184|340:184|312:84,1,135,0|8,0:0|0:0,0:0:0:0:
288,24,141804,1,2,0:3:0:0:
236,96,141970,2,0,P|184:104|148:104,1,67.5,0|2,0:0|0:3,0:0:0:0:
96,68,142304,1,8,0:0:0:0:
32,156,142470,6,0,P|92:152|140:212,1,135,2|2,0:3|0:3,0:0:0:0:
152,284,142970,2,0,L|136:368,2,67.5,8|2|0,0:0|0:3|0:0,0:0:0:0:
224,244,143470,1,2,0:3:0:0:
296,204,143637,2,0,L|280:120,1,67.5,8|2,0:0|0:3,0:0:0:0:
264,56,143970,6,0,P|320:64|368:136,1,135,0|8,0:0|0:0,0:0:0:0:
380,204,144470,1,2,0:3:0:0:
432,272,144637,2,0,B|456:256|464:228|464:228|464:296|440:320,1,135,0|8,0:0|0:0,0:0:0:0:
376,352,145137,1,2,0:3:0:0:
296,332,145304,6,0,L|212:324,1,67.5,8|0,0:0|0:0,0:0:0:0:
128,264,145637,2,0,L|195:257,1,67.5,0|0,0:0|0:0,0:0:0:0:
316,208,145970,2,0,L|248:201,1,67.5,0|0,0:0|0:0,0:0:0:0:
168,168,146304,2,0,P|152:120|160:72,1,67.5,0|0,0:0|0:0,0:0:0:0:
203,4,146637,6,0,P|246:52|232:116,1,135,12|8,0:2|0:0,0:0:0:0:
84,188,147304,2,0,P|64:240|72:280,1,67.5,0|8,0:0|0:2,0:0:0:0:
108,320,147637,2,0,L|192:332,1,67.5,8|2,0:0|2:2,0:0:0:0:
244,288,147970,5,10,0:2:0:0:
244,288,148137,1,2,0:2:0:0:
280,204,148304,1,8,0:0:0:0:
280,204,148470,1,0,0:0:0:0:
192,168,148637,2,0,B|176:136|172:112|172:112|184:72|228:44,1,135,0|8,0:0|0:0,0:0:0:0:
296,48,149137,1,2,2:2:0:0:
388,116,149304,6,0,B|333:136|333:136|253:120,1,135,10|8,0:2|0:0,0:0:0:0:
215,52,149804,1,0,0:2:0:0:
132,32,149970,2,0,B|98:28|98:28|52:40,1,67.5,2|8,0:2|0:2,0:0:0:0:
24,108,150304,2,0,L|12:184,1,67.5,8|2,0:0|0:2,0:0:0:0:
80,236,150637,6,0,B|116:200|116:200|100:96,1,135,10|8,0:2|0:0,0:0:0:0:
132,32,151137,1,0,0:2:0:0:
188,132,151304,2,0,B|268:148|248:108|340:124,1,135,2|8,0:3|0:3,0:0:0:0:
384,216,151804,1,2,0:3:0:0:
312,264,151970,6,0,P|300:228|304:180,1,67.5,12|0,0:2|0:0,0:0:0:0:
392,76,152304,2,0,P|404:112|400:160,1,67.5,8|2,0:0|0:2,0:0:0:0:
320,121,152637,2,0,L|172:105,1,135,0|8,0:0|0:0,0:0:0:0:
108,92,153137,1,2,2:0:0:0:
52,156,153304,5,10,0:2:0:0:
52,156,153470,1,0,0:2:0:0:
124,208,153637,1,8,0:0:0:0:
124,208,153804,1,0,0:0:0:0:
100,288,153970,2,0,B|180:304|152:256|240:272,1,135,0|8,0:0|0:0,0:0:0:0:
304,304,154470,1,2,2:0:0:0:
368,352,154637,6,0,P|384:312|376:264,1,67.5,10|0,0:2|0:0,0:0:0:0:
332,228,154970,2,0,P|300:188|324:88,1,135,8|2,0:0|0:2,0:0:0:0:
380,156,155470,1,8,0:2:0:0:
388,72,155637,2,0,P|364:36|320:20,1,67.5,8|2,0:0|0:2,0:0:0:0:
260,20,155970,6,0,L|180:28,1,67.5,0|2,0:3|0:3,0:0:0:0:
96,104,156304,2,0,L|176:112,1,67.5,0|2,0:0|0:3,0:0:0:0:
272,168,156637,2,0,B|220:173|220:173|194:192|194:192|142:197,1,135,2|2,0:3|0:3,0:0:0:0:
68,212,157137,1,2,0:3:0:0:
104,284,157304,6,0,P|152:312|232:288,2,135,4|8|0,0:0|0:0|0:0,0:0:0:0:
68,212,158137,1,8,0:2:0:0:
96,136,158304,2,0,P|120:112|168:100,1,67.5,8|2,0:0|2:2,0:0:0:0:
228,112,158637,5,10,0:2:0:0:
228,112,158804,1,2,0:2:0:0:
164,180,158970,1,8,0:0:0:0:
164,180,159137,1,0,0:0:0:0:
248,212,159304,2,0,B|328:228|300:188|392:204,1,135,0|8,0:0|0:0,0:0:0:0:
348,280,159804,1,2,2:2:0:0:
428,268,159970,6,0,P|456:228|428:132,1,135,10|8,0:2|0:0,0:0:0:0:
380,96,160470,1,0,0:2:0:0:
280,76,160637,2,0,L|196:68,1,67.5,2|8,0:2|0:2,0:0:0:0:
164,136,160970,2,0,P|148:184|152:216,1,67.5,8|2,0:0|0:2,0:0:0:0:
224,304,161304,6,0,P|256:248|216:176,1,135,10|8,0:2|0:0,0:0:0:0:
164,136,161804,1,0,0:2:0:0:
76,144,161970,2,0,B|76:180|108:204|108:204|88:268,1,135,2|8,0:3|0:3,0:0:0:0:
56,344,162470,1,2,0:3:0:0:
136,336,162637,6,0,L|220:328,1,67.5,12|0,0:2|0:0,0:0:0:0:
280,360,162970,2,0,B|297:339|320:328|320:328|340:268|324:228,1,135,8|0,0:0|0:0,0:0:0:0:
280,184,163470,1,8,0:2:0:0:
244,256,163637,2,0,P|213:234|204:184,1,67.5,8|2,0:0|2:0,0:0:0:0:
216,120,163970,5,10,0:2:0:0:
297,96,164137,1,0,0:2:0:0:
363,148,164304,1,8,0:0:0:0:
358,231,164470,1,0,0:0:0:0:
440,208,164637,2,0,P|464:160|428:68,1,135,0|8,0:0|0:0,0:0:0:0:
376,36,165137,1,2,2:0:0:0:
297,96,165304,6,0,L|208:108,1,67.5,10|0,0:2|0:0,0:0:0:0:
148,80,165637,2,0,B|132:120|156:152|156:152|136:228,1,135,8|2,0:0|0:2,0:0:0:0:
212,292,166137,1,8,0:2:0:0:
296,232,166304,2,0,P|296:192|280:160,1,67.5,8|2,0:0|0:2,0:0:0:0:
220,212,166637,5,2,0:3:0:0:
132,288,166804,1,2,0:3:0:0:
56,200,166970,1,2,0:3:0:0:
144,124,167137,1,2,0:3:0:0:
220,212,167304,6,0,B|268:228|340:208|340:208|316:240|268:240,1,202.5,0|0,0:0|0:0,0:0:0:0:
156,260,167970,6,0,P|140:196|196:136,1,135,2|8,0:1|0:0,0:0:0:0:
252,112,168470,1,2,0:1:0:0:
316,160,168637,2,0,P|332:96|276:36,1,135,0|8,0:1|0:0,0:0:0:0:
224,16,169137,1,2,0:1:0:0:
148,16,169304,6,0,P|136:56|140:84,1,67.5,2|2,0:0|0:0,0:0:0:0:
260,177,169637,2,0,P|263:143|252:112,1,67.5,8|2,0:0|0:0,0:0:0:0:
172,160,169970,2,0,B|88:176|116:132|20:148,1,135,0|8,0:3|0:0,0:0:0:0:
60,224,170470,1,0,0:0:0:0:
132,268,170637,6,0,L|268:252,1,135,2|8,0:1|0:0,0:0:0:0:
344,240,171137,1,0,0:0:0:0:
408,300,171304,2,0,B|436:260|436:260|412:152,1,135,2|8,0:0|0:0,0:0:0:0:
392,104,171804,1,0,0:0:0:0:
324,144,171970,6,0,P|288:156|236:156,1,67.5,2|2,0:0|0:0,0:0:0:0:
208,64,172304,2,0,P|241:67|273:78,1,67.5,8|2,0:0|0:0,0:0:0:0:
252,236,172637,2,0,P|196:204|184:140,1,135,2|8,0:3|0:0,0:0:0:0:
208,64,173137,1,2,0:3:0:0:
136,32,173304,6,0,B|84:28|84:28|56:40|56:40|-8:36,1,135,2|8,0:0|0:0,0:0:0:0:
44,116,173804,1,2,0:0:0:0:
8,188,173970,2,0,B|60:192|60:192|88:180|88:180|152:184,1,135,2|8,0:0|0:0,0:0:0:0:
208,220,174470,1,2,0:0:0:0:
276,264,174637,6,0,B|288:232|288:232|284:188,1,67.5,2|2,0:0|0:0,0:0:0:0:
240,76,174970,2,0,B|228:108|228:108|232:152,1,67.5,8|2,0:0|0:0,0:0:0:0:
312,120,175304,2,0,L|460:104,1,135,2|8,0:0|0:0,0:0:0:0:
416,256,175970,6,0,B|332:264|364:228|272:236,1,135,2|10,0:0|0:0,0:0:0:0:
216,288,176470,1,0,0:0:0:0:
148,240,176637,2,0,P|140:196|144:168,1,67.5,0|2,0:0|0:0,0:0:0:0:
292,168,176970,2,0,P|300:212|296:240,1,67.5,8|2,0:0|0:0,0:0:0:0:
220,204,177304,5,0,0:0:0:0:
236,111,177470,1,0,0:0:0:0:
329,97,177637,1,0,0:0:0:0:
370,181,177803,1,0,0:0:0:0:
303,247,177970,1,0,0:0:0:0:
