osu file format v14

[General]
AudioFilename: audio.mp3
AudioLeadIn: 0
PreviewTime: -1
Countdown: 0
SampleSet: None
StackLeniency: 0.7
Mode: 1
LetterboxInBreaks: 0
WidescreenStoryboard: 0

[Editor]
DistanceSpacing: 0.6
BeatDivisor: 1
GridSize: 32
TimelineZoom: 2.2

[Metadata]
Title:Kodoku no Kakurenbo
TitleUnicode:Kodoku no Kakurenbo
Artist:Himeringo
ArtistUnicode:Himeringo
Creator:Capu
Version:Futsuu
Source:
Tags:
BeatmapID:1940709
BeatmapSetID:929195

[Difficulty]
HPDrainRate:5
CircleSize:2
OverallDifficulty:4
ApproachRate:5
SliderMultiplier:1.4
SliderTickRate:1

[Events]
//Background and Video events
0,0,"mika shimotsuki.png",0,0
//Break Periods
//Storyboard Layer 0 (Background)
//Storyboard Layer 1 (Fail)
//Storyboard Layer 2 (Pass)
//Storyboard Layer 3 (Foreground)
//Storyboard Sound Samples

[TimingPoints]
3818,272.727272727273,4,1,0,100,1,0
48545,-100,4,1,0,100,0,1
114000,245.901639344262,4,1,0,100,1,0
162196,272.727272727273,4,1,0,100,1,0
181014,272.727272727273,4,1,0,100,1,0
196832,272.727272727273,4,1,0,100,1,0

[HitObjects]
256,192,3818,5,0,0:0:0:0:
256,192,4227,1,0,0:0:0:0:
256,192,4499,1,0,0:0:0:0:
256,192,4772,1,8,0:0:0:0:
256,192,5999,1,0,0:0:0:0:
256,192,6408,1,8,0:0:0:0:
256,192,7090,1,8,0:0:0:0:
256,192,7499,1,0,0:0:0:0:
256,192,7908,1,0,0:0:0:0:
256,192,8181,1,8,0:0:0:0:
256,192,9272,1,8,0:0:0:0:
256,192,9818,1,8,0:0:0:0:
256,192,10090,1,8,0:0:0:0:
256,192,10363,1,0,0:0:0:0:
256,192,11181,5,8,0:0:0:0:
256,192,11454,1,8,0:0:0:0:
256,192,11727,1,0,0:0:0:0:
256,192,11999,1,8,0:0:0:0:
256,192,12545,1,12,0:0:0:0:
256,192,12818,1,0,0:0:0:0:
256,192,13363,1,8,0:0:0:0:
256,192,13908,1,8,0:0:0:0:
256,192,14318,1,0,0:0:0:0:
256,192,14454,1,8,0:0:0:0:
256,192,14727,1,0,0:0:0:0:
256,192,14999,1,8,0:0:0:0:
256,192,15545,1,8,0:0:0:0:
256,192,16090,1,8,0:0:0:0:
256,192,16363,1,0,0:0:0:0:
256,192,16636,1,0,0:0:0:0:
256,192,16908,1,8,0:0:0:0:
256,192,17181,1,0,0:0:0:0:
256,192,17727,1,8,0:0:0:0:
256,192,18272,1,8,0:0:0:0:
256,192,18681,1,0,0:0:0:0:
256,192,18818,1,8,0:0:0:0:
256,192,19090,1,0,0:0:0:0:
256,192,19363,1,8,0:0:0:0:
256,192,20045,1,12,0:0:0:0:
256,192,20318,1,12,0:0:0:0:
256,192,20590,1,12,0:0:0:0:
256,192,20863,1,12,0:0:0:0:
256,192,21136,1,4,0:0:0:0:
256,192,22363,1,8,0:0:0:0:
256,192,22636,1,0,0:0:0:0:
256,192,23045,1,0,0:0:0:0:
256,192,23318,1,8,0:0:0:0:
256,192,23727,1,8,0:0:0:0:
256,192,23999,1,8,0:0:0:0:
256,192,24136,1,8,0:0:0:0:
256,192,24408,1,8,0:0:0:0:
256,192,24818,1,8,0:0:0:0:
256,192,25363,1,0,0:0:0:0:
256,192,25499,1,8,0:0:0:0:
256,192,25772,1,0,0:0:0:0:
256,192,25908,1,8,0:0:0:0:
256,192,26181,1,8,0:0:0:0:
256,192,26318,1,0,0:0:0:0:
256,192,26454,1,0,0:0:0:0:
256,192,26590,1,0,0:0:0:0:
256,192,26999,1,12,0:0:0:0:
256,192,27681,1,8,0:0:0:0:
256,192,27954,1,0,0:0:0:0:
256,192,28090,1,0,0:0:0:0:
256,192,28363,1,8,0:0:0:0:
256,192,28499,1,8,0:0:0:0:
256,192,28772,1,0,0:0:0:0:
256,192,29181,1,0,0:0:0:0:
256,192,29454,1,0,0:0:0:0:
256,192,29727,1,0,0:0:0:0:
256,192,29999,1,8,0:0:0:0:
256,192,30272,1,8,0:0:0:0:
256,192,30545,1,8,0:0:0:0:
256,192,30681,1,8,0:0:0:0:
256,192,30818,1,8,0:0:0:0:
256,192,31090,1,0,0:0:0:0:
256,192,31636,1,0,0:0:0:0:
256,192,32181,1,8,0:0:0:0:
256,192,32454,1,8,0:0:0:0:
256,192,32727,1,8,0:0:0:0:
256,192,32863,1,0,0:0:0:0:
256,192,33136,1,8,0:0:0:0:
256,192,33545,1,0,0:0:0:0:
256,192,34090,1,0,0:0:0:0:
256,192,34636,1,0,0:0:0:0:
256,192,34908,1,8,0:0:0:0:
256,192,35045,1,0,0:0:0:0:
256,192,35318,1,8,0:0:0:0:
256,192,35727,1,0,0:0:0:0:
256,192,36272,1,0,0:0:0:0:
256,192,36818,1,0,0:0:0:0:
256,192,37090,1,8,0:0:0:0:
256,192,37227,1,8,0:0:0:0:
256,192,37499,1,8,0:0:0:0:
256,192,37908,1,0,0:0:0:0:
256,192,38181,1,0,0:0:0:0:
256,192,38454,1,0,0:0:0:0:
256,192,38727,1,8,0:0:0:0:
256,192,38863,1,8,0:0:0:0:
256,192,38999,1,8,0:0:0:0:
256,192,39272,1,8,0:0:0:0:
256,192,39681,1,8,0:0:0:0:
256,192,40363,1,8,0:0:0:0:
256,192,40636,1,0,0:0:0:0:
256,192,40772,1,8,0:0:0:0:
256,192,41454,1,8,0:0:0:0:
256,192,41727,1,0,0:0:0:0:
256,192,41863,1,8,0:0:0:0:
256,192,42272,1,8,0:0:0:0:
256,192,42545,1,0,0:0:0:0:
256,192,42818,1,0,0:0:0:0:
256,192,42954,1,8,0:0:0:0:
256,192,43363,1,0,0:0:0:0:
256,192,43636,1,8,0:0:0:0:
256,192,44181,1,8,0:0:0:0:
256,192,44727,1,8,0:0:0:0:
256,192,44999,1,0,0:0:0:0:
256,192,45272,1,8,0:0:0:0:
256,192,45545,1,0,0:0:0:0:
256,192,45818,1,8,0:0:0:0:
256,192,46090,1,8,0:0:0:0:
256,192,46227,1,8,0:0:0:0:
256,192,46499,1,4,0:0:0:0:
256,192,46908,1,4,0:0:0:0:
256,192,47318,1,4,0:0:0:0:
256,192,47727,1,4,0:0:0:0:
256,192,48545,1,12,0:0:0:0:
256,192,48818,1,0,0:0:0:0:
256,192,49090,1,0,0:0:0:0:
256,192,49227,1,0,0:0:0:0:
256,192,49363,1,8,0:0:0:0:
256,192,49636,1,8,0:0:0:0:
256,192,49908,1,0,0:0:0:0:
256,192,50181,1,8,0:0:0:0:
256,192,50454,1,8,0:0:0:0:
256,192,50590,1,0,0:0:0:0:
256,192,50863,1,0,0:0:0:0:
256,192,50999,1,8,0:0:0:0:
256,192,51272,1,8,0:0:0:0:
256,192,51681,1,8,0:0:0:0:
256,192,51954,1,0,0:0:0:0:
256,192,52090,1,8,0:0:0:0:
256,192,52363,1,0,0:0:0:0:
256,192,52636,1,0,0:0:0:0:
256,192,52908,1,8,0:0:0:0:
256,192,53454,1,0,0:0:0:0:
256,192,53727,1,0,0:0:0:0:
