osu file format v14

[General]
AudioFilename: audio.mp3
AudioLeadIn: 0
PreviewTime: 130649
Countdown: 1
SampleSet: Normal
StackLeniency: 0.7
Mode: 1
LetterboxInBreaks: 0
WidescreenStoryboard: 1

[Editor]
Bookmarks: 1368,22583,43798,65014,88881,110097,131312,152528,165787,187003,208218
DistanceSpacing: 1.7
BeatDivisor: 4
GridSize: 32
TimelineZoom: 0.8999999

[Metadata]
Title:Idola no Circus
TitleUnicode:イドラのサーカス
Artist:Himeringo
ArtistUnicode:ひめりんご
Creator:hikikochan
Version:Kantan
Source:
Tags:neru oshiire-p 押入れp kagamine rin
BeatmapID:1543777
BeatmapSetID:728008

[Difficulty]
HPDrainRate:7
CircleSize:2
OverallDifficulty:3
ApproachRate:5
SliderMultiplier:1.4
SliderTickRate:1

[Events]
//Background and Video events
0,0,"BG.jpg",0,100
//Break Periods
//Storyboard Layer 0 (Background)
//Storyboard Layer 1 (Fail)
//Storyboard Layer 2 (Pass)
//Storyboard Layer 3 (Foreground)
//Storyboard Sound Samples

[TimingPoints]
1368,331.491712707182,4,1,0,50,1,0
1368,-100,4,1,0,50,0,0
10484,-100,4,1,0,80,0,0
11975,-100,4,1,0,90,0,0
65014,-100,4,1,0,100,0,1
86229,-100,4,1,0,90,0,0
131312,-100,4,1,0,100,0,1
152528,-100,4,1,0,90,0,0
168771,-100,4,1,0,100,0,1
187003,-100,4,1,0,90,0,0

[HitObjects]
256,192,1368,5,8,0:0:0:0:
256,192,2030,1,8,0:0:0:0:
256,192,2693,1,0,0:0:0:0:
256,192,3025,1,0,0:0:0:0:
256,192,3356,1,8,0:0:0:0:
256,192,4019,1,8,0:0:0:0:
256,192,4682,1,0,0:0:0:0:
256,192,5345,1,8,0:0:0:0:
256,192,5677,1,8,0:0:0:0:
256,192,6008,1,0,0:0:0:0:
256,192,6671,1,8,0:0:0:0:
256,192,7334,1,0,0:0:0:0:
256,192,7997,1,8,0:0:0:0:
256,192,8329,1,0,0:0:0:0:
256,192,8660,1,8,0:0:0:0:
256,192,9323,1,8,0:0:0:0:
256,192,9986,1,8,0:0:0:0:
256,192,10484,1,4,0:0:0:0:
256,192,11312,1,8,0:0:0:0:
256,192,11644,1,8,0:0:0:0:
256,192,11975,1,4,0:0:0:0:
256,192,12970,1,8,0:0:0:0:
256,192,13301,1,0,0:0:0:0:
256,192,13964,1,0,0:0:0:0:
256,192,14627,1,8,0:0:0:0:
256,192,15290,1,0,0:0:0:0:
256,192,15953,1,8,0:0:0:0:
256,192,16285,1,8,0:0:0:0:
256,192,16616,1,8,0:0:0:0:
256,192,17279,1,4,0:0:0:0:
256,192,18274,1,8,0:0:0:0:
256,192,18605,1,0,0:0:0:0:
256,192,19268,1,0,0:0:0:0:
256,192,19931,1,8,0:0:0:0:
256,192,20594,1,8,0:0:0:0:
256,192,21091,1,0,0:0:0:0:
256,192,21588,1,8,0:0:0:0:
256,192,21920,1,8,0:0:0:0:
256,192,22583,5,0,0:0:0:0:
256,192,23246,1,8,0:0:0:0:
256,192,24240,1,0,0:0:0:0:
256,192,24572,1,8,0:0:0:0:
256,192,25235,1,4,0:0:0:0:
256,192,25898,1,8,0:0:0:0:
256,192,26229,1,0,0:0:0:0:
256,192,26561,1,8,0:0:0:0:
256,192,27224,1,8,0:0:0:0:
256,192,27555,1,8,0:0:0:0:
256,192,27887,1,0,0:0:0:0:
256,192,28550,1,8,0:0:0:0:
256,192,29544,1,0,0:0:0:0:
256,192,29876,1,8,0:0:0:0:
256,192,30539,1,4,0:0:0:0:
256,192,31202,1,8,0:0:0:0:
256,192,31533,1,0,0:0:0:0:
256,192,31865,1,8,0:0:0:0:
256,192,32528,1,8,0:0:0:0:
256,192,32859,1,0,0:0:0:0:
256,192,33191,1,0,0:0:0:0:
256,192,34185,1,8,0:0:0:0:
256,192,34517,1,0,0:0:0:0:
256,192,35180,1,8,0:0:0:0:
256,192,35843,1,4,0:0:0:0:
256,192,36506,1,8,0:0:0:0:
256,192,36837,1,0,0:0:0:0:
256,192,37169,1,8,0:0:0:0:
256,192,37832,1,8,0:0:0:0:
256,192,38163,1,8,0:0:0:0:
256,192,38495,1,0,0:0:0:0:
256,192,39489,1,8,0:0:0:0:
256,192,39821,1,0,0:0:0:0:
256,192,40484,1,8,0:0:0:0:
256,192,41147,1,4,0:0:0:0:
256,192,41809,1,8,0:0:0:0:
256,192,42141,1,0,0:0:0:0:
256,192,42472,1,8,0:0:0:0:
256,192,43135,1,8,0:0:0:0:
256,192,43467,1,8,0:0:0:0:
256,192,43798,5,4,0:0:0:0:
256,192,44461,1,8,0:0:0:0:
256,192,45124,1,8,0:0:0:0:
256,192,45456,1,8,0:0:0:0:
256,192,45787,1,8,0:0:0:0:
256,192,46450,1,4,0:0:0:0:
256,192,46948,1,4,0:0:0:0:
256,192,47776,1,4,0:0:0:0:
256,192,48274,1,4,0:0:0:0:
256,192,49102,1,4,0:0:0:0:
256,192,49765,1,8,0:0:0:0:
256,192,50428,1,8,0:0:0:0:
256,192,50760,1,0,0:0:0:0:
256,192,51091,1,8,0:0:0:0:
256,192,51754,1,4,0:0:0:0:
256,192,52251,1,4,0:0:0:0:
256,192,53080,1,4,0:0:0:0:
256,192,53577,1,4,0:0:0:0:
256,192,54075,1,8,0:0:0:0:
256,192,54406,1,0,0:0:0:0:
256,192,55401,1,8,0:0:0:0:
256,192,55732,1,8,0:0:0:0:
256,192,56395,1,0,0:0:0:0:
256,192,57058,1,8,0:0:0:0:
256,192,57721,1,0,0:0:0:0:
256,192,58053,1,0,0:0:0:0:
256,192,58384,1,8,0:0:0:0:
256,192,59047,1,8,0:0:0:0:
256,192,59710,1,4,0:0:0:0:
256,192,60705,1,0,0:0:0:0:
256,192,61036,1,8,0:0:0:0:
256,192,61367,1,8,0:0:0:0:
256,192,61699,1,0,0:0:0:0:
256,192,62362,1,4,0:0:0:0:
256,192,63025,1,4,0:0:0:0:
256,192,63522,1,12,0:0:0:0:
256,192,64019,1,12,0:0:0:0:
256,192,64351,1,12,0:0:0:0:
256,192,65014,5,4,0:0:0:0:
256,192,66008,1,8,0:0:0:0:
256,192,66340,1,0,0:0:0:0:
256,192,67003,1,8,0:0:0:0:
256,192,67334,1,8,0:0:0:0:
256,192,67666,1,0,0:0:0:0:
256,192,68329,1,0,0:0:0:0:
256,192,68992,1,8,0:0:0:0:
256,192,69323,1,0,0:0:0:0:
256,192,69655,1,8,0:0:0:0:
256,192,70318,1,0,0:0:0:0:
256,192,71312,1,0,0:0:0:0:
256,192,71644,1,8,0:0:0:0:
256,192,72307,1,0,0:0:0:0:
256,192,72638,1,0,0:0:0:0:
256,192,72970,1,8,0:0:0:0:
256,192,73633,1,8,0:0:0:0:
256,192,74130,1,4,0:0:0:0:
256,192,74627,1,8,0:0:0:0:
256,192,74959,1,8,0:0:0:0:
256,192,75622,1,4,0:0:0:0:
256,192,76616,1,8,0:0:0:0:
256,192,76948,1,0,0:0:0:0:
256,192,77611,1,8,0:0:0:0:
256,192,77942,1,0,0:0:0:0:
256,192,78274,1,8,0:0:0:0:
256,192,78937,1,0,0:0:0:0:
256,192,79600,1,8,0:0:0:0:
256,192,79931,1,8,0:0:0:0:
256,192,80263,1,8,0:0:0:0:
256,192,80926,1,0,0:0:0:0:
256,192,81920,1,0,0:0:0:0:
256,192,82251,1,8,0:0:0:0:
256,192,82914,1,8,0:0:0:0:
256,192,83246,1,8,0:0:0:0:
256,192,83577,1,0,0:0:0:0:
256,192,84240,1,8,0:0:0:0:
256,192,84738,1,4,0:0:0:0:
256,192,85235,1,8,0:0:0:0:
256,192,85566,1,8,0:0:0:0:
256,192,86229,1,4,0:0:0:0:
256,192,87224,1,8,0:0:0:0:
256,192,87555,1,0,0:0:0:0:
256,192,87887,1,0,0:0:0:0:
256,192,88218,1,0,0:0:0:0:
256,192,88550,1,8,0:0:0:0:
256,192,88881,5,4,0:0:0:0:
256,192,89876,1,8,0:0:0:0:
256,192,90207,1,0,0:0:0:0:
256,192,90539,1,0,0:0:0:0:
256,192,90870,1,0,0:0:0:0:
256,192,91533,1,8,0:0:0:0:
256,192,92196,1,8,0:0:0:0:
256,192,92859,1,0,0:0:0:0:
256,192,93191,1,8,0:0:0:0:
256,192,93522,1,8,0:0:0:0:
256,192,94185,1,0,0:0:0:0:
256,192,95180,1,8,0:0:0:0:
256,192,95511,1,0,0:0:0:0:
256,192,95843,1,0,0:0:0:0:
256,192,96174,1,8,0:0:0:0:
256,192,96837,1,8,0:0:0:0:
256,192,97500,1,0,0:0:0:0:
256,192,97997,1,8,0:0:0:0:
256,192,98495,1,0,0:0:0:0:
256,192,98826,1,8,0:0:0:0:
256,192,99489,1,0,0:0:0:0:
256,192,100152,1,8,0:0:0:0:
256,192,101147,1,0,0:0:0:0:
256,192,101478,1,8,0:0:0:0:
256,192,102141,1,4,0:0:0:0:
256,192,102804,1,8,0:0:0:0:
256,192,103135,1,0,0:0:0:0:
256,192,103467,1,8,0:0:0:0:
256,192,104130,1,8,0:0:0:0:
256,192,104461,1,8,0:0:0:0:
256,192,104793,1,0,0:0:0:0:
256,192,105456,1,8,0:0:0:0:
256,192,106450,1,8,0:0:0:0:
256,192,106782,1,8,0:0:0:0:
256,192,107113,1,8,0:0:0:0:
256,192,107445,1,4,0:0:0:0:
256,192,108108,1,0,0:0:0:0:
256,192,108771,1,8,0:0:0:0:
256,192,109102,1,8,0:0:0:0:
256,192,109434,1,8,0:0:0:0:
256,192,110097,5,4,0:0:0:0:
256,192,110760,1,8,0:0:0:0:
256,192,111423,1,8,0:0:0:0:
256,192,111754,1,0,0:0:0:0:
256,192,112086,1,8,0:0:0:0:
256,192,112749,1,4,0:0:0:0:
256,192,113246,1,4,0:0:0:0:
256,192,114075,1,4,0:0:0:0:
256,192,114572,1,4,0:0:0:0:
256,192,115401,1,4,0:0:0:0:
256,192,116064,1,8,0:0:0:0:
256,192,116727,1,0,0:0:0:0:
256,192,117058,1,8,0:0:0:0:
256,192,117390,1,8,0:0:0:0:
256,192,118053,1,4,0:0:0:0:
256,192,118550,1,4,0:0:0:0:
256,192,119379,1,4,0:0:0:0:
256,192,119876,1,0,0:0:0:0:
256,192,120373,1,8,0:0:0:0:
256,192,120705,1,0,0:0:0:0:
256,192,121699,1,8,0:0:0:0:
256,192,122030,1,0,0:0:0:0:
256,192,122362,1,0,0:0:0:0:
256,192,122693,1,8,0:0:0:0:
256,192,123356,1,0,0:0:0:0:
256,192,124019,1,8,0:0:0:0:
256,192,124351,1,8,0:0:0:0:
256,192,124682,1,0,0:0:0:0:
256,192,125345,1,8,0:0:0:0:
256,192,126008,1,4,0:0:0:0:
256,192,127003,1,8,0:0:0:0:
256,192,127334,1,8,0:0:0:0:
256,192,127666,1,0,0:0:0:0:
256,192,127997,1,8,0:0:0:0:
256,192,128660,1,4,0:0:0:0:
256,192,129323,1,4,0:0:0:0:
256,192,129821,1,12,0:0:0:0:
256,192,130318,1,12,0:0:0:0:
256,192,130649,1,12,0:0:0:0:
256,192,131312,5,4,0:0:0:0:
256,192,132307,1,0,0:0:0:0:
256,192,132638,1,8,0:0:0:0:
256,192,133301,1,8,0:0:0:0:
256,192,133633,1,8,0:0:0:0:
256,192,133964,1,0,0:0:0:0:
256,192,134627,1,0,0:0:0:0:
256,192,135290,1,8,0:0:0:0:
256,192,135622,1,8,0:0:0:0:
256,192,135953,1,8,0:0:0:0:
256,192,136616,1,0,0:0:0:0:
256,192,137611,1,0,0:0:0:0:
256,192,137942,1,8,0:0:0:0:
256,192,138605,1,8,0:0:0:0:
256,192,138937,1,0,0:0:0:0:
256,192,139268,1,8,0:0:0:0:
256,192,139931,1,8,0:0:0:0:
256,192,140428,1,4,0:0:0:0:
256,192,140926,1,8,0:0:0:0:
256,192,141257,1,8,0:0:0:0:
256,192,141920,1,4,0:0:0:0:
256,192,142914,1,0,0:0:0:0:
256,192,143246,1,8,0:0:0:0:
256,192,143909,1,0,0:0:0:0:
256,192,144240,1,8,0:0:0:0:
256,192,144572,1,8,0:0:0:0:
256,192,145235,1,0,0:0:0:0:
256,192,145898,1,8,0:0:0:0:
256,192,146229,1,8,0:0:0:0:
256,192,146561,1,8,0:0:0:0:
256,192,147224,1,0,0:0:0:0:
256,192,148218,1,8,0:0:0:0:
256,192,148550,1,0,0:0:0:0:
256,192,149213,1,8,0:0:0:0:
256,192,149544,1,0,0:0:0:0:
256,192,149876,1,8,0:0:0:0:
256,192,150539,1,8,0:0:0:0:
256,192,151036,1,4,0:0:0:0:
256,192,151533,1,8,0:0:0:0:
256,192,151865,1,8,0:0:0:0:
256,192,152528,5,4,0:0:0:0:
256,192,153522,1,8,0:0:0:0:
256,192,153854,1,0,0:0:0:0:
256,192,154517,1,8,0:0:0:0:
256,192,154848,1,0,0:0:0:0:
256,192,155180,1,8,0:0:0:0:
256,192,155843,1,0,0:0:0:0:
256,192,156506,1,8,0:0:0:0:
256,192,156837,1,8,0:0:0:0:
256,192,157169,1,8,0:0:0:0:
256,192,157832,1,4,0:0:0:0:
256,192,158826,1,0,0:0:0:0:
256,192,159158,1,8,0:0:0:0:
256,192,159489,1,8,0:0:0:0:
256,192,159821,1,8,0:0:0:0:
256,192,160484,1,4,0:0:0:0:
256,192,161147,1,8,0:0:0:0:
256,192,161809,1,0,0:0:0:0:
256,192,162141,1,0,0:0:0:0:
256,192,162472,1,8,0:0:0:0:
256,192,163135,1,4,0:0:0:0:
256,192,163798,1,4,0:0:0:0:
256,192,164296,1,12,0:0:0:0:
256,192,164793,1,12,0:0:0:0:
256,192,165124,1,12,0:0:0:0:
256,192,166119,5,4,0:0:0:0:
256,192,166782,1,4,0:0:0:0:
256,192,167445,1,12,0:0:0:0:
256,192,167776,1,8,0:0:0:0:
256,192,168771,1,4,0:0:0:0:
256,192,169434,1,0,0:0:0:0:
256,192,169765,1,8,0:0:0:0:
256,192,170428,1,8,0:0:0:0:
256,192,170760,1,8,0:0:0:0:
256,192,171091,1,4,0:0:0:0:
256,192,172086,1,0,0:0:0:0:
256,192,172417,1,8,0:0:0:0:
256,192,172749,1,8,0:0:0:0:
256,192,173080,1,8,0:0:0:0:
256,192,173743,1,0,0:0:0:0:
256,192,174406,1,8,0:0:0:0:
256,192,174903,1,4,0:0:0:0:
256,192,175401,1,8,0:0:0:0:
256,192,175732,1,8,0:0:0:0:
256,192,176395,1,4,0:0:0:0:
256,192,177390,1,0,0:0:0:0:
256,192,177721,1,8,0:0:0:0:
256,192,178384,1,8,0:0:0:0:
256,192,178716,1,8,0:0:0:0:
256,192,179047,1,0,0:0:0:0:
256,192,179710,1,0,0:0:0:0:
256,192,180373,1,8,0:0:0:0:
256,192,180705,1,0,0:0:0:0:
256,192,181036,1,8,0:0:0:0:
256,192,181367,1,8,0:0:0:0:
256,192,181699,1,4,0:0:0:0:
256,192,182693,1,0,0:0:0:0:
256,192,183025,1,8,0:0:0:0:
256,192,183688,1,8,0:0:0:0:
256,192,184019,1,8,0:0:0:0:
256,192,184351,1,0,0:0:0:0:
256,192,185014,1,8,0:0:0:0:
256,192,185511,1,4,0:0:0:0:
256,192,186008,1,8,0:0:0:0:
256,192,186340,1,8,0:0:0:0:
256,192,187003,5,4,0:0:0:0:
256,192,187997,1,8,0:0:0:0:
256,192,188329,1,0,0:0:0:0:
256,192,188992,1,8,0:0:0:0:
256,192,189655,1,0,0:0:0:0:
256,192,190318,1,0,0:0:0:0:
256,192,190649,1,0,0:0:0:0:
256,192,190981,1,8,0:0:0:0:
256,192,191644,1,8,0:0:0:0:
256,192,192307,1,4,0:0:0:0:
256,192,193301,1,0,0:0:0:0:
256,192,193633,1,8,0:0:0:0:
256,192,194296,1,8,0:0:0:0:
256,192,194959,1,0,0:0:0:0:
256,192,195622,1,8,0:0:0:0:
256,192,196119,1,4,0:0:0:0:
256,192,196616,1,8,0:0:0:0:
256,192,196948,1,8,0:0:0:0:
256,192,197611,1,4,0:0:0:0:
256,192,198605,1,0,0:0:0:0:
256,192,198937,1,8,0:0:0:0:
256,192,199600,1,8,0:0:0:0:
256,192,199931,1,8,0:0:0:0:
256,192,200263,1,0,0:0:0:0:
256,192,200926,1,0,0:0:0:0:
256,192,201588,1,8,0:0:0:0:
256,192,201920,1,8,0:0:0:0:
256,192,202251,1,8,0:0:0:0:
256,192,202914,1,4,0:0:0:0:
256,192,203577,1,0,0:0:0:0:
256,192,203909,1,8,0:0:0:0:
256,192,204240,1,0,0:0:0:0:
256,192,204903,1,8,0:0:0:0:
256,192,205235,1,0,0:0:0:0:
256,192,205566,1,8,0:0:0:0:
256,192,206229,1,0,0:0:0:0:
256,192,206561,1,0,0:0:0:0:
256,192,206892,1,8,0:0:0:0:
256,192,207555,1,8,0:0:0:0:
256,192,207887,1,8,0:0:0:0:
256,192,208218,1,0,0:0:0:0:
