osu file format v14

[General]
AudioFilename: audio.mp3
AudioLeadIn: 0
PreviewTime: 130649
Countdown: 1
SampleSet: Normal
StackLeniency: 0.7
Mode: 1
LetterboxInBreaks: 0
WidescreenStoryboard: 0

[Editor]
Bookmarks: 1368,22583,43798,65014,88881,110097,131312,152528,165787,187003,208218
DistanceSpacing: 1.2
BeatDivisor: 4
GridSize: 32
TimelineZoom: 2.1

[Metadata]
Title:Idola no Circus
TitleUnicode:イドラのサーカス
Artist:Himeringo
ArtistUnicode:ひめりんご
Creator:hikikochan
Version:Dance
Source:
Tags:neru oshiire-p 押入れp kagamine rin
BeatmapID:1537074
BeatmapSetID:728008

[Difficulty]
HPDrainRate:6
CircleSize:2
OverallDifficulty:6
ApproachRate:5
SliderMultiplier:1.4
SliderTickRate:1

[Events]
//Background and Video events
0,0,"BG.jpg",0,100
//Break Periods
//Storyboard Layer 0 (Background)
//Storyboard Layer 1 (Fail)
//Storyboard Layer 2 (Pass)
//Storyboard Layer 3 (Foreground)
//Storyboard Sound Samples

[TimingPoints]
1368,331.491712707182,4,1,0,50,1,0
1368,-133.333333333333,4,1,0,50,0,0
10484,-111.111111111111,4,1,0,80,0,0
10815,-109.89010989011,4,1,0,81,0,0
10981,-108.695652173913,4,1,0,82,0,0
11147,-107.52688172043,4,1,0,83,0,0
11312,-106.382978723404,4,1,0,84,0,0
11478,-105.263157894737,4,1,0,85,0,0
11644,-104.166666666667,4,1,0,86,0,0
11727,-103.092783505155,4,1,0,87,0,0
11809,-102.040816326531,4,1,0,88,0,0
11892,-101.010101010101,4,1,0,89,0,0
11975,-100,4,1,0,90,0,0
22914,-111.111111111111,4,1,0,90,0,0
25235,-100,4,1,0,90,0,0
27887,-111.111111111111,4,1,0,90,0,0
30539,-100,4,1,0,90,0,0
33191,-111.111111111111,4,1,0,90,0,0
35180,-108.695652173913,4,1,0,90,0,0
35345,-106.382978723404,4,1,0,90,0,0
35511,-104.166666666667,4,1,0,90,0,0
35677,-102.040816326531,4,1,0,90,0,0
35843,-100,4,1,0,90,0,0
38495,-111.111111111111,4,1,0,90,0,0
40484,-108.695652173913,4,1,0,90,0,0
40649,-106.382978723404,4,1,0,90,0,0
40815,-104.166666666667,4,1,0,90,0,0
40981,-102.040816326531,4,1,0,90,0,0
41147,-100,4,1,0,90,0,0
62362,-83.3333333333333,4,1,0,90,0,0
65014,-100,4,1,0,100,0,1
86229,-100,4,1,0,90,0,0
99821,-111.111111111111,4,1,0,90,0,0
102141,-100,4,1,0,90,0,0
104793,-111.111111111111,4,1,0,90,0,0
106782,-108.695652173913,4,1,0,90,0,0
106948,-106.382978723404,4,1,0,90,0,0
107113,-104.166666666667,4,1,0,90,0,0
107279,-102.040816326531,4,1,0,90,0,0
107445,-100,4,1,0,90,0,0
128660,-83.3333333333333,4,1,0,90,0,0
131312,-100,4,1,0,100,0,1
152528,-100,4,1,0,90,0,0
163135,-83.3333333333333,4,1,0,90,0,0
165787,-100,4,1,0,90,0,0
166119,-83.3333333333333,4,1,0,90,0,0
166450,-100,4,1,0,90,0,0
166782,-83.3333333333333,4,1,0,90,0,0
167113,-100,4,1,0,90,0,0
167445,-83.3333333333333,4,1,0,90,0,0
167611,-86.2068965517241,4,1,0,90,0,0
167776,-89.2857142857143,4,1,0,90,0,0
168025,-92.5925925925926,4,1,0,90,0,0
168274,-96.1538461538461,4,1,0,90,0,0
168439,-100,4,1,0,90,0,0
168771,-100,4,1,0,100,0,1
170511,-99.009900990099,4,1,0,100,0,1
170594,-98.0392156862745,4,1,0,100,0,1
170677,-97.0873786407767,4,1,0,100,0,1
170760,-96.1538461538461,4,1,0,100,0,1
170926,-95.2380952380952,4,1,0,100,0,1
171091,-94.3396226415094,4,1,0,100,0,1
187003,-94.3396226415094,4,1,0,90,0,0

[HitObjects]
256,192,1368,5,0,0:0:0:0:
256,192,1699,1,8,0:0:0:0:
256,192,1865,1,8,0:0:0:0:
256,192,2030,1,0,0:0:0:0:
256,192,2196,1,0,0:0:0:0:
256,192,2362,1,8,0:0:0:0:
256,192,2528,1,0,0:0:0:0:
256,192,2859,1,0,0:0:0:0:
256,192,3025,1,8,0:0:0:0:
256,192,3356,1,0,0:0:0:0:
256,192,3522,1,0,0:0:0:0:
256,192,3688,1,8,0:0:0:0:
256,192,3854,1,8,0:0:0:0:
256,192,4019,1,0,0:0:0:0:
256,192,4351,1,8,0:0:0:0:
256,192,4517,1,8,0:0:0:0:
256,192,4682,1,0,0:0:0:0:
256,192,4848,1,0,0:0:0:0:
256,192,5014,1,8,0:0:0:0:
256,192,5180,1,0,0:0:0:0:
256,192,5511,1,8,0:0:0:0:
256,192,5677,1,8,0:0:0:0:
256,192,5843,1,0,0:0:0:0:
256,192,6008,1,8,0:0:0:0:
256,192,6174,1,0,0:0:0:0:
256,192,6340,1,8,0:0:0:0:
256,192,6671,1,0,0:0:0:0:
256,192,7003,1,8,0:0:0:0:
256,192,7169,1,8,0:0:0:0:
256,192,7334,1,0,0:0:0:0:
256,192,7500,1,0,0:0:0:0:
256,192,7666,1,8,0:0:0:0:
256,192,7832,1,0,0:0:0:0:
256,192,8163,1,0,0:0:0:0:
256,192,8329,1,8,0:0:0:0:
256,192,8660,1,0,0:0:0:0:
256,192,8826,1,0,0:0:0:0:
256,192,8992,1,8,0:0:0:0:
256,192,9158,1,8,0:0:0:0:
256,192,9323,1,0,0:0:0:0:
256,192,9655,1,8,0:0:0:0:
256,192,9821,1,8,0:0:0:0:
256,192,9986,1,0,0:0:0:0:
256,192,10152,1,0,0:0:0:0:
256,192,10318,1,8,0:0:0:0:
256,192,10484,1,4,0:0:0:0:
256,192,10649,1,4,0:0:0:0:
256,192,10815,1,8,0:0:0:0:
256,192,10981,1,0,0:0:0:0:
256,192,11147,1,0,0:0:0:0:
256,192,11312,1,8,0:0:0:0:
256,192,11478,1,8,0:0:0:0:
256,192,11644,1,8,0:0:0:0:
256,192,11727,1,8,0:0:0:0:
256,192,11809,1,8,0:0:0:0:
256,192,11892,1,8,0:0:0:0:
256,192,11975,1,0,0:0:0:0:
256,192,12307,1,8,0:0:0:0:
256,192,12472,1,0,0:0:0:0:
256,192,12638,1,8,0:0:0:0:
256,192,12721,1,8,0:0:0:0:
256,192,12804,1,0,0:0:0:0:
256,192,12970,1,8,0:0:0:0:
256,192,13135,1,8,0:0:0:0:
256,192,13301,1,0,0:0:0:0:
256,192,13467,1,8,0:0:0:0:
256,192,13550,1,0,0:0:0:0:
256,192,13633,1,8,0:0:0:0:
256,192,13798,1,0,0:0:0:0:
256,192,13964,1,8,0:0:0:0:
256,192,14047,1,8,0:0:0:0:
256,192,14130,1,0,0:0:0:0:
256,192,14213,1,0,0:0:0:0:
256,192,14296,1,8,0:0:0:0:
256,192,14461,1,8,0:0:0:0:
256,192,14627,1,0,0:0:0:0:
256,192,14793,1,0,0:0:0:0:
256,192,14959,1,8,0:0:0:0:
256,192,15124,1,0,0:0:0:0:
256,192,15290,1,8,0:0:0:0:
256,192,15373,1,8,0:0:0:0:
256,192,15456,1,0,0:0:0:0:
256,192,15622,1,8,0:0:0:0:
256,192,15787,1,8,0:0:0:0:
256,192,15953,1,0,0:0:0:0:
256,192,16036,1,0,0:0:0:0:
256,192,16119,1,8,0:0:0:0:
256,192,16202,1,0,0:0:0:0:
256,192,16285,1,8,0:0:0:0:
256,192,16450,1,0,0:0:0:0:
256,192,16616,1,8,0:0:0:0:
256,192,16782,1,0,0:0:0:0:
256,192,16948,1,8,0:0:0:0:
256,192,17279,1,0,0:0:0:0:
256,192,17445,1,0,0:0:0:0:
256,192,17528,1,0,0:0:0:0:
256,192,17611,1,8,0:0:0:0:
256,192,17776,1,0,0:0:0:0:
256,192,17942,1,8,0:0:0:0:
256,192,18025,1,8,0:0:0:0:
256,192,18108,1,0,0:0:0:0:
256,192,18274,1,8,0:0:0:0:
256,192,18439,1,8,0:0:0:0:
256,192,18605,1,0,0:0:0:0:
256,192,18771,1,8,0:0:0:0:
256,192,18854,1,0,0:0:0:0:
256,192,18937,1,8,0:0:0:0:
256,192,19102,1,0,0:0:0:0:
256,192,19268,1,8,0:0:0:0:
256,192,19351,1,8,0:0:0:0:
256,192,19434,1,0,0:0:0:0:
256,192,19517,1,0,0:0:0:0:
256,192,19600,1,8,0:0:0:0:
256,192,19765,1,8,0:0:0:0:
256,192,19931,1,0,0:0:0:0:
256,192,20097,1,8,0:0:0:0:
256,192,20180,1,8,0:0:0:0:
256,192,20263,1,8,0:0:0:0:
256,192,20428,1,0,0:0:0:0:
256,192,20594,1,8,0:0:0:0:
256,192,20677,1,8,0:0:0:0:
256,192,20760,1,0,0:0:0:0:
256,192,20926,1,8,0:0:0:0:
256,192,21091,1,8,0:0:0:0:
256,192,21423,1,0,0:0:0:0:
256,192,21588,1,8,0:0:0:0:
256,192,21754,1,0,0:0:0:0:
256,192,21920,1,8,0:0:0:0:
256,192,22086,1,0,0:0:0:0:
256,192,22169,1,0,0:0:0:0:
256,192,22251,1,8,0:0:0:0:
256,192,22417,1,8,0:0:0:0:
256,192,22583,5,0,0:0:0:0:
256,192,22914,1,8,0:0:0:0:
256,192,23080,1,8,0:0:0:0:
256,192,23246,1,0,0:0:0:0:
256,192,23412,1,0,0:0:0:0:
256,192,23577,1,8,0:0:0:0:
256,192,23743,1,0,0:0:0:0:
256,192,24075,1,0,0:0:0:0:
256,192,24240,1,8,0:0:0:0:
256,192,24406,1,8,0:0:0:0:
256,192,24572,1,0,0:0:0:0:
256,192,24738,1,0,0:0:0:0:
256,192,24903,1,8,0:0:0:0:
256,192,25235,1,4,0:0:0:0:
256,192,25401,1,0,0:0:0:0:
256,192,25566,1,8,0:0:0:0:
256,192,25732,1,0,0:0:0:0:
256,192,25815,1,8,0:0:0:0:
256,192,25898,1,0,0:0:0:0:
256,192,26064,1,0,0:0:0:0:
256,192,26229,1,8,0:0:0:0:
256,192,26395,1,8,0:0:0:0:
256,192,26478,1,8,0:0:0:0:
256,192,26561,1,0,0:0:0:0:
256,192,26727,1,0,0:0:0:0:
256,192,26892,1,8,0:0:0:0:
256,192,27058,1,8,0:0:0:0:
256,192,27141,1,8,0:0:0:0:
256,192,27224,1,0,0:0:0:0:
256,192,27307,1,0,0:0:0:0:
256,192,27390,1,0,0:0:0:0:
256,192,27555,1,8,0:0:0:0:
256,192,27887,1,0,0:0:0:0:
256,192,28053,1,0,0:0:0:0:
256,192,28218,1,8,0:0:0:0:
256,192,28384,1,8,0:0:0:0:
256,192,28550,1,0,0:0:0:0:
256,192,28716,1,0,0:0:0:0:
256,192,28881,1,8,0:0:0:0:
256,192,29047,1,0,0:0:0:0:
256,192,29379,1,0,0:0:0:0:
256,192,29544,1,8,0:0:0:0:
256,192,29710,1,8,0:0:0:0:
256,192,29876,1,0,0:0:0:0:
256,192,30042,1,0,0:0:0:0:
256,192,30207,1,8,0:0:0:0:
256,192,30539,1,4,0:0:0:0:
256,192,30705,1,8,0:0:0:0:
256,192,30870,1,8,0:0:0:0:
256,192,31036,1,0,0:0:0:0:
256,192,31119,1,8,0:0:0:0:
256,192,31202,1,0,0:0:0:0:
256,192,31367,1,0,0:0:0:0:
256,192,31533,1,8,0:0:0:0:
256,192,31699,1,8,0:0:0:0:
256,192,31782,1,8,0:0:0:0:
256,192,31865,1,0,0:0:0:0:
256,192,32030,1,0,0:0:0:0:
256,192,32196,1,8,0:0:0:0:
256,192,32279,1,8,0:0:0:0:
256,192,32362,1,0,0:0:0:0:
256,192,32445,1,0,0:0:0:0:
256,192,32528,1,8,0:0:0:0:
256,192,32693,1,0,0:0:0:0:
256,192,32859,1,8,0:0:0:0:
256,192,33191,1,0,0:0:0:0:
256,192,33356,1,0,0:0:0:0:
256,192,33522,1,8,0:0:0:0:
256,192,33688,1,0,0:0:0:0:
256,192,34019,1,0,0:0:0:0:
256,192,34185,1,8,0:0:0:0:
256,192,34517,1,0,0:0:0:0:
256,192,34682,1,0,0:0:0:0:
256,192,34848,1,8,0:0:0:0:
256,192,35014,1,0,0:0:0:0:
256,192,35180,1,8,0:0:0:0:
256,192,35345,1,0,0:0:0:0:
256,192,35511,1,8,0:0:0:0:
256,192,35677,1,8,0:0:0:0:
256,192,35843,1,4,0:0:0:0:
256,192,36008,1,0,0:0:0:0:
256,192,36174,1,8,0:0:0:0:
256,192,36340,1,8,0:0:0:0:
256,192,36423,1,8,0:0:0:0:
256,192,36506,1,0,0:0:0:0:
256,192,36671,1,0,0:0:0:0:
256,192,36837,1,8,0:0:0:0:
256,192,36920,1,8,0:0:0:0:
256,192,37003,1,0,0:0:0:0:
256,192,37086,1,0,0:0:0:0:
256,192,37169,1,8,0:0:0:0:
256,192,37334,1,0,0:0:0:0:
256,192,37500,1,8,0:0:0:0:
256,192,37666,1,0,0:0:0:0:
256,192,37749,1,8,0:0:0:0:
256,192,37832,1,0,0:0:0:0:
256,192,37997,1,0,0:0:0:0:
256,192,38163,1,8,0:0:0:0:
256,192,38495,1,0,0:0:0:0:
256,192,38660,1,0,0:0:0:0:
256,192,38826,1,8,0:0:0:0:
256,192,38992,1,0,0:0:0:0:
256,192,39323,1,0,0:0:0:0:
256,192,39489,1,8,0:0:0:0:
256,192,39655,1,8,0:0:0:0:
256,192,39821,1,0,0:0:0:0:
256,192,39986,1,0,0:0:0:0:
256,192,40152,1,8,0:0:0:0:
256,192,40318,1,0,0:0:0:0:
256,192,40484,1,8,0:0:0:0:
256,192,40649,1,8,0:0:0:0:
256,192,40815,1,0,0:0:0:0:
256,192,40981,1,8,0:0:0:0:
256,192,41147,1,4,0:0:0:0:
256,192,41312,1,0,0:0:0:0:
256,192,41478,1,8,0:0:0:0:
256,192,41644,1,0,0:0:0:0:
256,192,41727,1,0,0:0:0:0:
256,192,41809,1,0,0:0:0:0:
256,192,41975,1,0,0:0:0:0:
256,192,42141,1,8,0:0:0:0:
256,192,42307,1,0,0:0:0:0:
256,192,42390,1,0,0:0:0:0:
256,192,42472,1,8,0:0:0:0:
256,192,42555,1,8,0:0:0:0:
256,192,42638,1,0,0:0:0:0:
256,192,42804,1,8,0:0:0:0:
256,192,42970,1,8,0:0:0:0:
256,192,43053,1,8,0:0:0:0:
256,192,43135,1,0,0:0:0:0:
256,192,43301,1,0,0:0:0:0:
256,192,43467,1,8,0:0:0:0:
256,192,43550,1,8,0:0:0:0:
256,192,43633,1,8,0:0:0:0:
256,192,43798,5,4,0:0:0:0:
256,192,43964,1,0,0:0:0:0:
256,192,44047,1,0,0:0:0:0:
256,192,44130,1,8,0:0:0:0:
256,192,44296,1,8,0:0:0:0:
256,192,44461,1,0,0:0:0:0:
256,192,44627,1,8,0:0:0:0:
256,192,44793,1,0,0:0:0:0:
256,192,44959,1,0,0:0:0:0:
256,192,45124,1,8,0:0:0:0:
256,192,45290,1,8,0:0:0:0:
256,192,45373,1,8,0:0:0:0:
256,192,45456,1,0,0:0:0:0:
256,192,45622,1,0,0:0:0:0:
256,192,45787,1,8,0:0:0:0:
256,192,45953,1,0,0:0:0:0:
256,192,46119,1,8,0:0:0:0:
256,192,46285,1,8,0:0:0:0:
256,192,46450,1,4,0:0:0:0:
256,192,46616,1,0,0:0:0:0:
256,192,46782,1,8,0:0:0:0:
256,192,46948,1,4,0:0:0:0:
256,192,47279,1,0,0:0:0:0:
256,192,47445,1,8,0:0:0:0:
256,192,47611,1,8,0:0:0:0:
256,192,47776,1,4,0:0:0:0:
256,192,47942,1,8,0:0:0:0:
256,192,48108,1,8,0:0:0:0:
256,192,48274,1,4,0:0:0:0:
256,192,48605,1,0,0:0:0:0:
256,192,48771,1,8,0:0:0:0:
256,192,48937,1,0,0:0:0:0:
256,192,49102,1,4,0:0:0:0:
256,192,49268,1,8,0:0:0:0:
256,192,49351,1,8,0:0:0:0:
256,192,49434,1,0,0:0:0:0:
256,192,49600,1,0,0:0:0:0:
256,192,49765,1,8,0:0:0:0:
256,192,49931,1,0,0:0:0:0:
256,192,50097,1,8,0:0:0:0:
256,192,50263,1,8,0:0:0:0:
256,192,50428,1,0,0:0:0:0:
256,192,50594,1,0,0:0:0:0:
256,192,50677,1,0,0:0:0:0:
256,192,50760,1,8,0:0:0:0:
256,192,50926,1,0,0:0:0:0:
256,192,51091,1,8,0:0:0:0:
256,192,51174,1,8,0:0:0:0:
256,192,51257,1,0,0:0:0:0:
256,192,51340,1,0,0:0:0:0:
256,192,51423,1,8,0:0:0:0:
256,192,51588,1,8,0:0:0:0:
256,192,51754,1,4,0:0:0:0:
256,192,51920,1,0,0:0:0:0:
256,192,52086,1,8,0:0:0:0:
256,192,52251,1,4,0:0:0:0:
256,192,52583,1,8,0:0:0:0:
256,192,52749,1,0,0:0:0:0:
256,192,52914,1,8,0:0:0:0:
256,192,53080,1,4,0:0:0:0:
256,192,53246,1,8,0:0:0:0:
256,192,53412,1,8,0:0:0:0:
256,192,53577,1,0,0:0:0:0:
256,192,53660,1,8,0:0:0:0:
256,192,53743,1,0,0:0:0:0:
256,192,53909,1,0,0:0:0:0:
256,192,54075,1,8,0:0:0:0:
256,192,54158,1,8,0:0:0:0:
256,192,54240,1,8,0:0:0:0:
256,192,54323,1,8,0:0:0:0:
256,192,54406,1,0,0:0:0:0:
256,192,54738,1,8,0:0:0:0:
256,192,54903,1,8,0:0:0:0:
256,192,55069,1,0,0:0:0:0:
256,192,55152,1,0,0:0:0:0:
256,192,55235,1,0,0:0:0:0:
256,192,55401,1,8,0:0:0:0:
256,192,55566,1,8,0:0:0:0:
256,192,55649,1,8,0:0:0:0:
256,192,55732,1,0,0:0:0:0:
256,192,55815,1,0,0:0:0:0:
256,192,55898,1,0,0:0:0:0:
256,192,56064,1,8,0:0:0:0:
256,192,56229,1,0,0:0:0:0:
256,192,56312,1,0,0:0:0:0:
256,192,56395,1,8,0:0:0:0:
256,192,56561,1,0,0:0:0:0:
256,192,56727,1,8,0:0:0:0:
256,192,56892,1,0,0:0:0:0:
256,192,56975,1,8,0:0:0:0:
256,192,57058,1,0,0:0:0:0:
256,192,57224,1,0,0:0:0:0:
256,192,57390,1,8,0:0:0:0:
256,192,57555,1,0,0:0:0:0:
256,192,57638,1,0,0:0:0:0:
256,192,57721,1,8,0:0:0:0:
256,192,57804,1,8,0:0:0:0:
256,192,57887,1,0,0:0:0:0:
256,192,58053,1,8,0:0:0:0:
256,192,58218,1,8,0:0:0:0:
256,192,58301,1,8,0:0:0:0:
256,192,58384,1,0,0:0:0:0:
256,192,58550,1,0,0:0:0:0:
256,192,58716,1,8,0:0:0:0:
256,192,58881,1,0,0:0:0:0:
256,192,58964,1,0,0:0:0:0:
256,192,59047,1,8,0:0:0:0:
256,192,59213,1,0,0:0:0:0:
256,192,59379,1,8,0:0:0:0:
256,192,59544,1,8,0:0:0:0:
256,192,59710,1,4,0:0:0:0:
256,192,60042,1,8,0:0:0:0:
256,192,60207,1,0,0:0:0:0:
256,192,60290,1,0,0:0:0:0:
256,192,60373,1,0,0:0:0:0:
256,192,60539,1,0,0:0:0:0:
256,192,60705,1,8,0:0:0:0:
256,192,60870,1,0,0:0:0:0:
256,192,60953,1,0,0:0:0:0:
256,192,61036,1,8,0:0:0:0:
256,192,61202,1,0,0:0:0:0:
256,192,61367,1,8,0:0:0:0:
256,192,61533,1,8,0:0:0:0:
256,192,61616,1,8,0:0:0:0:
256,192,61699,1,0,0:0:0:0:
256,192,61782,1,0,0:0:0:0:
256,192,61865,1,0,0:0:0:0:
256,192,62030,1,8,0:0:0:0:
256,192,62362,1,4,0:0:0:0:
256,192,62528,1,4,0:0:0:0:
256,192,62693,1,4,0:0:0:0:
256,192,63025,1,4,0:0:0:0:
256,192,63356,1,4,0:0:0:0:
256,192,63522,1,12,0:0:0:0:
256,192,63854,1,12,0:0:0:0:
256,192,64019,1,12,0:0:0:0:
256,192,64185,1,12,0:0:0:0:
256,192,64351,1,12,0:0:0:0:
256,192,65014,5,4,0:0:0:0:
256,192,65180,1,0,0:0:0:0:
256,192,65345,1,8,0:0:0:0:
256,192,65511,1,0,0:0:0:0:
256,192,65594,1,0,0:0:0:0:
256,192,65677,1,8,0:0:0:0:
256,192,65843,1,0,0:0:0:0:
256,192,66008,1,8,0:0:0:0:
256,192,66174,1,8,0:0:0:0:
256,192,66257,1,8,0:0:0:0:
256,192,66340,1,0,0:0:0:0:
256,192,66506,1,0,0:0:0:0:
256,192,66671,1,8,0:0:0:0:
256,192,66837,1,0,0:0:0:0:
256,192,66920,1,0,0:0:0:0:
256,192,67003,1,8,0:0:0:0:
256,192,67086,1,8,0:0:0:0:
256,192,67169,1,0,0:0:0:0:
256,192,67334,1,8,0:0:0:0:
256,192,67500,1,8,0:0:0:0:
256,192,67666,1,0,0:0:0:0:
256,192,67832,1,0,0:0:0:0:
256,192,67997,1,8,0:0:0:0:
256,192,68163,1,8,0:0:0:0:
256,192,68246,1,8,0:0:0:0:
256,192,68329,1,0,0:0:0:0:
256,192,68495,1,0,0:0:0:0:
256,192,68660,1,8,0:0:0:0:
256,192,68826,1,0,0:0:0:0:
256,192,68909,1,0,0:0:0:0:
256,192,68992,1,8,0:0:0:0:
256,192,69158,1,0,0:0:0:0:
256,192,69323,1,8,0:0:0:0:
256,192,69489,1,8,0:0:0:0:
256,192,69572,1,8,0:0:0:0:
256,192,69655,1,0,0:0:0:0:
256,192,69738,1,0,0:0:0:0:
256,192,69821,1,0,0:0:0:0:
256,192,69986,1,8,0:0:0:0:
256,192,70152,1,8,0:0:0:0:
256,192,70318,1,0,0:0:0:0:
256,192,70649,1,8,0:0:0:0:
256,192,70815,1,8,0:0:0:0:
256,192,70981,1,0,0:0:0:0:
256,192,71064,1,0,0:0:0:0:
256,192,71147,1,0,0:0:0:0:
256,192,71312,1,8,0:0:0:0:
256,192,71478,1,0,0:0:0:0:
256,192,71644,1,8,0:0:0:0:
256,192,71809,1,0,0:0:0:0:
256,192,71892,1,0,0:0:0:0:
256,192,71975,1,8,0:0:0:0:
256,192,72141,1,8,0:0:0:0:
256,192,72307,1,0,0:0:0:0:
256,192,72472,1,0,0:0:0:0:
256,192,72638,1,8,0:0:0:0:
256,192,72804,1,8,0:0:0:0:
256,192,72970,1,0,0:0:0:0:
256,192,73053,1,0,0:0:0:0:
256,192,73135,1,0,0:0:0:0:
256,192,73301,1,8,0:0:0:0:
256,192,73467,1,0,0:0:0:0:
256,192,73633,1,8,0:0:0:0:
256,192,73716,1,8,0:0:0:0:
256,192,73798,1,0,0:0:0:0:
256,192,73881,1,0,0:0:0:0:
256,192,73964,1,8,0:0:0:0:
256,192,74130,1,4,0:0:0:0:
256,192,74461,1,8,0:0:0:0:
256,192,74627,1,8,0:0:0:0:
256,192,74793,1,0,0:0:0:0:
256,192,74876,1,0,0:0:0:0:
256,192,74959,1,8,0:0:0:0:
256,192,75042,1,8,0:0:0:0:
256,192,75124,1,0,0:0:0:0:
256,192,75290,1,8,0:0:0:0:
256,192,75456,1,8,0:0:0:0:
256,192,75622,1,4,0:0:0:0:
256,192,75787,1,0,0:0:0:0:
256,192,75953,1,8,0:0:0:0:
256,192,76119,1,0,0:0:0:0:
256,192,76202,1,0,0:0:0:0:
256,192,76285,1,8,0:0:0:0:
256,192,76450,1,0,0:0:0:0:
256,192,76616,1,8,0:0:0:0:
256,192,76699,1,8,0:0:0:0:
256,192,76782,1,0,0:0:0:0:
256,192,76865,1,0,0:0:0:0:
256,192,76948,1,8,0:0:0:0:
256,192,77113,1,0,0:0:0:0:
256,192,77279,1,8,0:0:0:0:
256,192,77445,1,8,0:0:0:0:
256,192,77528,1,8,0:0:0:0:
256,192,77611,1,0,0:0:0:0:
256,192,77776,1,0,0:0:0:0:
256,192,77942,1,8,0:0:0:0:
256,192,78108,1,8,0:0:0:0:
256,192,78274,1,0,0:0:0:0:
256,192,78356,1,0,0:0:0:0:
256,192,78439,1,0,0:0:0:0:
256,192,78605,1,8,0:0:0:0:
256,192,78771,1,0,0:0:0:0:
256,192,78854,1,0,0:0:0:0:
256,192,78937,1,8,0:0:0:0:
256,192,79102,1,0,0:0:0:0:
256,192,79268,1,8,0:0:0:0:
256,192,79434,1,8,0:0:0:0:
256,192,79517,1,8,0:0:0:0:
256,192,79600,1,0,0:0:0:0:
256,192,79682,1,0,0:0:0:0:
256,192,79765,1,0,0:0:0:0:
256,192,79931,1,8,0:0:0:0:
256,192,80097,1,0,0:0:0:0:
256,192,80180,1,8,0:0:0:0:
256,192,80263,1,0,0:0:0:0:
256,192,80428,1,0,0:0:0:0:
256,192,80594,1,8,0:0:0:0:
256,192,80760,1,8,0:0:0:0:
256,192,80926,1,0,0:0:0:0:
256,192,81257,1,8,0:0:0:0:
256,192,81423,1,0,0:0:0:0:
256,192,81506,1,0,0:0:0:0:
256,192,81588,1,8,0:0:0:0:
256,192,81754,1,0,0:0:0:0:
256,192,81920,1,8,0:0:0:0:
256,192,82086,1,8,0:0:0:0:
256,192,82169,1,8,0:0:0:0:
256,192,82251,1,0,0:0:0:0:
256,192,82334,1,0,0:0:0:0:
256,192,82417,1,0,0:0:0:0:
256,192,82583,1,8,0:0:0:0:
256,192,82749,1,0,0:0:0:0:
256,192,82914,1,8,0:0:0:0:
256,192,82997,1,8,0:0:0:0:
256,192,83080,1,0,0:0:0:0:
256,192,83246,1,8,0:0:0:0:
256,192,83412,1,8,0:0:0:0:
256,192,83577,1,0,0:0:0:0:
256,192,83660,1,0,0:0:0:0:
256,192,83743,1,0,0:0:0:0:
256,192,83909,1,8,0:0:0:0:
256,192,84075,1,0,0:0:0:0:
256,192,84158,1,8,0:0:0:0:
256,192,84240,1,0,0:0:0:0:
256,192,84406,1,0,0:0:0:0:
256,192,84572,1,8,0:0:0:0:
256,192,84738,1,4,0:0:0:0:
256,192,85069,1,0,0:0:0:0:
256,192,85235,1,8,0:0:0:0:
256,192,85401,1,0,0:0:0:0:
256,192,85566,1,8,0:0:0:0:
256,192,85649,1,8,0:0:0:0:
256,192,85732,1,0,0:0:0:0:
256,192,85815,1,0,0:0:0:0:
256,192,85898,1,8,0:0:0:0:
256,192,86064,1,8,0:0:0:0:
256,192,86229,1,4,0:0:0:0:
256,192,86561,1,8,0:0:0:0:
256,192,86727,1,0,0:0:0:0:
256,192,86892,1,8,0:0:0:0:
256,192,86975,1,0,0:0:0:0:
256,192,87058,1,0,0:0:0:0:
256,192,87141,1,0,0:0:0:0:
256,192,87224,1,8,0:0:0:0:
256,192,87390,1,8,0:0:0:0:
256,192,87555,1,0,0:0:0:0:
256,192,87721,1,0,0:0:0:0:
256,192,87887,1,0,0:0:0:0:
256,192,88053,1,0,0:0:0:0:
256,192,88218,1,0,0:0:0:0:
256,192,88550,1,8,0:0:0:0:
256,192,88881,5,4,0:0:0:0:
256,192,89047,1,0,0:0:0:0:
256,192,89130,1,0,0:0:0:0:
256,192,89213,1,8,0:0:0:0:
256,192,89379,1,0,0:0:0:0:
256,192,89544,1,8,0:0:0:0:
256,192,89627,1,8,0:0:0:0:
256,192,89710,1,0,0:0:0:0:
256,192,89876,1,8,0:0:0:0:
256,192,90042,1,8,0:0:0:0:
256,192,90207,1,0,0:0:0:0:
256,192,90373,1,8,0:0:0:0:
256,192,90456,1,8,0:0:0:0:
256,192,90539,1,8,0:0:0:0:
256,192,90705,1,0,0:0:0:0:
256,192,90870,1,8,0:0:0:0:
256,192,90953,1,8,0:0:0:0:
256,192,91036,1,0,0:0:0:0:
256,192,91119,1,0,0:0:0:0:
256,192,91202,1,8,0:0:0:0:
256,192,91367,1,8,0:0:0:0:
256,192,91533,1,0,0:0:0:0:
256,192,91699,1,0,0:0:0:0:
256,192,91782,1,0,0:0:0:0:
256,192,91865,1,8,0:0:0:0:
256,192,92030,1,0,0:0:0:0:
256,192,92196,1,8,0:0:0:0:
256,192,92279,1,0,0:0:0:0:
256,192,92362,1,0,0:0:0:0:
256,192,92445,1,0,0:0:0:0:
256,192,92528,1,8,0:0:0:0:
256,192,92693,1,8,0:0:0:0:
256,192,92859,1,0,0:0:0:0:
256,192,93025,1,8,0:0:0:0:
256,192,93108,1,0,0:0:0:0:
256,192,93191,1,8,0:0:0:0:
256,192,93356,1,0,0:0:0:0:
256,192,93522,1,8,0:0:0:0:
256,192,93688,1,0,0:0:0:0:
256,192,93854,1,8,0:0:0:0:
256,192,94185,1,0,0:0:0:0:
256,192,94351,1,0,0:0:0:0:
256,192,94434,1,0,0:0:0:0:
256,192,94517,1,8,0:0:0:0:
256,192,94682,1,0,0:0:0:0:
256,192,94848,1,8,0:0:0:0:
256,192,94931,1,8,0:0:0:0:
256,192,95014,1,0,0:0:0:0:
256,192,95097,1,0,0:0:0:0:
256,192,95180,1,8,0:0:0:0:
256,192,95345,1,8,0:0:0:0:
256,192,95511,1,0,0:0:0:0:
256,192,95677,1,8,0:0:0:0:
256,192,95760,1,0,0:0:0:0:
256,192,95843,1,8,0:0:0:0:
256,192,96008,1,0,0:0:0:0:
256,192,96174,1,8,0:0:0:0:
256,192,96257,1,8,0:0:0:0:
256,192,96340,1,0,0:0:0:0:
256,192,96506,1,8,0:0:0:0:
256,192,96671,1,8,0:0:0:0:
256,192,96837,1,0,0:0:0:0:
256,192,97003,1,8,0:0:0:0:
256,192,97086,1,8,0:0:0:0:
256,192,97169,1,8,0:0:0:0:
256,192,97334,1,0,0:0:0:0:
256,192,97500,1,8,0:0:0:0:
256,192,97583,1,8,0:0:0:0:
256,192,97666,1,0,0:0:0:0:
256,192,97749,1,0,0:0:0:0:
256,192,97832,1,8,0:0:0:0:
256,192,97997,1,8,0:0:0:0:
256,192,98329,1,0,0:0:0:0:
256,192,98495,1,8,0:0:0:0:
256,192,98577,1,8,0:0:0:0:
256,192,98660,1,0,0:0:0:0:
256,192,98826,1,8,0:0:0:0:
256,192,98992,1,0,0:0:0:0:
256,192,99075,1,0,0:0:0:0:
256,192,99158,1,8,0:0:0:0:
256,192,99323,1,8,0:0:0:0:
256,192,99489,1,0,0:0:0:0:
256,192,99821,1,8,0:0:0:0:
256,192,99986,1,0,0:0:0:0:
256,192,100152,1,8,0:0:0:0:
256,192,100318,1,8,0:0:0:0:
256,192,100484,1,0,0:0:0:0:
256,192,100649,1,8,0:0:0:0:
256,192,100981,1,0,0:0:0:0:
256,192,101147,1,8,0:0:0:0:
256,192,101312,1,8,0:0:0:0:
256,192,101478,1,0,0:0:0:0:
256,192,101644,1,0,0:0:0:0:
256,192,101809,1,8,0:0:0:0:
256,192,102141,1,4,0:0:0:0:
256,192,102307,1,0,0:0:0:0:
256,192,102472,1,8,0:0:0:0:
256,192,102638,1,0,0:0:0:0:
256,192,102721,1,8,0:0:0:0:
256,192,102804,1,0,0:0:0:0:
256,192,102970,1,0,0:0:0:0:
256,192,103135,1,8,0:0:0:0:
256,192,103301,1,8,0:0:0:0:
256,192,103384,1,8,0:0:0:0:
256,192,103467,1,0,0:0:0:0:
256,192,103550,1,0,0:0:0:0:
256,192,103633,1,0,0:0:0:0:
256,192,103798,1,8,0:0:0:0:
256,192,103964,1,8,0:0:0:0:
256,192,104047,1,8,0:0:0:0:
256,192,104130,1,0,0:0:0:0:
256,192,104296,1,0,0:0:0:0:
256,192,104461,1,8,0:0:0:0:
256,192,104793,1,0,0:0:0:0:
256,192,104959,1,0,0:0:0:0:
256,192,105124,1,8,0:0:0:0:
256,192,105290,1,0,0:0:0:0:
256,192,105456,1,8,0:0:0:0:
256,192,105622,1,8,0:0:0:0:
256,192,105787,1,0,0:0:0:0:
256,192,105953,1,8,0:0:0:0:
256,192,106285,1,8,0:0:0:0:
256,192,106450,1,8,0:0:0:0:
256,192,106616,1,0,0:0:0:0:
256,192,106782,1,8,0:0:0:0:
256,192,106948,1,0,0:0:0:0:
256,192,107113,1,8,0:0:0:0:
256,192,107279,1,8,0:0:0:0:
256,192,107445,1,4,0:0:0:0:
256,192,107611,1,0,0:0:0:0:
256,192,107776,1,8,0:0:0:0:
256,192,107942,1,0,0:0:0:0:
256,192,108025,1,0,0:0:0:0:
256,192,108108,1,8,0:0:0:0:
256,192,108191,1,8,0:0:0:0:
256,192,108274,1,0,0:0:0:0:
256,192,108439,1,8,0:0:0:0:
256,192,108605,1,8,0:0:0:0:
256,192,108688,1,0,0:0:0:0:
256,192,108771,1,8,0:0:0:0:
256,192,108937,1,0,0:0:0:0:
256,192,109102,1,8,0:0:0:0:
256,192,109268,1,8,0:0:0:0:
256,192,109434,1,0,0:0:0:0:
256,192,109765,1,8,0:0:0:0:
256,192,110097,5,4,0:0:0:0:
256,192,110263,1,0,0:0:0:0:
256,192,110345,1,0,0:0:0:0:
256,192,110428,1,8,0:0:0:0:
256,192,110594,1,0,0:0:0:0:
256,192,110760,1,8,0:0:0:0:
256,192,110926,1,8,0:0:0:0:
256,192,111091,1,0,0:0:0:0:
256,192,111257,1,0,0:0:0:0:
256,192,111423,1,8,0:0:0:0:
256,192,111506,1,8,0:0:0:0:
256,192,111588,1,0,0:0:0:0:
256,192,111671,1,0,0:0:0:0:
256,192,111754,1,8,0:0:0:0:
256,192,111920,1,8,0:0:0:0:
256,192,112086,1,0,0:0:0:0:
256,192,112251,1,0,0:0:0:0:
256,192,112334,1,0,0:0:0:0:
256,192,112417,1,8,0:0:0:0:
256,192,112583,1,8,0:0:0:0:
256,192,112749,1,4,0:0:0:0:
256,192,112914,1,0,0:0:0:0:
256,192,113080,1,8,0:0:0:0:
256,192,113246,1,4,0:0:0:0:
256,192,113577,1,0,0:0:0:0:
256,192,113743,1,8,0:0:0:0:
256,192,113909,1,8,0:0:0:0:
256,192,114075,1,4,0:0:0:0:
256,192,114240,1,8,0:0:0:0:
256,192,114406,1,8,0:0:0:0:
256,192,114572,1,4,0:0:0:0:
256,192,114903,1,0,0:0:0:0:
256,192,115069,1,8,0:0:0:0:
256,192,115235,1,0,0:0:0:0:
256,192,115401,1,4,0:0:0:0:
256,192,115566,1,8,0:0:0:0:
256,192,115649,1,8,0:0:0:0:
256,192,115732,1,8,0:0:0:0:
256,192,115898,1,0,0:0:0:0:
256,192,116064,1,8,0:0:0:0:
256,192,116147,1,0,0:0:0:0:
256,192,116229,1,0,0:0:0:0:
256,192,116312,1,0,0:0:0:0:
256,192,116395,1,8,0:0:0:0:
256,192,116561,1,0,0:0:0:0:
256,192,116727,1,8,0:0:0:0:
256,192,116892,1,0,0:0:0:0:
256,192,116975,1,0,0:0:0:0:
256,192,117058,1,8,0:0:0:0:
256,192,117224,1,0,0:0:0:0:
256,192,117390,1,8,0:0:0:0:
256,192,117472,1,8,0:0:0:0:
256,192,117555,1,0,0:0:0:0:
256,192,117638,1,0,0:0:0:0:
256,192,117721,1,8,0:0:0:0:
256,192,117887,1,8,0:0:0:0:
256,192,118053,1,4,0:0:0:0:
256,192,118218,1,0,0:0:0:0:
256,192,118384,1,8,0:0:0:0:
256,192,118550,1,4,0:0:0:0:
256,192,118881,1,0,0:0:0:0:
256,192,119047,1,8,0:0:0:0:
256,192,119213,1,8,0:0:0:0:
256,192,119379,1,4,0:0:0:0:
256,192,119544,1,8,0:0:0:0:
256,192,119710,1,8,0:0:0:0:
256,192,119876,1,0,0:0:0:0:
256,192,119959,1,8,0:0:0:0:
256,192,120042,1,0,0:0:0:0:
256,192,120207,1,0,0:0:0:0:
256,192,120373,1,8,0:0:0:0:
256,192,120456,1,8,0:0:0:0:
256,192,120539,1,8,0:0:0:0:
256,192,120622,1,8,0:0:0:0:
256,192,120705,1,0,0:0:0:0:
256,192,121036,1,8,0:0:0:0:
256,192,121202,1,8,0:0:0:0:
256,192,121367,1,0,0:0:0:0:
256,192,121450,1,0,0:0:0:0:
256,192,121533,1,0,0:0:0:0:
256,192,121699,1,8,0:0:0:0:
256,192,121865,1,8,0:0:0:0:
256,192,121948,1,8,0:0:0:0:
256,192,122030,1,0,0:0:0:0:
256,192,122113,1,0,0:0:0:0:
256,192,122196,1,0,0:0:0:0:
256,192,122362,1,8,0:0:0:0:
256,192,122528,1,0,0:0:0:0:
256,192,122611,1,0,0:0:0:0:
256,192,122693,1,8,0:0:0:0:
256,192,122859,1,0,0:0:0:0:
256,192,123025,1,8,0:0:0:0:
256,192,123191,1,8,0:0:0:0:
256,192,123274,1,8,0:0:0:0:
256,192,123356,1,0,0:0:0:0:
256,192,123522,1,0,0:0:0:0:
256,192,123688,1,8,0:0:0:0:
256,192,123854,1,0,0:0:0:0:
256,192,123937,1,8,0:0:0:0:
256,192,124019,1,0,0:0:0:0:
256,192,124185,1,0,0:0:0:0:
256,192,124351,1,8,0:0:0:0:
256,192,124517,1,0,0:0:0:0:
256,192,124600,1,0,0:0:0:0:
256,192,124682,1,8,0:0:0:0:
256,192,124765,1,8,0:0:0:0:
256,192,124848,1,0,0:0:0:0:
256,192,125014,1,8,0:0:0:0:
256,192,125180,1,8,0:0:0:0:
256,192,125345,1,0,0:0:0:0:
256,192,125428,1,0,0:0:0:0:
256,192,125511,1,0,0:0:0:0:
256,192,125594,1,0,0:0:0:0:
256,192,125677,1,8,0:0:0:0:
256,192,125843,1,8,0:0:0:0:
256,192,126008,1,4,0:0:0:0:
256,192,126340,1,8,0:0:0:0:
256,192,126506,1,8,0:0:0:0:
256,192,126588,1,8,0:0:0:0:
256,192,126671,1,0,0:0:0:0:
256,192,126754,1,0,0:0:0:0:
256,192,126837,1,0,0:0:0:0:
256,192,127003,1,8,0:0:0:0:
256,192,127169,1,8,0:0:0:0:
256,192,127334,1,0,0:0:0:0:
256,192,127417,1,0,0:0:0:0:
256,192,127500,1,0,0:0:0:0:
256,192,127583,1,0,0:0:0:0:
256,192,127666,1,8,0:0:0:0:
256,192,127832,1,0,0:0:0:0:
256,192,127997,1,8,0:0:0:0:
256,192,128080,1,8,0:0:0:0:
256,192,128163,1,0,0:0:0:0:
256,192,128329,1,8,0:0:0:0:
256,192,128495,1,8,0:0:0:0:
256,192,128660,1,4,0:0:0:0:
256,192,128826,1,4,0:0:0:0:
256,192,128992,1,4,0:0:0:0:
256,192,129323,1,4,0:0:0:0:
256,192,129655,1,4,0:0:0:0:
256,192,129821,1,12,0:0:0:0:
256,192,130152,1,12,0:0:0:0:
256,192,130318,1,12,0:0:0:0:
256,192,130484,1,12,0:0:0:0:
256,192,130649,1,12,0:0:0:0:
256,192,131312,5,4,0:0:0:0:
256,192,131478,1,0,0:0:0:0:
256,192,131644,1,8,0:0:0:0:
256,192,131809,1,0,0:0:0:0:
256,192,131892,1,0,0:0:0:0:
256,192,131975,1,8,0:0:0:0:
256,192,132141,1,0,0:0:0:0:
256,192,132307,1,8,0:0:0:0:
256,192,132472,1,8,0:0:0:0:
256,192,132555,1,8,0:0:0:0:
256,192,132638,1,0,0:0:0:0:
256,192,132804,1,0,0:0:0:0:
256,192,132970,1,8,0:0:0:0:
256,192,133135,1,0,0:0:0:0:
256,192,133218,1,0,0:0:0:0:
256,192,133301,1,8,0:0:0:0:
256,192,133384,1,8,0:0:0:0:
256,192,133467,1,0,0:0:0:0:
256,192,133633,1,8,0:0:0:0:
256,192,133798,1,8,0:0:0:0:
256,192,133964,1,0,0:0:0:0:
256,192,134047,1,0,0:0:0:0:
256,192,134130,1,0,0:0:0:0:
256,192,134296,1,8,0:0:0:0:
256,192,134461,1,0,0:0:0:0:
256,192,134544,1,0,0:0:0:0:
256,192,134627,1,8,0:0:0:0:
256,192,134793,1,0,0:0:0:0:
256,192,134959,1,8,0:0:0:0:
256,192,135124,1,8,0:0:0:0:
256,192,135207,1,8,0:0:0:0:
256,192,135290,1,0,0:0:0:0:
256,192,135373,1,0,0:0:0:0:
256,192,135456,1,0,0:0:0:0:
256,192,135622,1,8,0:0:0:0:
256,192,135787,1,0,0:0:0:0:
256,192,135953,1,8,0:0:0:0:
256,192,136036,1,8,0:0:0:0:
256,192,136119,1,0,0:0:0:0:
256,192,136202,1,0,0:0:0:0:
256,192,136285,1,8,0:0:0:0:
256,192,136450,1,8,0:0:0:0:
256,192,136616,1,0,0:0:0:0:
256,192,136948,1,8,0:0:0:0:
256,192,137113,1,0,0:0:0:0:
256,192,137196,1,0,0:0:0:0:
256,192,137279,1,8,0:0:0:0:
256,192,137445,1,0,0:0:0:0:
256,192,137611,1,8,0:0:0:0:
256,192,137776,1,8,0:0:0:0:
256,192,137859,1,8,0:0:0:0:
256,192,137942,1,0,0:0:0:0:
256,192,138108,1,0,0:0:0:0:
256,192,138274,1,8,0:0:0:0:
256,192,138439,1,8,0:0:0:0:
256,192,138605,1,0,0:0:0:0:
256,192,138688,1,0,0:0:0:0:
256,192,138771,1,0,0:0:0:0:
256,192,138854,1,0,0:0:0:0:
256,192,138937,1,8,0:0:0:0:
256,192,139102,1,8,0:0:0:0:
256,192,139268,1,0,0:0:0:0:
256,192,139351,1,0,0:0:0:0:
256,192,139434,1,0,0:0:0:0:
256,192,139600,1,8,0:0:0:0:
256,192,139765,1,0,0:0:0:0:
256,192,139931,1,8,0:0:0:0:
256,192,140014,1,0,0:0:0:0:
256,192,140097,1,0,0:0:0:0:
256,192,140180,1,0,0:0:0:0:
256,192,140263,1,8,0:0:0:0:
256,192,140428,1,4,0:0:0:0:
256,192,140760,1,8,0:0:0:0:
256,192,140926,1,8,0:0:0:0:
256,192,141091,1,0,0:0:0:0:
256,192,141257,1,8,0:0:0:0:
256,192,141340,1,8,0:0:0:0:
256,192,141423,1,0,0:0:0:0:
256,192,141506,1,0,0:0:0:0:
256,192,141588,1,8,0:0:0:0:
256,192,141754,1,8,0:0:0:0:
256,192,141920,1,4,0:0:0:0:
256,192,142086,1,0,0:0:0:0:
256,192,142251,1,8,0:0:0:0:
256,192,142417,1,0,0:0:0:0:
256,192,142500,1,0,0:0:0:0:
256,192,142583,1,8,0:0:0:0:
256,192,142749,1,0,0:0:0:0:
256,192,142914,1,8,0:0:0:0:
256,192,143080,1,8,0:0:0:0:
256,192,143163,1,8,0:0:0:0:
256,192,143246,1,0,0:0:0:0:
256,192,143412,1,0,0:0:0:0:
256,192,143577,1,8,0:0:0:0:
256,192,143743,1,8,0:0:0:0:
256,192,143826,1,8,0:0:0:0:
256,192,143909,1,0,0:0:0:0:
256,192,143992,1,0,0:0:0:0:
256,192,144075,1,0,0:0:0:0:
256,192,144240,1,8,0:0:0:0:
256,192,144406,1,8,0:0:0:0:
256,192,144572,1,0,0:0:0:0:
256,192,144655,1,0,0:0:0:0:
256,192,144738,1,0,0:0:0:0:
256,192,144903,1,8,0:0:0:0:
256,192,145069,1,0,0:0:0:0:
256,192,145152,1,0,0:0:0:0:
256,192,145235,1,8,0:0:0:0:
256,192,145318,1,8,0:0:0:0:
256,192,145401,1,0,0:0:0:0:
256,192,145566,1,8,0:0:0:0:
256,192,145732,1,8,0:0:0:0:
256,192,145898,1,0,0:0:0:0:
256,192,145981,1,0,0:0:0:0:
256,192,146064,1,0,0:0:0:0:
256,192,146147,1,0,0:0:0:0:
256,192,146229,1,8,0:0:0:0:
256,192,146395,1,0,0:0:0:0:
256,192,146478,1,8,0:0:0:0:
256,192,146561,1,0,0:0:0:0:
256,192,146727,1,0,0:0:0:0:
256,192,146892,1,8,0:0:0:0:
256,192,147058,1,8,0:0:0:0:
256,192,147224,1,0,0:0:0:0:
256,192,147555,1,8,0:0:0:0:
256,192,147721,1,8,0:0:0:0:
256,192,147804,1,8,0:0:0:0:
256,192,147887,1,0,0:0:0:0:
256,192,148053,1,0,0:0:0:0:
256,192,148218,1,8,0:0:0:0:
256,192,148384,1,0,0:0:0:0:
256,192,148467,1,0,0:0:0:0:
256,192,148550,1,8,0:0:0:0:
256,192,148633,1,8,0:0:0:0:
256,192,148716,1,0,0:0:0:0:
256,192,148881,1,8,0:0:0:0:
256,192,149047,1,8,0:0:0:0:
256,192,149213,1,8,0:0:0:0:
256,192,149296,1,8,0:0:0:0:
256,192,149379,1,0,0:0:0:0:
256,192,149544,1,8,0:0:0:0:
256,192,149710,1,8,0:0:0:0:
256,192,149876,1,0,0:0:0:0:
256,192,150042,1,0,0:0:0:0:
256,192,150124,1,0,0:0:0:0:
256,192,150207,1,8,0:0:0:0:
256,192,150373,1,0,0:0:0:0:
256,192,150539,1,8,0:0:0:0:
256,192,150622,1,8,0:0:0:0:
256,192,150705,1,0,0:0:0:0:
256,192,150787,1,0,0:0:0:0:
256,192,150870,1,8,0:0:0:0:
256,192,151036,1,4,0:0:0:0:
256,192,151367,1,0,0:0:0:0:
256,192,151450,1,0,0:0:0:0:
256,192,151533,1,8,0:0:0:0:
256,192,151699,1,0,0:0:0:0:
256,192,151865,1,8,0:0:0:0:
256,192,152030,1,0,0:0:0:0:
256,192,152196,1,8,0:0:0:0:
256,192,152362,1,8,0:0:0:0:
256,192,152528,5,4,0:0:0:0:
256,192,152859,1,8,0:0:0:0:
256,192,153025,1,0,0:0:0:0:
256,192,153108,1,8,0:0:0:0:
256,192,153191,1,0,0:0:0:0:
256,192,153356,1,0,0:0:0:0:
256,192,153522,1,8,0:0:0:0:
256,192,153688,1,0,0:0:0:0:
256,192,153771,1,0,0:0:0:0:
256,192,153854,1,8,0:0:0:0:
256,192,153937,1,8,0:0:0:0:
256,192,154019,1,0,0:0:0:0:
256,192,154185,1,8,0:0:0:0:
256,192,154351,1,0,0:0:0:0:
256,192,154434,1,0,0:0:0:0:
256,192,154517,1,8,0:0:0:0:
256,192,154682,1,0,0:0:0:0:
256,192,154848,1,8,0:0:0:0:
256,192,155014,1,8,0:0:0:0:
256,192,155180,1,0,0:0:0:0:
256,192,155263,1,0,0:0:0:0:
256,192,155345,1,0,0:0:0:0:
256,192,155511,1,8,0:0:0:0:
256,192,155677,1,8,0:0:0:0:
256,192,155760,1,8,0:0:0:0:
256,192,155843,1,0,0:0:0:0:
256,192,156008,1,0,0:0:0:0:
256,192,156174,1,8,0:0:0:0:
256,192,156257,1,0,0:0:0:0:
256,192,156340,1,0,0:0:0:0:
256,192,156423,1,0,0:0:0:0:
256,192,156506,1,8,0:0:0:0:
256,192,156671,1,0,0:0:0:0:
256,192,156837,1,8,0:0:0:0:
256,192,157003,1,0,0:0:0:0:
256,192,157086,1,8,0:0:0:0:
256,192,157169,1,0,0:0:0:0:
256,192,157334,1,0,0:0:0:0:
256,192,157500,1,8,0:0:0:0:
256,192,157666,1,8,0:0:0:0:
256,192,157832,1,4,0:0:0:0:
256,192,158163,1,8,0:0:0:0:
256,192,158246,1,0,0:0:0:0:
256,192,158329,1,8,0:0:0:0:
256,192,158495,1,0,0:0:0:0:
256,192,158660,1,0,0:0:0:0:
256,192,158743,1,0,0:0:0:0:
256,192,158826,1,8,0:0:0:0:
256,192,158992,1,8,0:0:0:0:
256,192,159158,1,0,0:0:0:0:
256,192,159240,1,0,0:0:0:0:
256,192,159323,1,0,0:0:0:0:
256,192,159489,1,8,0:0:0:0:
256,192,159655,1,0,0:0:0:0:
256,192,159821,1,8,0:0:0:0:
256,192,159986,1,8,0:0:0:0:
256,192,160069,1,8,0:0:0:0:
256,192,160152,1,0,0:0:0:0:
256,192,160318,1,8,0:0:0:0:
256,192,160484,1,4,0:0:0:0:
256,192,160649,1,8,0:0:0:0:
256,192,160815,1,8,0:0:0:0:
256,192,160981,1,0,0:0:0:0:
256,192,161064,1,0,0:0:0:0:
256,192,161147,1,0,0:0:0:0:
256,192,161312,1,0,0:0:0:0:
256,192,161478,1,8,0:0:0:0:
256,192,161644,1,8,0:0:0:0:
256,192,161727,1,8,0:0:0:0:
256,192,161809,1,0,0:0:0:0:
256,192,161892,1,0,0:0:0:0:
256,192,161975,1,0,0:0:0:0:
256,192,162141,1,8,0:0:0:0:
256,192,162307,1,0,0:0:0:0:
256,192,162390,1,0,0:0:0:0:
256,192,162472,1,8,0:0:0:0:
256,192,162555,1,8,0:0:0:0:
256,192,162638,1,0,0:0:0:0:
256,192,162804,1,8,0:0:0:0:
256,192,162970,1,8,0:0:0:0:
256,192,163135,1,4,0:0:0:0:
256,192,163301,1,4,0:0:0:0:
256,192,163467,1,4,0:0:0:0:
256,192,163798,1,4,0:0:0:0:
256,192,164130,1,4,0:0:0:0:
256,192,164296,1,12,0:0:0:0:
256,192,164627,1,12,0:0:0:0:
256,192,164793,1,12,0:0:0:0:
256,192,164959,1,12,0:0:0:0:
256,192,165124,1,12,0:0:0:0:
256,192,165787,5,0,0:0:0:0:
256,192,166119,1,12,0:0:0:0:
256,192,166450,1,0,0:0:0:0:
256,192,166782,1,12,0:0:0:0:
256,192,167113,1,0,0:0:0:0:
256,192,167445,1,12,0:0:0:0:
256,192,167611,1,0,0:0:0:0:
256,192,167776,1,8,0:0:0:0:
256,192,168025,1,8,0:0:0:0:
256,192,168274,1,8,0:0:0:0:
256,192,168439,1,0,0:0:0:0:
256,192,168771,1,4,0:0:0:0:
256,192,169102,1,8,0:0:0:0:
256,192,169268,1,0,0:0:0:0:
256,192,169434,1,0,0:0:0:0:
256,192,169517,1,0,0:0:0:0:
256,192,169600,1,0,0:0:0:0:
256,192,169765,1,12,0:0:0:0:
256,192,169931,1,8,0:0:0:0:
256,192,170097,1,0,0:0:0:0:
256,192,170263,1,0,0:0:0:0:
256,192,170428,1,8,0:0:0:0:
256,192,170511,1,8,0:0:0:0:
256,192,170594,1,0,0:0:0:0:
256,192,170677,1,0,0:0:0:0:
256,192,170760,1,8,0:0:0:0:
256,192,170926,1,8,0:0:0:0:
256,192,171091,1,4,0:0:0:0:
256,192,171257,1,0,0:0:0:0:
256,192,171423,1,8,0:0:0:0:
256,192,171588,1,0,0:0:0:0:
256,192,171671,1,8,0:0:0:0:
256,192,171754,1,0,0:0:0:0:
256,192,171920,1,0,0:0:0:0:
256,192,172086,1,8,0:0:0:0:
256,192,172169,1,8,0:0:0:0:
256,192,172251,1,0,0:0:0:0:
256,192,172334,1,0,0:0:0:0:
256,192,172417,1,8,0:0:0:0:
256,192,172583,1,0,0:0:0:0:
256,192,172749,1,8,0:0:0:0:
256,192,172914,1,8,0:0:0:0:
256,192,172997,1,8,0:0:0:0:
256,192,173080,1,0,0:0:0:0:
256,192,173246,1,0,0:0:0:0:
256,192,173412,1,8,0:0:0:0:
256,192,173577,1,8,0:0:0:0:
256,192,173743,1,0,0:0:0:0:
256,192,173826,1,0,0:0:0:0:
256,192,173909,1,0,0:0:0:0:
256,192,174075,1,8,0:0:0:0:
256,192,174240,1,0,0:0:0:0:
256,192,174323,1,0,0:0:0:0:
256,192,174406,1,8,0:0:0:0:
256,192,174572,1,0,0:0:0:0:
256,192,174738,1,8,0:0:0:0:
256,192,174903,1,4,0:0:0:0:
256,192,175235,1,0,0:0:0:0:
256,192,175401,1,8,0:0:0:0:
256,192,175566,1,8,0:0:0:0:
256,192,175649,1,0,0:0:0:0:
256,192,175732,1,8,0:0:0:0:
256,192,175815,1,8,0:0:0:0:
256,192,175898,1,0,0:0:0:0:
256,192,175981,1,0,0:0:0:0:
256,192,176064,1,8,0:0:0:0:
256,192,176229,1,8,0:0:0:0:
256,192,176395,1,4,0:0:0:0:
256,192,176561,1,0,0:0:0:0:
256,192,176644,1,0,0:0:0:0:
256,192,176727,1,8,0:0:0:0:
256,192,176892,1,0,0:0:0:0:
256,192,177058,1,8,0:0:0:0:
256,192,177141,1,0,0:0:0:0:
256,192,177224,1,0,0:0:0:0:
256,192,177307,1,0,0:0:0:0:
256,192,177390,1,8,0:0:0:0:
256,192,177555,1,0,0:0:0:0:
256,192,177721,1,8,0:0:0:0:
256,192,177804,1,8,0:0:0:0:
256,192,177887,1,0,0:0:0:0:
256,192,178053,1,8,0:0:0:0:
256,192,178218,1,8,0:0:0:0:
256,192,178301,1,8,0:0:0:0:
256,192,178384,1,0,0:0:0:0:
256,192,178467,1,0,0:0:0:0:
256,192,178550,1,8,0:0:0:0:
256,192,178633,1,0,0:0:0:0:
256,192,178716,1,8,0:0:0:0:
256,192,178881,1,8,0:0:0:0:
256,192,179047,1,0,0:0:0:0:
256,192,179130,1,0,0:0:0:0:
256,192,179213,1,0,0:0:0:0:
256,192,179379,1,8,0:0:0:0:
256,192,179544,1,0,0:0:0:0:
256,192,179627,1,0,0:0:0:0:
256,192,179710,1,8,0:0:0:0:
256,192,179793,1,8,0:0:0:0:
256,192,179876,1,0,0:0:0:0:
256,192,180042,1,8,0:0:0:0:
256,192,180207,1,0,0:0:0:0:
256,192,180290,1,0,0:0:0:0:
256,192,180373,1,8,0:0:0:0:
256,192,180539,1,0,0:0:0:0:
256,192,180705,1,8,0:0:0:0:
256,192,180870,1,8,0:0:0:0:
256,192,180953,1,8,0:0:0:0:
256,192,181036,1,0,0:0:0:0:
256,192,181119,1,0,0:0:0:0:
256,192,181202,1,0,0:0:0:0:
256,192,181285,1,0,0:0:0:0:
256,192,181367,1,8,0:0:0:0:
256,192,181533,1,8,0:0:0:0:
256,192,181699,1,4,0:0:0:0:
256,192,182030,1,8,0:0:0:0:
256,192,182196,1,8,0:0:0:0:
256,192,182279,1,8,0:0:0:0:
256,192,182362,1,0,0:0:0:0:
256,192,182528,1,0,0:0:0:0:
256,192,182693,1,8,0:0:0:0:
256,192,182859,1,0,0:0:0:0:
256,192,182942,1,0,0:0:0:0:
256,192,183025,1,8,0:0:0:0:
256,192,183191,1,0,0:0:0:0:
256,192,183356,1,8,0:0:0:0:
256,192,183522,1,8,0:0:0:0:
256,192,183688,1,0,0:0:0:0:
256,192,183771,1,8,0:0:0:0:
256,192,183854,1,0,0:0:0:0:
256,192,183937,1,0,0:0:0:0:
256,192,184019,1,8,0:0:0:0:
256,192,184185,1,8,0:0:0:0:
256,192,184351,1,0,0:0:0:0:
256,192,184517,1,0,0:0:0:0:
256,192,184682,1,8,0:0:0:0:
256,192,184765,1,8,0:0:0:0:
256,192,184848,1,0,0:0:0:0:
256,192,184931,1,0,0:0:0:0:
256,192,185014,1,8,0:0:0:0:
256,192,185180,1,0,0:0:0:0:
256,192,185345,1,8,0:0:0:0:
256,192,185511,1,4,0:0:0:0:
256,192,185843,1,0,0:0:0:0:
256,192,185926,1,0,0:0:0:0:
256,192,186008,1,8,0:0:0:0:
256,192,186091,1,8,0:0:0:0:
256,192,186174,1,0,0:0:0:0:
256,192,186340,1,8,0:0:0:0:
256,192,186506,1,0,0:0:0:0:
256,192,186671,1,8,0:0:0:0:
256,192,186754,1,8,0:0:0:0:
256,192,186837,1,8,0:0:0:0:
256,192,187003,5,4,0:0:0:0:
256,192,187334,1,8,0:0:0:0:
256,192,187500,1,0,0:0:0:0:
256,192,187583,1,8,0:0:0:0:
256,192,187666,1,0,0:0:0:0:
256,192,187832,1,0,0:0:0:0:
256,192,187997,1,8,0:0:0:0:
256,192,188163,1,0,0:0:0:0:
256,192,188246,1,0,0:0:0:0:
256,192,188329,1,8,0:0:0:0:
256,192,188495,1,0,0:0:0:0:
256,192,188660,1,8,0:0:0:0:
256,192,188826,1,8,0:0:0:0:
256,192,188909,1,8,0:0:0:0:
256,192,188992,1,0,0:0:0:0:
256,192,189158,1,0,0:0:0:0:
256,192,189323,1,8,0:0:0:0:
256,192,189489,1,8,0:0:0:0:
256,192,189655,1,0,0:0:0:0:
256,192,189738,1,0,0:0:0:0:
256,192,189821,1,0,0:0:0:0:
256,192,189986,1,8,0:0:0:0:
256,192,190152,1,8,0:0:0:0:
256,192,190235,1,8,0:0:0:0:
256,192,190318,1,0,0:0:0:0:
256,192,190401,1,0,0:0:0:0:
256,192,190484,1,0,0:0:0:0:
256,192,190649,1,8,0:0:0:0:
256,192,190815,1,0,0:0:0:0:
256,192,190898,1,0,0:0:0:0:
256,192,190981,1,8,0:0:0:0:
256,192,191147,1,0,0:0:0:0:
256,192,191312,1,8,0:0:0:0:
256,192,191478,1,0,0:0:0:0:
256,192,191561,1,0,0:0:0:0:
256,192,191644,1,8,0:0:0:0:
256,192,191727,1,8,0:0:0:0:
256,192,191809,1,0,0:0:0:0:
256,192,191975,1,8,0:0:0:0:
256,192,192141,1,8,0:0:0:0:
256,192,192307,1,4,0:0:0:0:
256,192,192638,1,8,0:0:0:0:
256,192,192804,1,0,0:0:0:0:
256,192,192887,1,8,0:0:0:0:
256,192,192970,1,0,0:0:0:0:
256,192,193135,1,0,0:0:0:0:
256,192,193301,1,8,0:0:0:0:
256,192,193467,1,0,0:0:0:0:
256,192,193550,1,0,0:0:0:0:
256,192,193633,1,8,0:0:0:0:
256,192,193716,1,8,0:0:0:0:
256,192,193798,1,0,0:0:0:0:
256,192,193964,1,8,0:0:0:0:
256,192,194130,1,8,0:0:0:0:
256,192,194213,1,8,0:0:0:0:
256,192,194296,1,0,0:0:0:0:
256,192,194461,1,0,0:0:0:0:
256,192,194627,1,8,0:0:0:0:
256,192,194793,1,8,0:0:0:0:
256,192,194959,1,0,0:0:0:0:
256,192,195042,1,0,0:0:0:0:
256,192,195124,1,0,0:0:0:0:
256,192,195207,1,0,0:0:0:0:
256,192,195290,1,8,0:0:0:0:
256,192,195456,1,0,0:0:0:0:
256,192,195539,1,8,0:0:0:0:
256,192,195622,1,0,0:0:0:0:
256,192,195787,1,0,0:0:0:0:
256,192,195953,1,8,0:0:0:0:
256,192,196119,1,4,0:0:0:0:
256,192,196450,1,8,0:0:0:0:
256,192,196616,1,8,0:0:0:0:
256,192,196782,1,0,0:0:0:0:
256,192,196865,1,0,0:0:0:0:
256,192,196948,1,8,0:0:0:0:
256,192,197030,1,8,0:0:0:0:
256,192,197113,1,0,0:0:0:0:
256,192,197196,1,0,0:0:0:0:
256,192,197279,1,8,0:0:0:0:
256,192,197445,1,8,0:0:0:0:
256,192,197611,1,4,0:0:0:0:
256,192,197776,1,0,0:0:0:0:
256,192,197859,1,0,0:0:0:0:
256,192,197942,1,8,0:0:0:0:
256,192,198108,1,0,0:0:0:0:
256,192,198274,1,8,0:0:0:0:
256,192,198356,1,0,0:0:0:0:
256,192,198439,1,0,0:0:0:0:
256,192,198522,1,0,0:0:0:0:
256,192,198605,1,8,0:0:0:0:
256,192,198771,1,0,0:0:0:0:
256,192,198937,1,8,0:0:0:0:
256,192,199019,1,8,0:0:0:0:
256,192,199102,1,0,0:0:0:0:
256,192,199268,1,8,0:0:0:0:
256,192,199434,1,0,0:0:0:0:
256,192,199517,1,0,0:0:0:0:
256,192,199600,1,8,0:0:0:0:
256,192,199682,1,8,0:0:0:0:
256,192,199765,1,0,0:0:0:0:
256,192,199931,1,8,0:0:0:0:
256,192,200097,1,8,0:0:0:0:
256,192,200263,1,0,0:0:0:0:
256,192,200428,1,0,0:0:0:0:
256,192,200511,1,0,0:0:0:0:
256,192,200594,1,8,0:0:0:0:
256,192,200760,1,0,0:0:0:0:
256,192,200926,1,8,0:0:0:0:
256,192,201008,1,0,0:0:0:0:
256,192,201091,1,0,0:0:0:0:
256,192,201174,1,0,0:0:0:0:
256,192,201257,1,8,0:0:0:0:
256,192,201423,1,0,0:0:0:0:
256,192,201588,1,8,0:0:0:0:
256,192,201671,1,8,0:0:0:0:
256,192,201754,1,0,0:0:0:0:
256,192,201920,1,8,0:0:0:0:
256,192,202086,1,0,0:0:0:0:
256,192,202169,1,0,0:0:0:0:
256,192,202251,1,8,0:0:0:0:
256,192,202334,1,8,0:0:0:0:
256,192,202417,1,0,0:0:0:0:
256,192,202583,1,8,0:0:0:0:
256,192,202749,1,8,0:0:0:0:
256,192,202914,1,0,0:0:0:0:
256,192,202997,1,0,0:0:0:0:
256,192,203080,1,0,0:0:0:0:
256,192,203246,1,8,0:0:0:0:
256,192,203412,1,0,0:0:0:0:
256,192,203495,1,0,0:0:0:0:
256,192,203577,1,8,0:0:0:0:
256,192,203743,1,0,0:0:0:0:
256,192,203909,1,8,0:0:0:0:
256,192,204075,1,8,0:0:0:0:
256,192,204158,1,8,0:0:0:0:
256,192,204240,1,0,0:0:0:0:
256,192,204323,1,0,0:0:0:0:
256,192,204406,1,0,0:0:0:0:
256,192,204572,1,8,0:0:0:0:
256,192,204738,1,0,0:0:0:0:
256,192,204821,1,0,0:0:0:0:
256,192,204903,1,8,0:0:0:0:
256,192,205069,1,0,0:0:0:0:
256,192,205235,1,8,0:0:0:0:
256,192,205401,1,8,0:0:0:0:
256,192,205566,1,0,0:0:0:0:
256,192,205649,1,0,0:0:0:0:
256,192,205732,1,0,0:0:0:0:
256,192,205898,1,8,0:0:0:0:
256,192,206064,1,8,0:0:0:0:
256,192,206229,1,0,0:0:0:0:
256,192,206312,1,0,0:0:0:0:
256,192,206395,1,0,0:0:0:0:
256,192,206478,1,0,0:0:0:0:
256,192,206561,1,8,0:0:0:0:
256,192,206727,1,0,0:0:0:0:
256,192,206892,1,8,0:0:0:0:
256,192,206975,1,8,0:0:0:0:
256,192,207058,1,0,0:0:0:0:
256,192,207141,1,0,0:0:0:0:
256,192,207224,1,8,0:0:0:0:
256,192,207390,1,8,0:0:0:0:
256,192,207555,1,0,0:0:0:0:
256,192,207638,1,8,0:0:0:0:
256,192,207721,1,0,0:0:0:0:
256,192,207804,1,0,0:0:0:0:
256,192,207887,1,8,0:0:0:0:
256,192,207970,1,8,0:0:0:0:
256,192,208053,1,8,0:0:0:0:
256,192,208135,1,8,0:0:0:0:
256,192,208218,1,0,0:0:0:0:
