osu file format v14

[General]
AudioFilename: audio.mp3
AudioLeadIn: 0
PreviewTime: 64446
Countdown: 0
SampleSet: Soft
StackLeniency: 0.7
Mode: 0
LetterboxInBreaks: 0
WidescreenStoryboard: 1

[Editor]
Bookmarks: 1385,11992,22600,25252,27904,30556,33208,35860,38512,43815,54423,59727,65031,86246,89396,90887,91550,96854,107462,107793
DistanceSpacing: 0.8
BeatDivisor: 4
GridSize: 32
TimelineZoom: 1.7

[Metadata]
Title:Idola no Circus
TitleUnicode:イドラのサーカス
Artist:Himeringo
ArtistUnicode:ひめりんご
Creator:Sotarks
Version:Reform's Insane
Source:
Tags:Neru Vocaloid Kagamine Rin GUHROOVY narangd Nico Douga jap japanese rock jrock short cut edit ver version female vocals vocalist reform kujinn akitoshi corinn -laura-
BeatmapID:1885376
BeatmapSetID:903106

[Difficulty]
HPDrainRate:5
CircleSize:3.8
OverallDifficulty:8
ApproachRate:9
SliderMultiplier:1.72
SliderTickRate:1

[Events]
//Background and Video events
0,0,"bg.jpg",0,0
//Break Periods
//Storyboard Layer 0 (Background)
//Storyboard Layer 1 (Fail)
//Storyboard Layer 2 (Pass)
//Storyboard Layer 3 (Foreground)
//Storyboard Sound Samples

[TimingPoints]
1380,331.491712707182,4,2,22,52,1,0
1380,-138.888888888889,4,2,22,52,0,0
10496,-138.888888888889,4,2,22,72,0,0
10827,-138.888888888889,4,2,22,52,0,0
10993,-138.888888888889,4,2,22,62,0,0
11324,-138.888888888889,4,2,22,72,0,0
11987,-98.0392156862746,4,2,22,82,0,0
22595,-121.951219512195,4,2,22,62,0,0
25247,-98.0392156862745,4,2,22,82,0,0
27899,-121.951219512195,4,2,22,62,0,0
30551,-98.0392156862744,4,2,22,82,0,0
33203,-121.951219512195,4,2,22,62,0,0
35855,-98.0392156862745,4,2,22,82,0,0
38507,-121.951219512195,4,2,22,62,0,0
41159,-98.0392156862745,4,2,22,82,0,0
43810,-108.695652173913,4,2,22,72,0,0
54418,-98.0392156862745,4,2,22,82,0,0
59722,-108.695652173913,4,2,22,82,0,0
65026,-89.2857142857143,4,2,22,92,0,1
86241,-89.2857142857143,4,2,22,92,0,0
90882,-98.0392156862745,4,2,22,92,0,0
96849,-89.2857142857143,4,2,22,92,0,1
107457,-89.2857142857143,4,2,22,72,0,0
107788,-89.2857142857143,4,2,22,22,0,0

[Colours]
Combo1 : 36,251,203
Combo2 : 125,251,0
Combo3 : 255,243,17
Combo4 : 255,140,13

[HitObjects]
73,127,1380,6,0,P|105:94|197:106,1,123.840003023438,6|2,0:2|3:2,0:0:0:0:
268,164,1877,1,0,3:2:0:0:
364,103,2042,2,0,P|371:57|378:21,2,61.9200015117188,2|0|2,0:2|0:2|3:2,0:0:0:0:
261,175,2540,6,0,B|256:253|299:219|296:300,1,123.840003023438,2|0,0:2|0:2,0:0:0:0:
368,225,3037,2,0,P|407:209|447:212,1,61.9200015117188,2|0,3:2|3:2,0:0:0:0:
496,266,3368,1,2,0:2:0:0:
496,266,3534,1,0,0:2:0:0:
356,342,3700,2,0,P|325:338|297:325,1,61.9200015117188,2|2,3:2|0:2,0:0:0:0:
134,283,4031,6,0,P|172:289|244:224,1,123.840003023438,2|2,0:2|3:2,0:0:0:0:
141,122,4529,1,0,3:2:0:0:
141,122,4694,2,0,P|150:174|157:211,1,61.9200015117188,2|0,0:2|0:2,0:0:0:0:
232,77,5026,1,2,3:2:0:0:
312,178,5192,6,0,P|306:232|296:321,1,123.840003023438,2|0,0:2|0:2,0:0:0:0:
179,359,5689,2,0,P|171:318|156:282,1,61.9200015117188,2|0,3:2|3:2,0:0:0:0:
42,248,6020,2,0,P|32:277|27:307,1,61.9200015117188,2|0,0:2|0:2,0:0:0:0:
86,373,6352,1,2,3:2:0:0:
355,293,6683,6,0,P|343:230|345:147,1,123.840003023438,6|2,0:2|3:2,0:0:0:0:
390,76,7181,1,0,3:2:0:0:
277,108,7346,2,0,P|237:105|206:88,2,61.9200015117188,2|0|2,0:2|0:2|3:2,0:0:0:0:
416,84,7844,6,0,P|379:99|343:187,1,123.840003023438,2|0,0:2|0:2,0:0:0:0:
429,236,8341,2,0,P|431:185|435:148,1,61.9200015117188,2|0,3:2|3:2,0:0:0:0:
349,276,8672,1,2,0:2:0:0:
349,276,8838,1,0,0:2:0:0:
261,205,9004,2,0,P|259:154|255:117,1,61.9200015117188,2|2,3:2|0:2,0:0:0:0:
60,221,9335,6,0,P|91:270|169:278,1,123.840003023438,2|2,0:2|3:2,0:0:0:0:
156,134,9833,1,0,3:2:0:0:
156,134,9998,2,0,P|147:185|141:215,1,61.9200015117188,2|0,0:2|0:2,0:0:0:0:
84,81,10330,1,2,3:2:0:0:
226,175,10496,6,0,P|275:167|309:162,1,61.9200015117188,6|2,1:2|1:2,0:0:0:0:
425,255,10827,2,0,P|376:247|342:242,1,61.9200015117188,0|8,1:2|1:2,0:0:0:0:
211,356,11159,1,8,1:2:0:0:
353,335,11324,1,10,1:2:0:0:
257,253,11490,1,8,1:2:0:0:
87,367,11656,1,10,1:2:0:0:
80,342,11739,1,8,1:2:0:0:
78,317,11821,1,8,1:2:0:0:
79,292,11904,1,8,1:2:0:0:
87,264,11987,6,0,B|200:242|151:311|283:289,1,175.440001070801,2|10,1:2|0:2,0:0:0:0:
394,213,12484,1,0,0:2:0:0:
394,213,12650,2,0,P|380:257|374:314,1,87.7200005354004,10|0,0:2|1:2,0:0:0:0:
246,172,12982,1,10,0:2:0:0:
280,327,13147,1,0,1:2:0:0:
449,146,13313,6,0,P|422:132|363:129,1,87.7200005354004,8|0,0:2|0:2,0:0:0:0:
221,244,13645,2,0,P|264:243|304:226,1,87.7200005354004,10|0,0:2|0:2,0:0:0:0:
113,98,13976,1,10,0:2:0:0:
144,227,14142,1,2,1:2:0:0:
252,67,14308,2,0,P|246:111|242:155,1,87.7200005354004,10|2,0:2|1:2,0:0:0:0:
385,207,14639,6,0,B|289:191|329:259|215:243,1,175.440001070801,2|10,1:2|0:2,0:0:0:0:
73,184,15136,1,0,0:2:0:0:
73,184,15302,2,0,P|86:240|87:288,1,87.7200005354004,10|0,0:2|1:2,0:0:0:0:
221,152,15634,1,10,0:2:0:0:
183,313,15799,1,0,1:2:0:0:
18,122,15965,6,0,P|72:103|132:119,1,87.7200005354004,8|0,0:2|0:2,0:0:0:0:
247,236,16297,2,0,P|203:237|163:219,1,87.7200005354004,10|0,0:2|0:2,0:0:0:0:
349,161,16628,1,10,0:2:0:0:
284,304,16794,1,2,1:2:0:0:
219,151,16960,2,0,P|213:93|208:42,1,87.7200005354004,10|0,0:2|1:2,0:0:0:0:
39,216,17291,6,0,P|98:197|185:286,1,175.440001070801,2|10,1:2|0:2,0:0:0:0:
281,368,17788,1,0,0:2:0:0:
281,368,17954,2,0,P|272:300|263:243,1,87.7200005354004,10|0,0:2|1:2,0:0:0:0:
410,122,18286,1,10,0:2:0:0:
366,285,18451,1,0,1:2:0:0:
270,160,18617,6,0,P|213:142|154:150,1,87.7200005354004,8|0,0:2|0:2,0:0:0:0:
52,288,18949,2,0,P|95:286|136:270,1,87.7200005354004,10|0,0:2|0:2,0:0:0:0:
244,161,19280,1,10,0:2:0:0:
213,319,19446,1,2,1:2:0:0:
68,115,19612,2,0,P|79:176|89:224,1,87.7200005354004,10|2,0:2|0:0,0:0:0:0:
243,348,19943,6,0,P|250:304|259:261,1,87.7200005354004,4|2,1:2|0:0,0:0:0:0:
385,152,20275,2,0,P|393:194|400:238,1,87.7200005354004,10|0,0:2|1:2,0:0:0:0:
252,145,20606,1,10,0:2:0:0:
420,63,20772,1,10,0:2:0:0:
339,185,20938,1,10,0:2:0:0:
213,27,21103,6,0,P|160:34|118:155,1,175.440001070801,6|2,1:2|1:2,0:0:0:0:
182,280,21600,1,10,0:2:0:0:
48,199,21766,1,2,1:2:0:0:
262,240,21932,1,14,0:2:0:0:
106,352,22098,1,0,1:2:0:0:
106,352,22181,1,8,0:2:0:0:
106,352,22263,2,0,P|102:268|83:155,1,175.440001070801,8|4,0:0|1:2,0:0:0:0:
220,97,22761,5,2,0:2:0:0:
220,97,22926,2,0,P|210:150|206:187,1,70.5200010760498,2|0,3:2|3:2,0:0:0:0:
299,301,23258,2,0,P|294:266|286:231,1,70.5200010760498,2|0,0:2|1:2,0:0:0:0:
357,143,23589,1,2,3:2:0:0:
357,143,23755,2,0,P|404:162|449:163,1,70.5200010760498,10|0,0:2|1:2,0:0:0:0:
279,226,24087,1,2,0:2:0:0:
279,226,24252,2,0,P|244:232|212:247,1,70.5200010760498,10|2,0:2|3:2,0:0:0:0:
119,356,24584,2,0,P|114:307|110:268,1,70.5200010760498,2|2,1:2|1:2,0:0:0:0:
57,167,24915,1,14,0:2:0:0:
57,167,25247,6,0,P|114:188|187:100,1,175.440001070801,6|8,1:2|0:2,0:0:0:0:
308,26,25744,1,0,1:2:0:0:
308,26,25827,1,8,0:2:0:0:
308,26,25910,2,0,P|295:78|292:123,1,87.7200005354004,2|0,1:2|1:2,0:0:0:0:
331,251,26241,1,8,0:2:0:0:
223,157,26407,1,0,1:2:0:0:
223,157,26490,1,8,0:2:0:0:
223,157,26573,6,0,P|174:139|128:141,1,87.7200005354004,2|0,1:2|1:2,0:0:0:0:
46,234,26904,1,8,0:2:0:0:
157,337,27070,1,0,1:2:0:0:
157,337,27153,1,8,0:2:0:0:
157,337,27236,2,0,P|200:335|241:318,1,87.7200005354004,2|0,1:2|1:2,0:0:0:0:
374,120,27567,2,0,P|365:175|358:308,1,175.440001070801,10|4,0:2|1:2,0:0:0:0:
259,191,28065,5,2,0:2:0:0:
259,191,28230,2,0,P|209:173|166:172,1,70.5200010760498,2|0,3:2|3:2,0:0:0:0:
103,300,28562,2,0,P|137:294|169:280,1,70.5200010760498,2|0,0:2|1:2,0:0:0:0:
274,214,28893,1,2,3:2:0:0:
274,214,29059,2,0,P|265:269|261:310,1,70.5200010760498,10|0,0:2|1:2,0:0:0:0:
112,139,29391,1,2,0:2:0:0:
112,139,29557,2,0,P|121:194|125:235,1,70.5200010760498,10|2,0:2|3:2,0:0:0:0:
227,94,29888,2,0,P|231:59|237:24,1,70.5200010760498,2|2,1:2|1:2,0:0:0:0:
331,151,30219,1,14,0:2:0:0:
331,151,30551,6,0,B|219:138|277:202|144:189,1,175.440001070801,6|8,1:2|0:2,0:0:0:0:
31,123,31048,1,0,1:2:0:0:
31,123,31131,1,8,0:2:0:0:
31,123,31214,2,0,P|43:172|49:224,1,87.7200005354004,2|0,1:2|1:2,0:0:0:0:
35,333,31545,1,8,0:2:0:0:
133,173,31711,1,0,1:2:0:0:
133,173,31794,1,8,0:2:0:0:
133,173,31877,6,0,P|177:155|230:160,1,87.7200005354004,2|0,1:2|1:2,0:0:0:0:
302,274,32208,1,8,0:2:0:0:
450,164,32374,1,0,1:2:0:0:
450,164,32457,1,8,0:2:0:0:
450,164,32540,2,0,P|406:146|353:151,1,87.7200005354004,2|0,1:2|1:2,0:0:0:0:
271,278,32871,1,10,0:2:0:0:
271,278,33203,6,0,P|261:191|251:108,1,141.0400021521,6|8,1:2|0:2,0:0:0:0:
157,45,33700,2,0,P|150:104|140:199,1,141.0400021521,0|0,1:2|1:2,0:0:0:0:
33,278,34197,2,0,P|71:252|112:247,1,70.5200010760498,0|8,3:2|0:2,0:0:0:0:
298,307,34529,2,0,P|253:309|167:256,1,141.0400021521,2|10,1:2|0:2,0:0:0:0:
266,197,35026,1,2,1:2:0:0:
266,197,35192,2,0,P|271:152|273:108,1,70.5200010760498,2|2,0:2|1:2,0:0:0:0:
363,232,35523,2,0,P|365:267|369:302,1,70.5200010760498,14|2,0:2|0:2,0:0:0:0:
462,108,35855,6,0,P|409:68|308:104,1,175.440001070801,6|8,1:2|0:2,0:0:0:0:
209,239,36352,1,0,1:2:0:0:
209,239,36435,1,8,0:2:0:0:
209,239,36518,2,0,P|201:168|191:124,1,87.7200005354004,2|0,1:2|1:2,0:0:0:0:
120,35,36849,1,8,0:2:0:0:
278,127,37015,1,0,1:2:0:0:
278,127,37098,1,8,0:2:0:0:
278,127,37181,6,0,P|329:146|385:141,1,87.7200005354004,2|0,1:2|1:2,0:0:0:0:
233,23,37512,1,8,0:2:0:0:
129,158,37678,1,0,1:2:0:0:
129,158,37761,1,8,0:2:0:0:
129,158,37844,2,0,P|78:177|22:172,1,87.7200005354004,2|0,1:2|1:2,0:0:0:0:
190,282,38175,2,0,P|233:284|273:301,1,87.7200005354004,10|0,0:2|0:0,0:0:0:0:
421,179,38507,6,0,P|408:250|396:342,1,141.0400021521,6|8,1:2|0:2,0:0:0:0:
271,372,39004,2,0,P|258:301|246:209,1,141.0400021521,0|0,1:2|1:2,0:0:0:0:
146,138,39501,2,0,P|101:124|61:123,1,70.5200010760498,0|8,3:2|0:2,0:0:0:0:
237,60,39833,2,0,P|292:35|391:43,1,141.0400021521,2|10,1:2|0:2,0:0:0:0:
257,151,40330,1,2,1:2:0:0:
410,128,40496,2,0,P|448:136|489:170,1,70.5200010760498,2|2,0:2|1:2,0:0:0:0:
334,255,40827,2,0,P|304:273|269:280,1,70.5200010760498,14|2,0:2|0:2,0:0:0:0:
74,167,41159,6,0,B|71:280|122:216|116:348,1,175.440001070801,6|8,1:2|0:2,0:0:0:0:
195,176,41656,1,0,1:2:0:0:
195,176,41739,1,8,0:2:0:0:
195,176,41821,2,0,P|207:125|206:81,1,87.7200005354004,2|0,1:2|1:2,0:0:0:0:
290,258,42153,1,8,0:2:0:0:
75,124,42319,1,0,1:2:0:0:
75,124,42402,1,8,0:2:0:0:
75,124,42484,6,0,P|63:73|64:29,1,87.7200005354004,2|0,1:2|1:2,0:0:0:0:
42,245,42816,1,8,0:2:0:0:
186,90,42982,1,0,1:2:0:0:
186,90,43065,1,8,0:2:0:0:
186,90,43147,2,0,P|236:70|292:75,1,87.7200005354004,2|0,1:2|1:2,0:0:0:0:
355,140,43479,1,10,0:2:0:0:
355,140,43562,1,8,0:0:0:0:
355,140,43645,2,0,L|406:152,1,43.8600002677002,10|8,0:0|0:0,0:0:0:0:
281,229,43810,6,0,P|219:238|187:251,1,79.1199973439942,6|0,1:2|0:2,0:0:0:0:
381,313,44142,2,0,P|418:324|458:327,1,79.1199973439942,10|0,0:2|0:2,0:0:0:0:
301,209,44473,1,2,1:2:0:0:
267,327,44639,1,2,1:2:0:0:
421,199,44805,2,0,P|429:146|427:92,1,79.1199973439942,10|2,0:2|0:2,0:0:0:0:
236,31,45136,6,0,P|191:22|153:22,1,79.1199973439942,2|2,1:2|0:2,0:0:0:0:
312,124,45468,2,0,P|351:122|390:114,1,79.1199973439942,10|2,0:2|0:2,0:0:0:0:
194,204,45799,1,2,1:2:0:0:
194,204,45965,1,0,1:2:0:0:
304,323,46131,2,0,P|309:267|316:221,1,79.1199973439942,10|0,0:2|0:2,0:0:0:0:
135,144,46462,5,6,1:2:0:0:
135,144,46628,2,0,P|141:201|146:251,1,79.1199973439942,2|8,1:2|0:2,0:0:0:0:
248,91,46960,2,0,B|355:84|298:139|421:142,1,158.239994687988,6|0,1:2|1:2,0:0:0:0:
266,228,47457,1,10,0:2:0:0:
407,171,47623,1,2,0:2:0:0:
369,343,47788,5,6,1:2:0:0:
369,343,47954,2,0,P|367:300|355:242,1,79.1199973439942,2|8,1:2|0:2,0:0:0:0:
241,130,48286,2,0,P|170:139|129:225,1,158.239994687988,6|0,1:2|1:2,0:0:0:0:
278,272,48783,1,10,0:2:0:0:
144,347,48949,1,2,0:2:0:0:
210,207,49114,6,0,P|200:143|192:103,1,79.1199973439942,6|0,1:2|0:2,0:0:0:0:
339,47,49446,2,0,P|332:85|326:125,1,79.1199973439942,10|0,0:2|0:2,0:0:0:0:
119,75,49777,1,2,1:2:0:0:
250,43,49943,1,2,1:2:0:0:
143,167,50109,2,0,P|101:156|47:150,1,79.1199973439942,10|2,0:2|0:2,0:0:0:0:
255,245,50440,6,0,P|294:239|332:229,1,79.1199973439942,2|2,1:2|0:2,0:0:0:0:
439,81,50772,2,0,P|428:132|421:172,1,79.1199973439942,10|2,0:2|0:2,0:0:0:0:
461,277,51103,1,2,1:2:0:0:
461,277,51269,1,0,1:2:0:0:
336,188,51435,2,0,P|328:149|320:110,1,79.1199973439942,10|0,0:2|0:2,0:0:0:0:
198,185,51766,5,6,1:2:0:0:
198,185,51932,2,0,P|154:216|101:217,1,79.1199973439942,2|8,1:2|0:2,0:0:0:0:
167,75,52263,2,0,P|222:70|296:154,1,158.239994687988,6|0,1:2|1:2,0:0:0:0:
319,285,52761,1,10,0:2:0:0:
261,141,52926,1,2,0:2:0:0:
438,195,53092,5,6,1:2:0:0:
438,195,53258,2,0,P|428:254|423:302,1,79.1199973439942,2|8,1:2|0:2,0:0:0:0:
195,364,53589,2,0,P|177:293|239:204,1,158.239994687988,6|0,1:2|1:2,0:0:0:0:
356,122,54087,1,10,0:2:0:0:
159,59,54252,5,10,0:2:0:0:
159,59,54335,1,8,0:0:0:0:
159,59,54418,2,0,P|169:121|181:236,1,175.440001070801,6|8,1:2|0:2,0:0:0:0:
263,86,54915,1,0,0:2:0:0:
126,188,55081,2,0,P|85:211|25:212,1,87.7200005354004,2|0,1:2|1:2,0:0:0:0:
271,194,55413,1,10,0:2:0:0:
116,152,55578,1,2,1:2:0:0:
271,342,55744,6,0,B|257:225|314:298|294:153,2,175.440001070801,0|8|2,1:2|0:2|1:2,0:0:0:0:
200,199,56573,1,0,1:2:0:0:
375,275,56739,1,10,0:2:0:0:
195,226,56904,1,2,1:2:0:0:
337,63,57070,6,0,P|389:36|435:36,1,87.7200005354004,0|0,1:2|0:2,0:0:0:0:
200,199,57402,2,0,P|156:192|119:169,1,87.7200005354004,10|0,0:2|0:2,0:0:0:0:
359,98,57733,2,0,P|402:104|439:127,1,87.7200005354004,2|0,1:2|1:2,0:0:0:0:
348,238,58065,1,10,0:2:0:0:
199,156,58230,6,0,P|189:90|185:35,1,87.7200005354004,2|0,1:2|1:2,0:0:0:0:
185,261,58562,1,2,0:2:0:0:
293,148,58728,1,10,0:2:0:0:
235,330,58893,1,2,0:2:0:0:
131,203,59059,2,0,P|83:185|37:186,1,87.7200005354004,2|0,1:2|1:2,0:0:0:0:
297,277,59391,2,0,P|340:274|381:258,1,87.7200005354004,8|2,0:2|1:2,0:0:0:0:
333,83,59722,6,0,P|274:82|219:178,1,158.239994687988,4|8,1:2|0:0,0:0:0:0:
224,293,60219,1,4,0:3:0:0:
224,293,60302,1,4,0:3:0:0:
224,293,60385,2,0,P|182:271|131:275,1,79.1199973439942,4|4,0:3|0:3,0:0:0:0:
337,212,60717,2,0,P|379:190|430:194,1,79.1199973439942,8|2,0:0|1:2,0:0:0:0:
315,369,61048,6,0,P|311:312|302:257,1,79.1199973439942,0|0,1:0|0:0,0:0:0:0:
237,157,61379,1,8,0:0:0:0:
375,231,61545,1,4,0:3:0:0:
375,231,61628,1,0,0:0:0:0:
375,231,61711,2,0,P|424:247|470:249,1,79.1199973439942,4|4,0:3|0:3,0:0:0:0:
224,293,62042,2,0,P|184:298|147:311,1,79.1199973439942,12|2,0:0|1:2,0:0:0:0:
344,139,62374,5,10,0:2:0:0:
315,369,62540,1,10,0:0:0:0:
380,114,62705,1,10,0:0:0:0:
130,290,63037,5,10,0:0:0:0:
439,195,63368,5,10,0:0:0:0:
199,85,63534,1,10,0:0:0:0:
84,199,63866,5,10,0:0:0:0:
321,115,64032,1,10,0:0:0:0:
110,223,64198,1,10,0:0:0:0:
338,289,64364,1,10,0:0:0:0:
86,57,65026,6,0,B|213:61|136:120|285:128,1,192.640002351563,6|8,1:2|0:2,0:0:0:0:
398,69,65523,1,2,1:2:0:0:
398,69,65606,1,8,0:2:0:0:
398,69,65689,2,0,P|367:152|357:260,1,192.640002351563,2|8,1:2|0:2,0:0:0:0:
253,128,66186,1,2,0:2:0:0:
453,230,66352,6,0,P|444:301|331:351,1,192.640002351563,2|8,1:2|0:2,0:0:0:0:
183,251,66849,1,2,1:2:0:0:
352,142,67015,2,0,P|341:210|335:264,1,96.3200011757813,2|2,1:2|1:2,0:0:0:0:
149,156,67346,2,0,P|142:108|134:60,1,96.3200011757813,10|2,0:2|0:2,0:0:0:0:
450,64,67678,6,0,B|323:55|389:128|232:113,1,192.640002351563,2|8,1:2|0:2,0:0:0:0:
117,257,68175,1,2,1:2:0:0:
117,257,68258,1,8,0:2:0:0:
117,257,68341,2,0,B|171:252|202:294|202:294|218:244|285:229,1,192.640002351563,2|8,1:2|0:2,0:0:0:0:
191,146,68838,1,2,0:2:0:0:
379,229,69004,6,0,P|335:148|243:137,1,192.640002351563,2|8,1:2|0:2,0:0:0:0:
414,88,69501,1,2,1:2:0:0:
278,235,69667,2,0,P|263:291|254:350,1,96.3200011757813,2|2,1:2|1:2,0:0:0:0:
136,158,69998,2,0,P|127:110|114:64,1,96.3200011757813,10|2,0:2|0:2,0:0:0:0:
40,189,70330,6,0,P|82:249|223:212,1,192.640002351563,6|8,1:2|0:2,0:0:0:0:
386,131,70827,1,2,1:2:0:0:
386,131,70910,1,8,0:2:0:0:
386,131,70993,2,0,P|373:192|351:343,1,192.640002351563,2|8,1:2|0:2,0:0:0:0:
239,117,71490,1,2,0:2:0:0:
206,337,71656,6,0,P|199:270|193:212,1,96.3200011757813,2|0,1:2|0:0,0:0:0:0:
95,354,71987,1,8,0:2:0:0:
67,117,72153,1,2,1:2:0:0:
67,117,72236,1,0,0:0:0:0:
67,117,72319,2,0,P|62:164|57:212,1,96.3200011757813,2|2,1:2|1:2,0:0:0:0:
177,57,72650,1,10,0:2:0:0:
201,229,72816,1,2,0:2:0:0:
371,81,72982,6,0,P|323:84|282:109,1,96.3200011757813,0|2,1:0|1:2,0:0:0:0:
201,257,73313,1,10,0:2:0:0:
61,120,73479,1,2,1:2:0:0:
61,120,73562,1,8,0:2:0:0:
61,120,73645,2,0,B|191:117|112:175|262:178,1,192.640002351563,2|10,1:2|0:0,0:0:0:0:
371,325,74142,6,0,P|360:245|354:188,1,96.3200011757813,6|0,1:2|0:0,0:0:0:0:
422,41,74473,1,10,0:0:0:0:
384,230,74639,1,10,0:0:0:0:
266,59,74805,1,10,0:0:0:0:
266,59,74888,1,8,0:0:0:0:
266,59,74971,2,0,P|321:84|375:85,1,96.3200011757813,10|10,0:0|0:0,0:0:0:0:
199,162,75302,1,10,0:0:0:0:
386,270,75468,5,10,0:0:0:0:
386,270,75551,1,8,0:0:0:0:
386,270,75634,2,0,P|391:194|413:58,1,192.640002351563,6|8,1:2|0:2,0:0:0:0:
141,42,76131,1,2,1:2:0:0:
141,42,76214,1,8,0:2:0:0:
141,42,76297,2,0,P|205:32|268:135,1,192.640002351563,2|8,1:2|0:2,0:0:0:0:
138,218,76794,1,2,0:2:0:0:
320,258,76960,6,0,B|266:253|235:295|235:295|219:245|152:230,1,192.640002351563,2|8,1:2|0:2,0:0:0:0:
320,355,77457,1,2,1:2:0:0:
248,178,77623,2,0,P|241:122|233:57,1,96.3200011757813,2|2,1:2|1:2,0:0:0:0:
425,169,77954,2,0,P|419:216|413:264,1,96.3200011757813,10|2,0:2|0:2,0:0:0:0:
110,98,78286,6,0,P|161:47|287:90,1,192.640002351563,2|8,1:2|0:2,0:0:0:0:
206,216,78783,1,2,1:2:0:0:
206,216,78866,1,8,0:2:0:0:
206,216,78949,2,0,P|140:196|7:189,1,192.640002351563,2|8,1:2|0:2,0:0:0:0:
228,104,79446,1,2,0:2:0:0:
167,294,79612,6,0,B|299:328|226:241|391:279,1,192.640002351563,2|8,1:2|0:2,0:0:0:0:
466,365,80109,1,2,1:2:0:0:
446,106,80275,2,0,P|431:163|426:216,1,96.3200011757813,2|2,1:2|1:2,0:0:0:0:
322,375,80606,2,0,P|315:327|302:280,1,96.3200011757813,10|2,0:2|0:2,0:0:0:0:
59,110,80938,6,0,P|82:177|216:165,1,192.640002351563,6|8,1:2|0:2,0:0:0:0:
327,28,81435,1,2,1:2:0:0:
327,28,81518,1,8,0:2:0:0:
327,28,81600,2,0,P|314:100|295:240,1,192.640002351563,2|8,1:2|0:2,0:0:0:0:
216,86,82098,1,2,0:2:0:0:
388,191,82263,6,0,P|397:250|407:313,1,96.3200011757813,2|0,1:2|0:0,0:0:0:0:
461,88,82595,1,8,0:2:0:0:
286,219,82761,1,2,1:2:0:0:
286,219,82844,1,0,0:0:0:0:
286,219,82926,2,0,P|277:278|267:341,1,96.3200011757813,2|2,1:2|1:2,0:0:0:0:
216,91,83258,1,14,0:2:0:0:
363,172,83424,1,2,0:2:0:0:
192,269,83589,6,0,P|142:288|78:271,1,96.3200011757813,0|2,1:0|1:2,0:0:0:0:
285,142,83921,2,0,P|332:137|376:155,1,96.3200011757813,10|2,0:2|1:2,0:0:0:0:
211,293,84252,1,10,0:0:0:0:
367,188,84418,1,0,1:0:0:0:
296,358,84584,1,10,0:0:0:0:
237,154,84750,6,0,P|230:86|225:25,1,96.3200011757813,6|0,1:2|0:0,0:0:0:0:
377,196,85081,1,10,0:0:0:0:
377,196,85164,1,8,0:0:0:0:
377,196,85247,2,0,P|372:243|367:291,1,96.3200011757813,10|2,0:0|0:0,0:0:0:0:
415,109,85578,1,2,1:2:0:0:
334,285,85744,1,10,0:0:0:0:
260,91,85910,1,10,0:0:0:0:
193,258,86076,1,10,0:0:0:0:
193,258,86159,1,8,0:0:0:0:
193,258,86241,1,4,1:2:0:0:
256,192,86324,12,0,89391,0:0:0:0:
52,114,90882,6,0,B|118:88|169:141|169:141|183:68|274:59,1,263.160001606201,2|0,1:2|0:0,0:0:0:0:
427,276,91545,6,0,P|411:199|381:65,1,175.440001070801,4|8,1:2|0:2,0:0:0:0:
292,214,92042,1,0,1:2:0:0:
292,214,92125,1,8,0:2:0:0:
292,214,92208,2,0,P|283:272|275:328,1,87.7200005354004,0|0,1:2|1:2,0:0:0:0:
132,172,92540,2,0,P|125:128|118:85,1,87.7200005354004,8|0,0:2|0:2,0:0:0:0:
320,113,92871,6,0,B|210:105|253:167|142:148,1,175.440001070801,2|8,1:2|0:2,0:0:0:0:
56,315,93368,1,0,1:2:0:0:
56,315,93451,1,8,0:2:0:0:
56,315,93534,2,0,P|105:296|160:283,1,87.7200005354004,0|0,1:2|1:2,0:0:0:0:
355,362,93866,2,0,P|312:350|272:334,1,87.7200005354004,8|0,0:2|0:2,0:0:0:0:
134,135,94197,6,0,P|151:227|166:321,1,175.440001070801,2|8,1:2|0:2,0:0:0:0:
263,119,94694,1,0,1:2:0:0:
263,119,94777,1,8,0:2:0:0:
263,119,94860,2,0,P|258:171|252:231,1,87.7200005354004,0|0,1:2|1:2,0:0:0:0:
362,86,95192,1,8,0:2:0:0:
467,201,95357,6,0,L|484:301,1,87.7200005354004,6|0,1:2|0:2,0:0:0:0:
371,125,95689,1,8,0:2:0:0:
270,214,95855,2,0,P|265:266|259:326,1,87.7200005354004,10|0,0:2|1:2,0:0:0:0:
137,170,96186,1,10,0:2:0:0:
137,170,96269,1,8,0:2:0:0:
137,170,96352,1,8,0:2:0:0:
305,290,96518,2,0,P|350:281|399:271,1,87.7200005354004,8|10,0:2|0:2,0:0:0:0:
459,174,96766,5,8,0:2:0:0:
459,174,96849,2,0,B|335:167|411:104|269:101,1,192.640002351563,6|8,1:2|0:2,0:0:0:0:
150,247,97346,1,2,0:2:0:0:
303,193,97512,1,10,0:2:0:0:
124,257,97678,1,0,1:2:0:0:
280,321,97844,2,0,P|339:338|386:333,1,96.3200011757813,8|2,0:2|1:2,0:0:0:0:
183,57,98175,6,0,P|199:137|223:275,1,192.640002351563,2|8,1:2|0:2,0:0:0:0:
353,68,98672,1,2,0:2:0:0:
334,221,98838,1,10,0:2:0:0:
355,45,99004,1,0,1:2:0:0:
222,192,99170,2,0,P|167:211|119:201,1,96.3200011757813,8|2,0:2|1:2,0:0:0:0:
420,271,99501,6,0,P|431:191|307:139,1,192.640002351563,2|8,1:2|0:2,0:0:0:0:
203,318,99998,1,2,0:2:0:0:
163,163,100164,1,10,0:2:0:0:
207,337,100330,1,0,1:2:0:0:
281,148,100496,2,0,P|336:129|384:139,1,96.3200011757813,8|2,0:2|1:2,0:0:0:0:
285,321,100827,6,0,B|173:286|207:367|89:330,1,192.640002351563,10|8,0:0|0:0,0:0:0:0:
231,183,101324,1,2,0:2:0:0:
41,220,101490,1,10,0:2:0:0:
258,178,101656,1,0,1:2:0:0:
0,133,101821,2,0,P|43:114|115:103,1,96.3200011757813,8|2,0:2|1:2,0:0:0:0:
322,30,102153,6,0,B|313:103|295:241,1,192.640002351563,6|8,1:2|0:2,0:0:0:0:
226,108,102650,1,2,1:2:0:0:
414,155,102816,1,10,0:2:0:0:
192,100,102982,1,0,1:2:0:0:
374,235,103147,2,0,P|396:288|392:350,1,96.3200011757813,8|2,0:2|1:2,0:0:0:0:
54,342,103479,6,0,P|101:274|229:299,1,192.640002351563,10|8,0:2|0:2,0:0:0:0:
307,357,103976,1,2,1:2:0:0:
257,171,104142,1,10,0:2:0:0:
315,384,104308,1,0,1:2:0:0:
371,182,104473,2,0,P|381:131|394:62,1,96.3200011757813,8|2,0:2|1:2,0:0:0:0:
141,196,104805,6,0,P|150:243|159:290,1,96.3200011757813,2|8,1:2|0:2,0:0:0:0:
167,327,105054,1,8,0:2:0:0:
167,327,105136,2,0,L|176:386,1,48.1600005878906,8|8,0:2|0:2,0:0:0:0:
268,265,105302,2,0,L|275:217,5,48.1600005878906,2|0|10|8|8|8,1:2|1:2|0:2|0:2|0:2|0:2,0:0:0:0:
197,136,105799,2,0,L|189:88,5,48.1600005878906,0|0|10|8|10|8,1:2|1:2|0:2|0:2|0:2|0:2,0:0:0:0:
297,67,106297,6,0,P|334:53|369:48,5,48.1600005878906,0|0|8|8|10|8,1:2|1:2|0:2|0:2|0:2|0:2,0:0:0:0:
165,160,106794,2,0,P|141:153|119:144,3,48.1600005878906,6|8|8|8,1:2|0:2|0:2|0:2,0:0:0:0:
298,216,107125,2,0,P|320:206|343:200,1,48.1600005878906,8|8,1:2|0:2,0:0:0:0:
195,309,107291,2,0,P|171:302|149:293,1,48.1600005878906,10|8,0:2|0:2,0:0:0:0:
407,364,107457,6,0,P|461:362|390:293,1,192.640002351563,2|0,0:2|0:2,0:0:0:0:
