osu file format v14

[General]
AudioFilename: audio.mp3
AudioLeadIn: 0
PreviewTime: 64446
Countdown: 0
SampleSet: Soft
StackLeniency: 0.7
Mode: 0
LetterboxInBreaks: 0
WidescreenStoryboard: 1

[Editor]
Bookmarks: 1385,11992,22600,25252,27904,30556,33208,35860,38512,43815,54423,59727,65031,86246,89396,90887,91550,96854,107462,107793
DistanceSpacing: 1.5
BeatDivisor: 4
GridSize: 4
TimelineZoom: 1.5

[Metadata]
Title:Idola no Circus
TitleUnicode:イドラのサーカス
Artist:Himeringo
ArtistUnicode:ひめりんご
Creator:Sotarks
Version:Hard
Source:
Tags:Neru Vocaloid Kagamine Rin GUHROOVY narangd Nico Douga jap japanese rock jrock short cut edit ver version female vocals vocalist reform kujinn akitoshi corinn -laura-
BeatmapID:1885375
BeatmapSetID:903106

[Difficulty]
HPDrainRate:4.5
CircleSize:3.5
OverallDifficulty:7
ApproachRate:7.7
SliderMultiplier:1.52
SliderTickRate:1

[Events]
//Background and Video events
0,0,"bg.jpg",0,0
//Break Periods
//Storyboard Layer 0 (Background)
//Storyboard Layer 1 (Fail)
//Storyboard Layer 2 (Pass)
//Storyboard Layer 3 (Foreground)
//Storyboard Sound Samples

[TimingPoints]
1380,331.491712707182,4,2,22,52,1,0
1380,-138.888888888889,4,2,22,52,0,0
10496,-138.888888888889,4,2,22,72,0,0
10827,-138.888888888889,4,2,22,52,0,0
10993,-138.888888888889,4,2,22,62,0,0
11324,-138.888888888889,4,2,22,72,0,0
11987,-98.0392156862746,4,2,22,82,0,0
22595,-121.951219512195,4,2,22,62,0,0
25247,-98.0392156862745,4,2,22,82,0,0
27899,-121.951219512195,4,2,22,62,0,0
30551,-98.0392156862744,4,2,22,82,0,0
33203,-121.951219512195,4,2,22,62,0,0
35855,-98.0392156862745,4,2,22,82,0,0
38507,-121.951219512195,4,2,22,62,0,0
41159,-98.0392156862745,4,2,22,82,0,0
43810,-108.695652173913,4,2,22,72,0,0
54418,-98.0392156862745,4,2,22,82,0,0
59722,-108.695652173913,4,2,22,82,0,0
65026,-89.2857142857143,4,2,22,92,0,1
86241,-89.2857142857143,4,2,22,92,0,0
90882,-98.0392156862745,4,2,22,92,0,0
96849,-89.2857142857143,4,2,22,92,0,1
107457,-89.2857142857143,4,2,22,72,0,0
107788,-89.2857142857143,4,2,22,22,0,0

[Colours]
Combo1 : 255,32,250
Combo2 : 200,250,1
Combo3 : 255,17,17
Combo4 : 250,255,43

[HitObjects]
76,186,1380,6,0,P|118:177|144:163,1,54.7200013359375,6|0,0:2|0:2,0:0:0:0:
188,115,1711,2,0,P|215:119|240:128,1,54.7200013359375,2|0,3:2|3:2,0:0:0:0:
286,196,2042,2,0,P|298:253|299:267,1,54.7200013359375,2|0,0:2|0:2,0:0:0:0:
364,298,2374,1,2,3:2:0:0:
364,298,2540,2,0,P|370:240|384:178,1,109.440002671875,2|0,0:2|0:2,0:0:0:0:
425,121,3037,2,0,P|371:106|363:100,1,54.7200013359375,2|0,3:2|3:2,0:0:0:0:
301,67,3368,2,0,P|276:77|248:80,1,54.7200013359375,2|0,0:2|0:2,0:0:0:0:
180,127,3700,1,2,3:2:0:0:
180,127,3866,1,2,0:2:0:0:
59,50,4031,6,0,P|52:92|43:163,1,109.440002671875,2|2,0:2|3:2,0:0:0:0:
66,237,4529,1,0,3:2:0:0:
143,264,4694,2,0,P|192:255|215:243,1,54.7200013359375,2|0,0:2|0:2,0:0:0:0:
265,208,5026,1,2,3:2:0:0:
265,208,5192,2,0,P|312:243|374:238,1,109.440002671875,2|0,0:2|0:2,0:0:0:0:
429,197,5689,2,0,P|418:139|418:123,1,54.7200013359375,2|0,3:2|3:2,0:0:0:0:
347,101,6020,2,0,P|343:128|336:154,2,54.7200013359375,2|0|2,0:2|0:2|3:2,0:0:0:0:
127,38,6683,6,0,P|66:52|49:52,1,54.7200013359375,6|0,0:2|0:2,0:0:0:0:
36,125,7015,2,0,P|97:139|114:139,1,54.7200013359375,2|0,3:2|3:2,0:0:0:0:
170,134,7346,2,0,P|181:174|187:203,1,54.7200013359375,2|0,0:2|0:2,0:0:0:0:
144,266,7678,1,2,3:2:0:0:
144,266,7844,2,0,P|189:312|240:316,1,109.440002671875,2|0,0:2|0:2,0:0:0:0:
295,265,8341,2,0,P|344:242|363:243,1,54.7200013359375,2|0,3:2|3:2,0:0:0:0:
398,181,8672,2,0,P|371:173|349:158,1,54.7200013359375,2|0,0:2|0:2,0:0:0:0:
322,79,9004,1,2,3:2:0:0:
322,79,9170,1,2,0:2:0:0:
208,159,9335,6,0,P|162:170|89:178,1,109.440002671875,2|2,0:2|3:2,0:0:0:0:
26,140,9833,1,0,3:2:0:0:
41,220,9998,2,0,P|50:262|54:291,2,54.7200013359375,2|0|2,0:2|0:2|3:2,0:0:0:0:
105,84,10496,5,6,1:2:0:0:
105,84,10661,2,0,P|147:70|172:67,1,54.7200013359375,2|0,1:2|1:2,0:0:0:0:
249,138,10993,2,0,P|274:147|301:153,1,54.7200013359375,8|8,1:2|1:2,0:0:0:0:
413,91,11324,1,10,1:2:0:0:
470,192,11490,1,8,1:2:0:0:
377,281,11656,2,0,L|384:318,3,27.3600006679688,10|8|8|8,1:2|1:2|1:2|1:2,0:0:0:0:
344,281,11987,6,0,B|237:286|301:331|173:336,1,155.040000946289,2|10,1:2|0:2,0:0:0:0:
98,281,12484,1,0,0:2:0:0:
144,174,12650,2,0,P|130:119|126:87,1,77.5200004731445,10|0,0:2|1:2,0:0:0:0:
232,47,12982,2,0,P|225:85|215:122,1,77.5200004731445,10|0,0:2|1:2,0:0:0:0:
277,220,13313,2,0,P|338:259|429:227,1,155.040000946289,8|10,0:2|0:2,0:0:0:0:
486,149,13810,1,0,0:2:0:0:
397,73,13976,2,0,P|406:142|411:171,1,77.5200004731445,10|2,0:2|1:2,0:0:0:0:
297,189,14308,2,0,P|302:150|307:112,1,77.5200004731445,10|2,0:2|1:2,0:0:0:0:
153,37,14639,6,0,P|99:58|70:149,1,155.040000946289,2|10,1:2|0:2,0:0:0:0:
132,242,15136,1,0,0:2:0:0:
81,346,15302,2,0,P|128:367|168:367,1,77.5200004731445,10|0,0:2|1:2,0:0:0:0:
238,287,15634,2,0,P|285:266|325:266,1,77.5200004731445,10|0,0:2|1:2,0:0:0:0:
404,333,15965,2,0,P|418:235|434:158,1,155.040000946289,8|10,0:2|0:2,0:0:0:0:
373,77,16462,1,0,0:2:0:0:
280,148,16628,2,0,P|222:171|185:171,1,77.5200004731445,10|2,0:2|1:2,0:0:0:0:
123,90,16960,2,0,P|84:83|50:65,1,77.5200004731445,10|0,0:2|1:2,0:0:0:0:
50,241,17291,6,0,B|155:253|94:291|213:297,1,155.040000946289,2|10,1:2|0:2,0:0:0:0:
286,228,17788,1,0,0:2:0:0:
373,304,17954,2,0,P|396:239|415:212,1,77.5200004731445,10|0,0:2|1:2,0:0:0:0:
343,129,18286,2,0,P|333:91|315:57,1,77.5200004731445,10|0,0:2|1:2,0:0:0:0:
222,126,18617,2,0,P|157:157|71:133,1,155.040000946289,8|10,0:2|0:2,0:0:0:0:
142,41,19114,1,0,0:2:0:0:
222,126,19280,1,10,0:2:0:0:
298,38,19446,1,2,1:2:0:0:
377,123,19612,1,10,0:2:0:0:
377,123,19777,2,0,P|368:177|363:210,1,77.5200004731445,2|4,0:0|1:2,0:0:0:0:
315,305,20109,5,2,0:0:0:0:
220,237,20275,2,0,P|168:222|133:224,1,77.5200004731445,10|0,0:2|1:2,0:0:0:0:
61,303,20606,1,10,0:2:0:0:
61,303,20772,2,0,P|46:231|36:201,1,77.5200004731445,10|10,0:2|0:2,0:0:0:0:
78,66,21103,6,0,P|144:34|231:68,1,155.040000946289,6|2,1:2|1:2,0:0:0:0:
306,133,21600,2,0,P|289:200|289:235,1,77.5200004731445,10|2,0:2|1:2,0:0:0:0:
355,303,21932,2,0,P|294:335|249:334,1,77.5200004731445,14|0,0:2|1:2,0:0:0:0:
232,312,22181,1,8,0:2:0:0:
232,312,22263,2,0,P|171:280|78:299,1,155.040000946289,8|4,0:0|1:2,0:0:0:0:
24,223,22761,5,2,0:2:0:0:
24,223,22926,2,0,P|32:173|31:149,1,62.3200009509277,2|0,3:2|3:2,0:0:0:0:
114,116,23258,2,0,P|115:147|121:177,1,62.3200009509277,2|0,0:2|1:2,0:0:0:0:
204,221,23589,1,2,3:2:0:0:
204,221,23755,2,0,P|248:205|273:205,1,62.3200009509277,10|0,0:2|1:2,0:0:0:0:
347,162,24087,1,2,0:2:0:0:
347,162,24252,2,0,P|339:99|333:76,1,62.3200009509277,10|2,0:2|3:2,0:0:0:0:
256,54,24584,2,0,P|250:84|248:115,1,62.3200009509277,2|2,1:2|1:2,0:0:0:0:
263,204,24915,1,14,0:2:0:0:
446,347,25247,6,0,P|383:319|296:310,1,155.040000946289,6|8,1:2|0:2,0:0:0:0:
188,350,25744,1,0,1:2:0:0:
108,264,25910,2,0,P|87:194|73:163,1,77.5200004731445,2|0,1:2|1:2,0:0:0:0:
158,99,26241,2,0,P|179:29|193:-2,1,77.5200004731445,8|0,0:2|1:2,0:0:0:0:
279,88,26573,6,0,P|350:81|382:81,1,77.5200004731445,2|0,1:2|1:2,0:0:0:0:
418,179,26904,2,0,P|347:172|315:172,1,77.5200004731445,8|0,0:2|1:2,0:0:0:0:
287,275,27236,2,0,P|358:268|390:268,1,77.5200004731445,2|0,1:2|1:2,0:0:0:0:
446,349,27567,1,10,0:2:0:0:
259,369,27899,6,0,P|211:340|192:256,1,124.640001901855,4|2,1:2|3:2,0:0:0:0:
209,186,28396,1,0,3:2:0:0:
161,105,28562,2,0,P|152:69|147:32,2,62.3200009509277,2|0|2,0:2|1:2|3:2,0:0:0:0:
117,187,29059,2,0,P|98:240|92:272,1,62.3200009509277,10|0,0:2|1:2,0:0:0:0:
152,321,29391,1,2,0:2:0:0:
152,321,29556,2,0,P|193:305|216:303,1,62.3200009509277,10|2,0:2|3:2,0:0:0:0:
279,238,29888,2,0,P|309:243|337:255,1,62.3200009509277,2|2,1:2|1:2,0:0:0:0:
384,337,30219,1,14,0:2:0:0:
467,119,30551,6,0,B|367:113|421:78|298:69,1,155.040000946289,6|8,1:2|0:2,0:0:0:0:
217,123,31048,1,0,1:2:0:0:
118,61,31214,2,0,P|105:120|103:154,1,77.5200004731445,2|0,1:2|1:2,0:0:0:0:
174,229,31545,2,0,P|187:288|189:322,1,77.5200004731445,8|0,0:2|1:2,0:0:0:0:
294,355,31877,6,0,P|369:327|390:327,1,77.5200004731445,2|0,1:2|1:2,0:0:0:0:
447,244,32208,2,0,P|372:216|351:216,1,77.5200004731445,8|0,0:2|1:2,0:0:0:0:
293,133,32540,2,0,P|368:105|389:105,1,77.5200004731445,2|0,1:2|1:2,0:0:0:0:
472,147,32871,1,10,0:2:0:0:
321,35,33203,6,0,P|250:15|187:10,1,124.640001901855,6|8,1:2|0:2,0:0:0:0:
177,101,33700,2,0,P|115:108|55:125,1,124.640001901855,0|0,1:2|1:2,0:0:0:0:
69,218,34197,2,0,P|25:253|4:280,1,62.3200009509277,0|8,3:2|0:2,0:0:0:0:
105,299,34529,6,0,P|158:304|220:265,1,124.640001901855,2|10,1:2|0:2,0:0:0:0:
258,184,35026,1,2,1:2:0:0:
258,184,35192,2,0,P|300:170|329:180,1,62.3200009509277,2|2,0:2|1:2,0:0:0:0:
377,244,35523,2,0,P|419:258|448:248,1,62.3200009509277,14|2,0:2|0:2,0:0:0:0:
465,51,35855,6,0,P|417:94|321:86,1,155.040000946289,6|8,1:2|0:2,0:0:0:0:
240,16,36352,1,0,1:2:0:0:
139,73,36518,2,0,P|155:132|161:172,1,77.5200004731445,2|0,1:2|1:2,0:0:0:0:
261,201,36849,2,0,P|245:260|239:300,1,77.5200004731445,8|0,0:2|1:2,0:0:0:0:
140,347,37181,6,0,P|80:317|49:313,1,77.5200004731445,2|0,1:2|1:2,0:0:0:0:
2,220,37512,2,0,P|62:190|93:186,1,77.5200004731445,8|0,0:2|1:2,0:0:0:0:
150,101,37844,2,0,P|212:128|251:127,1,77.5200004731445,2|0,1:2|1:2,0:0:0:0:
293,219,38175,1,10,0:2:0:0:
415,77,38507,6,0,P|430:165|438:215,1,124.640001901855,6|8,1:2|0:2,0:0:0:0:
343,183,39004,2,0,P|328:271|320:321,1,124.640001901855,0|0,1:2|1:2,0:0:0:0:
230,286,39501,2,0,P|235:347|236:370,1,62.3200009509277,0|8,3:2|0:2,0:0:0:0:
143,324,39833,2,0,P|77:277|74:224,1,124.640001901855,2|10,1:2|0:2,0:0:0:0:
130,165,40330,1,2,1:2:0:0:
130,165,40496,2,0,P|139:123|139:97,1,62.3200009509277,2|2,0:2|1:2,0:0:0:0:
232,80,40827,2,0,P|233:111|241:141,1,62.3200009509277,14|2,0:2|0:2,0:0:0:0:
359,207,41159,6,0,P|285:219|236:294,1,155.040000946289,6|8,1:2|0:2,0:0:0:0:
279,368,41656,1,0,1:2:0:0:
197,289,41821,2,0,P|150:273|99:267,1,77.5200004731445,2|0,1:2|1:2,0:0:0:0:
45,198,42153,2,0,P|81:184|119:177,1,77.5200004731445,8|0,0:2|1:2,0:0:0:0:
216,113,42484,6,0,P|204:64|198:20,1,77.5200004731445,2|0,1:2|1:2,0:0:0:0:
303,92,42816,2,0,P|304:41|309:-2,1,77.5200004731445,8|0,0:2|1:2,0:0:0:0:
385,100,43147,2,0,P|399:51|415:10,1,77.5200004731445,2|0,1:2|1:2,0:0:0:0:
461,130,43479,2,0,P|492:92|497:87,3,38.7600002365723,10|8|10|8,0:2|0:0|0:0|0:0,0:0:0:0:
470,150,43810,6,0,P|476:201|491:249,1,69.9199976528321,6|0,1:2|0:2,0:0:0:0:
374,222,44142,2,0,P|368:273|353:321,1,69.9199976528321,10|0,0:2|0:2,0:0:0:0:
268,245,44473,2,0,P|216:227|176:221,1,69.9199976528321,2|2,1:2|1:2,0:0:0:0:
154,318,44805,2,0,P|102:336|62:342,1,69.9199976528321,10|2,0:2|0:2,0:0:0:0:
45,242,45136,6,0,P|30:182|22:154,2,69.9199976528321,2|2|10,1:2|0:2|0:2,0:0:0:0:
133,184,45634,1,2,0:2:0:0:
133,184,45799,2,0,P|148:124|156:96,2,69.9199976528321,2|0|10,1:2|1:2|0:2,0:0:0:0:
217,247,46297,1,0,0:2:0:0:
336,137,46462,5,6,1:2:0:0:
336,137,46628,2,0,P|388:111|418:114,1,69.9199976528321,2|8,1:2|0:2,0:0:0:0:
406,216,46960,2,0,P|332:174|258:164,1,139.839995305664,6|0,1:2|1:2,0:0:0:0:
187,215,47457,2,0,P|120:239|99:236,1,69.9199976528321,10|2,0:2|0:2,0:0:0:0:
51,96,47788,5,6,1:2:0:0:
51,96,47954,2,0,P|89:75|126:70,1,69.9199976528321,2|8,1:2|0:2,0:0:0:0:
214,104,48286,2,0,P|246:53|328:30,1,139.839995305664,6|0,1:2|1:2,0:0:0:0:
414,72,48783,1,10,0:2:0:0:
414,72,48949,1,2,0:2:0:0:
340,145,49114,6,0,P|358:193|360:230,1,69.9199976528321,6|0,1:2|0:2,0:0:0:0:
460,243,49446,2,0,P|442:291|440:328,1,69.9199976528321,10|0,0:2|0:2,0:0:0:0:
334,314,49777,2,0,P|279:294|242:291,1,69.9199976528321,2|2,1:2|1:2,0:0:0:0:
213,201,50109,2,0,P|178:208|146:222,1,69.9199976528321,10|2,0:2|0:2,0:0:0:0:
76,300,50440,2,0,P|35:260|15:248,2,69.9199976528321,2|2|10,1:2|0:2|0:2,0:0:0:0:
174,337,50938,1,2,0:2:0:0:
174,337,51103,2,0,P|215:297|235:285,2,69.9199976528321,2|0|10,1:2|1:2|0:2,0:0:0:0:
76,300,51600,1,0,0:2:0:0:
183,170,51766,5,6,1:2:0:0:
183,170,51932,2,0,P|180:104|171:79,1,69.9199976528321,2|8,1:2|0:2,0:0:0:0:
79,67,52263,2,0,P|175:79|217:41,1,139.839995305664,6|0,1:2|1:2,0:0:0:0:
301,12,52761,2,0,P|307:81|312:92,1,69.9199976528321,10|2,0:2|0:2,0:0:0:0:
430,200,53092,5,6,1:2:0:0:
430,200,53258,2,0,P|375:206|347:226,1,69.9199976528321,2|8,1:2|0:2,0:0:0:0:
290,288,53589,2,0,P|237:233|146:228,1,139.839995305664,6|0,1:2|1:2,0:0:0:0:
79,262,54087,1,10,0:2:0:0:
29,170,54252,1,10,0:2:0:0:
29,170,54335,1,8,0:0:0:0:
29,170,54418,6,0,B|122:156|78:116|188:111,1,155.040000946289,6|8,1:2|0:2,0:0:0:0:
391,181,55081,2,0,P|402:234|406:268,1,77.5200004731445,2|0,1:2|1:2,0:0:0:0:
324,342,55413,1,10,0:2:0:0:
324,342,55578,2,0,P|289:294|176:281,1,155.040000946289,2|0,1:2|0:0,0:0:0:0:
97,330,56076,1,8,0:2:0:0:
23,109,56407,6,0,P|80:137|121:138,1,77.5200004731445,2|0,1:2|1:2,0:0:0:0:
184,65,56739,1,10,0:2:0:0:
184,65,56904,2,0,P|251:45|352:35,1,155.040000946289,2|0,1:2|0:2,0:0:0:0:
439,89,57402,1,10,0:2:0:0:
265,242,57733,2,0,P|222:215|177:212,1,77.5200004731445,2|0,1:2|1:2,0:0:0:0:
92,264,58065,1,10,0:2:0:0:
92,264,58230,6,0,P|107:319|107:356,1,77.5200004731445,2|0,1:2|1:2,0:0:0:0:
219,374,58562,1,2,0:2:0:0:
219,374,58728,2,0,P|262:347|307:344,1,77.5200004731445,10|2,0:2|0:2,0:0:0:0:
401,366,59059,2,0,P|404:327|416:290,1,77.5200004731445,2|0,1:2|1:2,0:0:0:0:
350,194,59391,1,8,0:2:0:0:
415,98,59556,1,2,1:2:0:0:
415,98,59722,6,0,P|367:71|268:59,1,139.839995305664,4|8,1:2|0:0,0:0:0:0:
195,113,60219,1,4,0:3:0:0:
105,57,60385,2,0,P|102:116|98:223,1,139.839995305664,4|8,0:3|0:0,0:0:0:0:
92,301,60882,1,2,1:2:0:0:
189,262,61048,2,0,P|235:250|295:269,2,104.879996479248,0|2|4,1:0|0:0|0:3,0:0:0:0:
235,356,61711,2,0,P|294:314|376:303,1,139.839995305664,4|12,0:3|0:0,0:0:0:0:
458,335,62208,1,2,1:2:0:0:
420,155,62374,5,10,0:2:0:0:
420,155,62540,1,10,0:0:0:0:
328,205,62705,2,0,B|251:207|286:162|181:161,2,139.839995305664,10|10|10,0:0|0:0|0:0,0:0:0:0:
312,100,63534,2,0,P|297:49|293:18,1,69.9199976528321,10|0,0:0|0:0,0:0:0:0:
189,18,63866,1,10,0:0:0:0:
177,121,64031,1,10,0:0:0:0:
214,219,64197,1,10,0:0:0:0:
183,319,64363,1,10,0:0:0:0:
183,319,65026,6,0,B|283:324|242:265|363:268,1,170.240002078125,6|8,1:2|0:2,0:0:0:0:
453,328,65523,1,2,1:2:0:0:
442,200,65689,2,0,P|381:150|278:182,1,170.240002078125,2|8,1:2|0:2,0:0:0:0:
223,270,66186,1,2,0:2:0:0:
106,216,66352,2,0,P|73:150|141:54,1,170.240002078125,2|8,1:2|0:2,0:0:0:0:
231,24,66849,1,2,1:2:0:0:
317,118,67015,2,0,P|376:89|435:89,1,85.1200010390625,2|2,1:2|1:2,0:0:0:0:
448,202,67346,2,0,P|389:231|330:231,1,85.1200010390625,10|2,0:2|0:2,0:0:0:0:
177,204,67678,6,0,B|137:213|104:168|104:168|56:205|-5:186,1,170.240002078125,2|8,1:2|0:2,0:0:0:0:
44,62,68175,1,2,1:2:0:0:
168,93,68341,2,0,P|251:74|363:61,1,170.240002078125,2|8,1:2|0:2,0:0:0:0:
454,110,68838,1,2,0:2:0:0:
400,225,69004,2,0,P|317:206|205:193,1,170.240002078125,2|8,1:2|0:2,0:0:0:0:
120,256,69501,1,2,1:2:0:0:
215,339,69667,2,0,P|292:315|324:314,1,85.1200010390625,2|2,1:2|1:2,0:0:0:0:
391,248,69998,2,0,P|314:224|282:223,1,85.1200010390625,10|2,0:2|0:2,0:0:0:0:
184,161,70330,6,0,P|216:84|331:73,1,170.240002078125,6|8,1:2|0:2,0:0:0:0:
400,93,70827,1,2,1:2:0:0:
335,180,70993,2,0,B|246:189|290:244|163:261,1,170.240002078125,2|8,1:2|0:2,0:0:0:0:
74,197,71490,1,2,0:2:0:0:
110,319,71656,6,0,P|185:287|289:297,1,170.240002078125,2|8,1:2|0:2,0:0:0:0:
379,360,72153,1,2,1:2:0:0:
462,262,72319,2,0,P|469:196|480:152,1,85.1200010390625,2|2,1:2|1:2,0:0:0:0:
384,85,72650,1,10,0:2:0:0:
384,85,72816,2,0,P|312:53|269:57,1,85.1200010390625,2|0,0:2|1:0,0:0:0:0:
212,138,73147,5,2,1:2:0:0:
212,138,73313,2,0,P|140:170|97:166,1,85.1200010390625,10|2,0:2|1:2,0:0:0:0:
29,166,73645,2,0,P|60:271|57:364,1,170.240002078125,2|10,1:2|0:0,0:0:0:0:
229,342,74142,6,0,P|295:273|403:276,1,170.240002078125,6|10,1:2|0:0,0:0:0:0:
484,331,74639,2,0,P|469:249|473:228,1,85.1200010390625,10|10,0:0|0:0,0:0:0:0:
378,167,74971,2,0,P|393:85|389:64,1,85.1200010390625,10|10,0:0|0:0,0:0:0:0:
289,9,75302,1,10,0:0:0:0:
289,9,75468,1,10,0:0:0:0:
203,104,75634,6,0,P|124:68|33:74,1,170.240002078125,6|8,1:2|0:2,0:0:0:0:
0,189,76131,1,2,1:2:0:0:
91,270,76297,2,0,B|194:268|136:209|271:210,1,170.240002078125,2|8,1:2|0:2,0:0:0:0:
363,260,76794,1,2,0:2:0:0:
302,147,76960,2,0,P|280:231|268:349,1,170.240002078125,2|8,1:2|0:2,0:0:0:0:
387,363,77457,1,2,1:2:0:0:
455,254,77623,2,0,P|436:186|417:158,1,85.1200010390625,2|2,1:2|1:2,0:0:0:0:
495,65,77954,2,0,P|444:15|414:0,1,85.1200010390625,10|2,0:2|0:2,0:0:0:0:
302,147,78286,6,0,P|219:180|141:156,1,170.240002078125,2|8,1:2|0:2,0:0:0:0:
55,65,78783,1,2,1:2:0:0:
22,188,78949,2,0,P|126:209|141:295,1,170.240002078125,2|8,1:2|0:2,0:0:0:0:
99,379,79446,1,2,0:2:0:0:
22,276,79612,2,0,P|146:246|214:242,1,170.240002078125,2|8,1:2|0:2,0:0:0:0:
302,299,80109,1,2,1:2:0:0:
411,232,80275,2,0,P|431:177|449:145,1,85.1200010390625,2|2,1:2|1:2,0:0:0:0:
284,184,80606,2,0,P|264:129|246:97,1,85.1200010390625,10|2,0:2|0:2,0:0:0:0:
145,219,80938,6,0,P|87:184|100:71,1,170.240002078125,6|8,1:2|0:2,0:0:0:0:
195,23,81435,1,2,1:2:0:0:
266,128,81600,2,0,P|252:238|245:324,1,170.240002078125,2|8,1:2|0:2,0:0:0:0:
352,370,82098,1,2,0:2:0:0:
438,276,82263,6,0,P|463:224|424:106,1,170.240002078125,2|8,1:2|0:2,0:0:0:0:
346,27,82761,1,2,1:2:0:0:
266,128,82926,2,0,P|207:151|157:146,1,85.1200010390625,2|2,1:2|1:2,0:0:0:0:
78,80,83258,1,14,0:2:0:0:
78,80,83424,2,0,P|71:141|68:181,1,85.1200010390625,2|0,0:2|1:0,0:0:0:0:
125,279,83755,5,2,1:2:0:0:
125,279,83921,2,0,P|184:256|234:261,1,85.1200010390625,10|2,0:2|1:2,0:0:0:0:
321,309,84252,2,0,P|380:332|430:327,1,85.1200010390625,10|0,0:0|1:0,0:0:0:0:
475,227,84584,1,10,0:0:0:0:
475,227,84750,2,0,P|465:158|349:133,1,170.240002078125,6|10,1:2|0:0,0:0:0:0:
272,190,85247,6,0,P|264:133|247:93,1,85.1200010390625,10|2,0:0|0:0,0:0:0:0:
142,46,85578,2,0,P|128:86|124:128,1,85.1200010390625,2|10,1:2|0:0,0:0:0:0:
158,252,85910,1,10,0:0:0:0:
158,252,86076,1,10,0:0:0:0:
90,359,86241,1,4,1:2:0:0:
256,192,86324,12,0,89391,0:0:0:0:
400,229,90882,6,0,B|245:220|345:148|158:146,1,232.560001419434,2|0,1:2|0:0,0:0:0:0:
39,307,91545,6,0,P|94:246|190:247,1,155.040000946289,4|8,1:2|0:2,0:0:0:0:
257,305,92042,1,0,1:2:0:0:
366,265,92208,2,0,P|387:212|388:169,1,77.5200004731445,0|0,1:2|1:2,0:0:0:0:
296,119,92540,2,0,P|275:172|274:215,1,77.5200004731445,8|0,0:2|0:2,0:0:0:0:
445,76,92871,6,0,P|364:36|272:22,1,155.040000946289,2|8,1:2|0:2,0:0:0:0:
195,54,93368,1,0,1:2:0:0:
84,55,93534,2,0,P|104:109|111:143,1,77.5200004731445,0|0,1:2|1:2,0:0:0:0:
216,170,93866,2,0,P|196:224|189:258,1,77.5200004731445,8|0,0:2|0:2,0:0:0:0:
393,333,94197,6,0,P|407:257|339:199,1,155.040000946289,2|8,1:2|0:2,0:0:0:0:
269,255,94694,1,0,1:2:0:0:
217,351,94860,2,0,P|151:366|114:352,1,77.5200004731445,0|0,1:2|1:2,0:0:0:0:
52,289,95192,1,8,0:2:0:0:
139,116,95357,6,0,P|150:210|166:286,1,155.040000946289,6|8,1:2|0:2,0:0:0:0:
249,191,95855,2,0,P|255:129|263:98,1,77.5200004731445,10|0,0:2|1:2,0:0:0:0:
360,58,96186,2,0,B|360:96|367:126,2,38.7600002365723,10|8|8,0:2|0:2|0:2,0:0:0:0:
422,157,96518,1,8,0:2:0:0:
384,266,96683,1,10,0:2:0:0:
384,266,96766,1,8,0:2:0:0:
384,266,96849,6,0,P|291:265|235:318,1,170.240002078125,6|8,1:2|0:2,0:0:0:0:
143,227,97346,1,2,0:2:0:0:
63,327,97512,2,0,P|49:243|16:159,1,170.240002078125,10|8,0:2|0:2,0:0:0:0:
90,58,98009,1,2,1:2:0:0:
197,127,98175,2,0,P|273:125|361:46,1,170.240002078125,2|8,1:2|0:2,0:0:0:0:
466,116,98672,1,2,0:2:0:0:
395,9,98838,2,0,P|371:127|369:205,1,170.240002078125,10|8,0:2|0:2,0:0:0:0:
390,295,99335,1,2,1:2:0:0:
250,345,99501,6,0,B|146:330|210:285|63:267,1,170.240002078125,2|8,1:2|0:2,0:0:0:0:
208,206,99998,1,2,0:2:0:0:
91,153,100164,2,0,P|136:57|222:54,1,170.240002078125,10|8,0:2|0:2,0:0:0:0:
304,103,100661,1,2,1:2:0:0:
411,33,100827,2,0,P|417:108|432:221,1,170.240002078125,10|8,0:0|0:0,0:0:0:0:
367,314,101324,1,2,0:2:0:0:
269,231,101490,2,0,B|214:223|193:192|193:192|168:221|118:225,1,170.240002078125,10|8,0:2|0:2,0:0:0:0:
18,203,101987,1,2,1:2:0:0:
90,335,102153,6,0,P|158:319|194:314,1,85.1200010390625,6|0,1:2|0:2,0:0:0:0:
290,354,102484,1,8,0:2:0:0:
400,288,102650,1,2,1:2:0:0:
400,288,102816,2,0,P|409:214|418:179,1,85.1200010390625,10|0,0:2|1:2,0:0:0:0:
335,100,103147,1,8,0:2:0:0:
233,177,103313,1,2,1:2:0:0:
233,177,103479,6,0,P|168:193|120:187,1,85.1200010390625,10|0,0:2|0:2,0:0:0:0:
59,102,103810,1,8,0:2:0:0:
166,33,103976,1,2,1:2:0:0:
166,33,104142,2,0,P|230:15|262:18,1,85.1200010390625,10|0,0:2|1:2,0:0:0:0:
342,101,104473,1,8,0:2:0:0:
342,101,104639,2,0,P|336:155|336:196,1,85.1200010390625,2|2,1:2|1:2,0:0:0:0:
398,297,104971,6,0,P|451:279|465:278,3,42.5600005195313,8|8|8|8,0:2|0:2|0:2|0:2,0:0:0:0:
388,323,105302,1,2,1:2:0:0:
267,279,105468,2,0,P|214:261|200:260,3,42.5600005195313,10|8|8|8,0:2|0:2|0:2|0:2,0:0:0:0:
277,305,105799,1,0,1:2:0:0:
353,202,105965,2,0,P|406:184|420:183,3,42.5600005195313,10|8|10|8,0:2|0:2|0:2|0:2,0:0:0:0:
343,228,106296,1,0,1:2:0:0:
246,143,106462,2,0,P|226:133|206:127,3,42.5600005195313,8|8|10|8,0:2|0:2|0:2|0:2,0:0:0:0:
256,169,106793,5,6,1:2:0:0:
477,41,107125,1,8,1:2:0:0:
459,141,107291,1,10,0:2:0:0:
459,141,107457,2,0,P|468:223|476:313,1,170.240002078125,2|0,0:2|0:2,0:0:0:0:
