osu file format v14

[General]
AudioFilename: audio.mp3
AudioLeadIn: 0
PreviewTime: 64446
Countdown: 0
SampleSet: Soft
StackLeniency: 0.7
Mode: 0
LetterboxInBreaks: 0
WidescreenStoryboard: 0

[Editor]
Bookmarks: 1385,11992,22600,25252,27904,30556,33208,35860,38512,43815,54423,59727,65031,86246,89396,90887,91550,96854,107462,107793
DistanceSpacing: 1.2
BeatDivisor: 4
GridSize: 4
TimelineZoom: 1.5

[Metadata]
Title:Idola no Circus
TitleUnicode:イドラのサーカス
Artist:Himeringo
ArtistUnicode:ひめりんご
Creator:Sotarks
Version:Expert
Source:
Tags:Neru Vocaloid Kagamine Rin GUHROOVY narangd Nico Douga jap japanese rock jrock short cut edit ver version female vocals vocalist reform kujinn akitoshi corinn -laura-
BeatmapID:1885374
BeatmapSetID:903106

[Difficulty]
HPDrainRate:5.2
CircleSize:4
OverallDifficulty:9
ApproachRate:9.2
SliderMultiplier:1.82
SliderTickRate:1

[Events]
//Background and Video events
0,0,"bg.jpg",0,0
//Break Periods
//Storyboard Layer 0 (Background)
//Storyboard Layer 1 (Fail)
//Storyboard Layer 2 (Pass)
//Storyboard Layer 3 (Foreground)
//Storyboard Sound Samples

[TimingPoints]
1380,331.491712707182,4,2,22,52,1,0
1380,-138.888888888889,4,2,22,52,0,0
10496,-138.888888888889,4,2,22,72,0,0
10827,-138.888888888889,4,2,22,52,0,0
10993,-138.888888888889,4,2,22,62,0,0
11324,-138.888888888889,4,2,22,72,0,0
11987,-98.0392156862746,4,2,22,82,0,0
22595,-121.951219512195,4,2,22,62,0,0
25247,-98.0392156862745,4,2,22,82,0,0
27899,-121.951219512195,4,2,22,62,0,0
30551,-98.0392156862744,4,2,22,82,0,0
33203,-121.951219512195,4,2,22,62,0,0
35855,-98.0392156862745,4,2,22,82,0,0
38507,-121.951219512195,4,2,22,62,0,0
41159,-98.0392156862745,4,2,22,82,0,0
43810,-108.695652173913,4,2,22,72,0,0
54418,-98.0392156862745,4,2,22,82,0,0
59722,-108.695652173913,4,2,22,82,0,0
65026,-89.2857142857143,4,2,22,92,0,1
86241,-89.2857142857143,4,2,22,92,0,0
90882,-98.0392156862745,4,2,22,92,0,0
96849,-89.2857142857143,4,2,22,92,0,1
107457,-192.307692307692,4,2,22,72,0,0
107788,-89.2857142857143,4,2,22,22,0,0

[Colours]
Combo1 : 255,32,250
Combo2 : 200,250,1
Combo3 : 255,17,17
Combo4 : 250,255,43

[HitObjects]
153,119,1380,6,0,P|208:104|231:91,1,65.5200015996094,6|0,0:2|0:2,0:0:0:0:
361,151,1711,1,2,3:2:0:0:
295,36,1877,1,0,3:2:0:0:
270,191,2042,2,0,P|284:245|290:276,1,65.5200015996094,2|0,0:2|0:2,0:0:0:0:
342,119,2374,1,2,3:2:0:0:
149,45,2540,6,0,P|142:111|132:192,1,131.040003199219,2|0,0:2|0:2,0:0:0:0:
263,277,3037,2,0,P|255:245|247:213,1,65.5200015996094,2|0,3:2|3:2,0:0:0:0:
181,327,3368,1,2,0:2:0:0:
354,277,3534,1,0,0:2:0:0:
153,197,3700,1,2,3:2:0:0:
342,119,3866,1,2,0:2:0:0:
136,35,4031,6,0,P|137:86|129:129,1,65.5200015996094,2|0,0:2|0:2,0:0:0:0:
271,42,4363,1,2,3:2:0:0:
186,177,4529,1,0,3:2:0:0:
342,119,4694,2,0,P|393:99|418:96,1,65.5200015996094,2|0,0:2|0:2,0:0:0:0:
255,70,5026,1,2,3:2:0:0:
393,202,5192,6,0,P|345:172|267:177,1,131.040003199219,2|0,0:2|0:2,0:0:0:0:
168,294,5689,2,0,P|210:269|223:254,1,65.5200015996094,2|0,3:2|3:2,0:0:0:0:
129,92,6020,1,2,0:2:0:0:
82,218,6186,1,0,0:2:0:0:
244,165,6352,1,2,3:2:0:0:
342,321,6683,6,0,P|329:284|326:241,1,65.5200015996094,6|0,0:2|0:2,0:0:0:0:
412,117,7015,1,2,3:2:0:0:
322,220,7181,1,0,3:2:0:0:
342,54,7346,2,0,P|377:26|413:18,1,65.5200015996094,2|0,0:2|0:2,0:0:0:0:
283,133,7678,1,2,3:2:0:0:
464,205,7844,6,0,P|414:149|346:139,1,131.040003199219,2|0,0:2|0:2,0:0:0:0:
211,248,8341,2,0,P|162:270|128:271,1,65.5200015996094,2|0,3:2|3:2,0:0:0:0:
197,86,8672,1,2,0:2:0:0:
303,259,8838,1,0,0:2:0:0:
257,30,9004,1,2,3:2:0:0:
85,177,9170,1,2,0:2:0:0:
359,72,9335,6,0,P|374:122|384:146,1,65.5200015996094,2|0,0:2|0:2,0:0:0:0:
272,270,9667,1,2,3:2:0:0:
263,123,9833,1,0,3:2:0:0:
371,277,9998,2,0,P|362:308|351:339,1,65.5200015996094,2|0,0:2|0:2,0:0:0:0:
264,166,10330,1,2,3:2:0:0:
157,334,10496,5,6,1:2:0:0:
226,46,10661,1,2,1:2:0:0:
119,199,10827,1,0,1:2:0:0:
357,152,10993,1,8,1:2:0:0:
94,168,11159,1,8,1:2:0:0:
407,238,11324,1,10,1:2:0:0:
206,19,11490,1,8,1:2:0:0:
226,314,11656,1,10,1:2:0:0:
257,304,11738,1,8,1:2:0:0:
282,284,11821,1,8,1:2:0:0:
299,256,11904,1,8,1:2:0:0:
303,224,11987,6,0,P|302:170|285:121,1,92.8200005665283,2|0,1:2|0:2,0:0:0:0:
142,286,12319,1,10,0:2:0:0:
376,340,12484,1,0,0:2:0:0:
199,153,12650,1,10,0:2:0:0:
400,67,12816,1,0,1:2:0:0:
274,259,12982,1,10,0:2:0:0:
146,88,13147,1,0,1:2:0:0:
423,164,13313,6,0,P|416:229|413:276,1,92.8200005665283,8|0,0:2|0:2,0:0:0:0:
277,76,13645,1,10,0:2:0:0:
164,246,13810,1,0,0:2:0:0:
372,97,13976,1,10,0:2:0:0:
141,44,14142,1,2,1:2:0:0:
249,290,14308,1,10,0:2:0:0:
396,61,14473,1,2,1:2:0:0:
119,223,14639,6,0,P|99:153|86:115,1,92.8200005665283,2|0,1:2|0:2,0:0:0:0:
278,313,14971,1,10,0:2:0:0:
243,94,15136,1,0,0:2:0:0:
187,329,15302,1,10,0:2:0:0:
269,124,15468,1,0,1:2:0:0:
355,355,15634,1,10,0:2:0:0:
224,200,15799,1,0,1:2:0:0:
425,272,15965,6,0,P|435:219|446:175,1,92.8200005665283,8|0,0:2|0:2,0:0:0:0:
279,311,16297,1,10,0:2:0:0:
185,126,16462,1,0,0:2:0:0:
353,191,16628,1,10,0:2:0:0:
152,253,16794,1,2,1:2:0:0:
289,106,16960,2,0,P|299:44|299:5,1,92.8200005665283,10|0,0:2|1:2,0:0:0:0:
121,266,17291,6,0,P|50:236|32:211,1,92.8200005665283,2|0,1:2|0:2,0:0:0:0:
193,91,17623,1,10,0:2:0:0:
268,286,17788,1,0,0:2:0:0:
115,172,17954,1,10,0:2:0:0:
321,92,18120,1,0,1:2:0:0:
225,282,18286,1,10,0:2:0:0:
183,58,18451,1,0,1:2:0:0:
361,220,18617,6,0,P|380:159|396:118,1,92.8200005665283,8|0,0:2|0:2,0:0:0:0:
150,195,18949,1,10,0:2:0:0:
297,110,19114,1,0,0:2:0:0:
142,35,19280,1,10,0:2:0:0:
228,230,19446,1,2,1:2:0:0:
350,37,19612,1,10,0:2:0:0:
120,214,19777,2,0,P|65:233|30:238,1,92.8200005665283,2|4,0:0|1:2,0:0:0:0:
244,40,20109,5,2,0:0:0:0:
244,40,20192,1,2,0:0:0:0:
244,40,20275,1,10,0:2:0:0:
218,272,20440,1,0,1:2:0:0:
381,35,20606,1,10,0:2:0:0:
356,316,20772,1,10,0:2:0:0:
237,126,20938,1,10,0:2:0:0:
128,358,21103,6,0,P|109:286|93:240,1,92.8200005665283,6|0,1:2|0:2,0:0:0:0:
241,84,21435,1,2,1:2:0:0:
332,339,21600,1,10,0:2:0:0:
105,227,21766,1,2,1:2:0:0:
392,103,21932,1,14,0:2:0:0:
266,256,22098,1,0,1:2:0:0:
266,256,22181,1,8,0:2:0:0:
266,256,22263,2,0,B|162:261|220:324|82:331,1,185.640001133057,8|4,0:0|1:2,0:0:0:0:
199,158,22761,5,2,0:2:0:0:
199,158,22926,2,0,P|184:89|182:54,1,74.6200011386109,2|0,3:2|3:2,0:0:0:0:
336,42,23258,2,0,P|330:78|320:114,1,74.6200011386109,2|0,0:2|1:2,0:0:0:0:
208,49,23589,1,2,3:2:0:0:
289,195,23755,2,0,P|294:231|304:267,1,74.6200011386109,10|0,0:2|1:2,0:0:0:0:
398,159,24087,1,2,0:2:0:0:
395,300,24252,2,0,P|389:336|379:372,1,74.6200011386109,10|2,0:2|3:2,0:0:0:0:
277,263,24584,2,0,P|267:226|261:190,1,74.6200011386109,2|2,1:2|1:2,0:0:0:0:
400,37,24915,1,14,0:2:0:0:
400,37,25247,6,0,B|275:33|348:97|197:88,1,185.640001133057,6|8,1:2|0:2,0:0:0:0:
105,226,25744,1,0,1:2:0:0:
105,226,25827,1,8,0:2:0:0:
105,226,25910,2,0,P|121:165|124:121,1,92.8200005665283,2|0,1:2|1:2,0:0:0:0:
270,297,26241,1,8,0:2:0:0:
380,128,26407,1,0,1:2:0:0:
380,128,26490,1,8,0:2:0:0:
380,128,26573,6,0,P|385:174|398:218,1,92.8200005665283,2|0,1:2|1:2,0:0:0:0:
241,48,26904,1,8,0:2:0:0:
142,243,27070,1,0,1:2:0:0:
142,243,27153,1,8,0:2:0:0:
142,243,27236,1,2,1:2:0:0:
269,168,27402,1,0,1:2:0:0:
110,50,27567,2,0,P|110:118|85:278,1,185.640001133057,10|4,0:2|1:2,0:0:0:0:
251,331,28065,5,2,0:2:0:0:
251,331,28230,2,0,P|297:313|337:308,1,74.6200011386109,2|0,3:2|3:2,0:0:0:0:
423,208,28562,2,0,P|386:200|352:185,1,74.6200011386109,2|0,0:2|1:2,0:0:0:0:
255,76,28893,1,2,3:2:0:0:
399,122,29059,2,0,P|364:136|328:144,1,74.6200011386109,10|0,0:2|1:2,0:0:0:0:
235,52,29391,1,2,0:2:0:0:
212,185,29556,1,10,0:2:0:0:
112,91,29722,1,2,3:2:0:0:
247,174,29888,1,2,1:2:0:0:
96,224,30054,1,2,1:2:0:0:
248,20,30219,1,14,0:2:0:0:
248,20,30551,6,0,P|268:142|274:228,1,185.640001133057,6|8,1:2|0:2,0:0:0:0:
406,315,31048,1,0,1:2:0:0:
406,315,31131,1,8,0:2:0:0:
406,315,31214,2,0,P|415:245|423:206,1,92.8200005665283,2|0,1:2|1:2,0:0:0:0:
272,341,31545,1,8,0:2:0:0:
178,163,31711,1,0,1:2:0:0:
178,163,31794,1,8,0:2:0:0:
178,163,31877,6,0,P|187:233|195:272,1,92.8200005665283,2|0,1:2|1:2,0:0:0:0:
340,117,32208,1,8,0:2:0:0:
189,35,32374,1,0,1:2:0:0:
189,35,32457,1,8,0:2:0:0:
189,35,32540,1,2,1:2:0:0:
371,106,32705,1,0,1:2:0:0:
107,115,32871,1,10,0:2:0:0:
431,207,33203,6,0,P|364:217|270:241,1,149.240002277222,6|8,1:2|0:2,0:0:0:0:
91,147,33700,2,0,P|164:135|237:117,1,149.240002277222,0|0,1:2|1:2,0:0:0:0:
379,73,34197,2,0,P|327:58|287:50,1,74.6200011386109,0|8,3:2|0:2,0:0:0:0:
220,252,34529,2,0,P|154:270|77:228,1,149.240002277222,2|10,1:2|0:2,0:0:0:0:
225,118,35026,1,2,1:2:0:0:
302,268,35192,1,2,0:2:0:0:
159,180,35357,1,2,1:2:0:0:
297,38,35523,1,14,0:2:0:0:
299,172,35689,1,2,0:2:0:0:
127,31,35855,6,0,P|125:137|116:238,1,185.640001133057,6|8,1:2|0:2,0:0:0:0:
252,336,36352,1,0,1:2:0:0:
252,336,36435,1,8,0:2:0:0:
252,336,36518,2,0,P|232:281|223:228,1,92.8200005665283,2|0,1:2|1:2,0:0:0:0:
117,353,36849,1,8,0:2:0:0:
158,145,37015,1,0,1:2:0:0:
158,145,37098,1,8,0:2:0:0:
158,145,37181,6,0,P|138:200|129:253,1,92.8200005665283,2|0,1:2|1:2,0:0:0:0:
274,91,37512,1,8,0:2:0:0:
337,246,37678,1,0,1:2:0:0:
337,246,37761,1,8,0:2:0:0:
337,246,37844,2,0,P|392:236|430:212,1,92.8200005665283,2|0,1:2|1:2,0:0:0:0:
365,33,38175,2,0,P|310:43|272:67,1,92.8200005665283,10|0,0:2|0:0,0:0:0:0:
137,267,38507,6,0,P|128:206|90:102,1,149.240002277222,6|8,1:2|0:2,0:0:0:0:
299,306,39004,2,0,P|308:245|346:141,1,149.240002277222,0|0,1:2|1:2,0:0:0:0:
206,41,39501,2,0,P|216:109|219:147,1,74.6200011386109,0|8,3:2|0:2,0:0:0:0:
358,31,39833,2,0,P|425:52|441:144,1,149.240002277222,2|10,1:2|0:2,0:0:0:0:
291,248,40330,1,2,1:2:0:0:
358,121,40496,1,2,0:2:0:0:
309,280,40661,1,2,1:2:0:0:
224,69,40827,1,14,0:2:0:0:
178,220,40993,1,2,0:2:0:0:
109,47,41159,6,0,P|216:27|304:10,1,185.640001133057,6|8,1:2|0:2,0:0:0:0:
377,113,41656,1,0,1:2:0:0:
377,113,41739,1,8,0:2:0:0:
377,113,41821,2,0,P|321:94|286:88,1,92.8200005665283,2|0,1:2|1:2,0:0:0:0:
406,211,42153,1,8,0:2:0:0:
186,189,42319,1,0,1:2:0:0:
186,189,42402,1,8,0:2:0:0:
186,189,42484,6,0,P|242:170|283:169,1,92.8200005665283,2|0,1:2|1:2,0:0:0:0:
153,288,42816,1,8,0:2:0:0:
394,300,42982,1,0,1:2:0:0:
394,300,43065,1,8,0:2:0:0:
394,300,43147,2,0,P|338:281|301:275,1,92.8200005665283,2|0,1:2|1:2,0:0:0:0:
137,315,43479,2,0,P|132:282|118:244,1,46.4100002832642,10|8,0:2|0:0,0:0:0:0:
236,206,43645,2,0,P|232:224|231:263,1,46.4100002832642,10|8,0:0|0:0,0:0:0:0:
126,159,43810,6,0,P|116:122|102:73,1,83.7199971895753,6|0,1:2|0:2,0:0:0:0:
279,33,44142,2,0,P|267:73|256:113,1,83.7199971895753,10|0,0:2|0:2,0:0:0:0:
117,46,44473,1,2,1:2:0:0:
289,135,44639,1,2,1:2:0:0:
84,73,44805,2,0,P|95:113|106:153,1,83.7199971895753,10|2,0:2|0:2,0:0:0:0:
254,53,45136,5,2,1:2:0:0:
205,211,45302,1,2,0:2:0:0:
382,139,45468,1,10,0:2:0:0:
289,135,45634,1,2,0:2:0:0:
368,298,45799,2,0,P|382:241|395:200,1,83.7199971895753,2|0,1:2|1:2,0:0:0:0:
178,180,46131,2,0,P|189:220|199:260,1,83.7199971895753,10|0,0:2|0:2,0:0:0:0:
327,57,46462,5,6,1:2:0:0:
327,57,46628,2,0,P|280:29|223:30,1,83.7199971895753,2|8,1:2|0:2,0:0:0:0:
64,190,46960,2,0,B|174:183|99:128|249:128,1,167.439994379151,6|0,1:2|1:2,0:0:0:0:
382,246,47457,1,10,0:2:0:0:
339,85,47623,1,2,0:2:0:0:
280,297,47788,5,6,1:2:0:0:
280,297,47954,2,0,P|222:277|193:271,1,83.7199971895753,2|8,1:2|0:2,0:0:0:0:
68,101,48286,2,0,P|149:82|232:84,1,167.439994379151,6|0,1:2|1:2,0:0:0:0:
349,219,48783,1,10,0:2:0:0:
179,175,48949,1,2,0:2:0:0:
360,83,49114,6,0,P|370:158|375:182,1,83.7199971895753,6|0,1:2|0:2,0:0:0:0:
204,276,49446,2,0,P|211:234|215:193,1,83.7199971895753,10|0,0:2|0:2,0:0:0:0:
363,304,49777,1,2,1:2:0:0:
242,163,49943,1,2,1:2:0:0:
339,325,50109,1,10,0:2:0:0:
268,135,50275,1,2,0:2:0:0:
178,316,50440,6,0,P|130:338|84:339,1,83.7199971895753,2|2,1:2|0:2,0:0:0:0:
289,246,50772,1,10,0:2:0:0:
127,177,50938,1,2,0:2:0:0:
295,104,51103,1,2,1:2:0:0:
110,206,51269,1,0,1:2:0:0:
324,124,51435,2,0,P|329:207|334:239,1,83.7199971895753,10|0,0:2|0:2,0:0:0:0:
161,33,51766,5,6,1:2:0:0:
161,33,51932,2,0,P|112:74|94:115,1,83.7199971895753,2|8,1:2|0:2,0:0:0:0:
272,299,52263,2,0,P|295:215|245:134,1,167.439994379151,6|0,1:2|1:2,0:0:0:0:
154,292,52761,1,10,0:2:0:0:
91,124,52926,1,2,0:2:0:0:
332,220,53092,5,6,1:2:0:0:
332,220,53258,2,0,P|399:200|426:196,1,83.7199971895753,2|8,1:2|0:2,0:0:0:0:
209,44,53589,2,0,P|154:76|133:178,1,167.439994379151,6|0,1:2|1:2,0:0:0:0:
273,340,54087,1,10,0:2:0:0:
390,88,54252,5,10,0:2:0:0:
390,88,54335,1,8,0:0:0:0:
390,88,54418,2,0,B|272:78|330:149|198:142,1,185.640001133057,6|8,1:2|0:2,0:0:0:0:
367,179,54915,1,0,0:2:0:0:
209,41,55081,2,0,P|200:109|193:146,1,92.8200005665283,2|0,1:2|1:2,0:0:0:0:
272,249,55413,1,10,0:2:0:0:
105,111,55578,1,2,1:2:0:0:
188,321,55744,6,0,P|243:235|226:154,2,185.640001133057,0|8|2,1:2|0:2|1:2,0:0:0:0:
142,211,56573,1,0,1:2:0:0:
306,310,56739,1,10,0:2:0:0:
121,235,56904,1,2,1:2:0:0:
305,131,57070,6,0,P|314:193|321:225,1,92.8200005665283,0|0,1:2|0:2,0:0:0:0:
116,123,57402,2,0,P|125:77|131:31,1,92.8200005665283,10|0,0:2|0:2,0:0:0:0:
321,119,57733,2,0,P|330:181|337:213,1,92.8200005665283,2|0,1:2|1:2,0:0:0:0:
230,42,58065,1,10,0:2:0:0:
449,62,58230,6,0,P|440:124|433:156,1,92.8200005665283,2|0,1:2|1:2,0:0:0:0:
342,16,58562,1,2,0:2:0:0:
295,203,58728,1,10,0:2:0:0:
358,49,58893,1,2,0:2:0:0:
267,225,59059,2,0,P|257:179|251:133,1,92.8200005665283,2|0,1:2|1:2,0:0:0:0:
355,287,59391,1,8,0:2:0:0:
175,198,59556,1,2,1:2:0:0:
391,114,59722,6,0,P|340:58|244:50,1,167.439994379151,4|8,1:2|0:0,0:0:0:0:
140,179,60219,1,4,0:3:0:0:
140,179,60302,1,4,0:3:0:0:
140,179,60385,2,0,P|147:244|153:302,1,83.7199971895753,4|4,0:3|0:3,0:0:0:0:
290,138,60717,1,8,0:0:0:0:
175,292,60882,1,2,1:2:0:0:
332,152,61048,6,0,P|325:217|319:275,1,83.7199971895753,0|0,1:0|0:0,0:0:0:0:
335,264,61297,2,0,P|342:324|345:346,1,41.8599985947876,2|8,0:0|0:0,0:0:0:0:
192,186,61545,1,4,0:3:0:0:
192,186,61628,1,0,0:0:0:0:
191,185,61711,2,0,P|187:143|183:102,1,83.7199971895753,4|4,0:3|0:3,0:0:0:0:
104,276,62042,1,12,0:0:0:0:
279,222,62208,1,2,1:2:0:0:
113,48,62374,5,10,0:2:0:0:
242,310,62540,1,10,0:0:0:0:
433,65,62705,1,10,0:0:0:0:
70,292,63037,5,10,0:0:0:0:
475,197,63368,5,10,0:0:0:0:
143,60,63534,1,10,0:0:0:0:
372,374,63866,5,10,0:0:0:0:
296,80,64031,1,10,0:0:0:0:
214,343,64197,1,10,0:0:0:0:
129,19,64363,1,10,0:0:0:0:
450,154,65026,6,0,B|320:132|381:233|238:232,1,203.840002488281,6|8,1:2|0:2,0:0:0:0:
60,127,65523,2,0,P|79:185|84:204,1,50.9600006220703,2|8,1:2|0:2,0:0:0:0:
109,330,65689,2,0,B|171:327|197:280|197:280|233:324|321:316,1,203.840002488281,2|8,1:2|0:2,0:0:0:0:
375,52,66186,1,2,0:2:0:0:
272,229,66352,6,0,P|257:123|225:16,1,203.840002488281,2|8,1:2|0:2,0:0:0:0:
115,240,66849,1,2,1:2:0:0:
308,136,67015,1,2,1:2:0:0:
141,52,67181,1,2,1:2:0:0:
314,226,67346,1,10,0:2:0:0:
88,261,67512,1,2,0:2:0:0:
269,36,67678,6,0,P|362:44|407:163,1,203.840002488281,2|8,1:2|0:2,0:0:0:0:
262,335,68175,2,0,P|245:279|230:260,1,50.9600006220703,2|8,1:2|0:2,0:0:0:0:
132,122,68341,2,0,B|194:125|220:172|220:172|256:128|344:136,1,203.840002488281,2|8,1:2|0:2,0:0:0:0:
108,276,68838,1,2,0:2:0:0:
269,36,69004,6,0,P|362:44|407:163,1,203.840002488281,2|8,1:2|0:2,0:0:0:0:
291,304,69501,1,2,1:2:0:0:
130,156,69667,1,2,1:2:0:0:
307,135,69833,1,2,1:2:0:0:
100,307,69998,1,10,0:2:0:0:
135,117,70164,1,2,0:2:0:0:
340,306,70330,6,0,B|333:189|412:256|398:93,1,203.840002488281,6|8,1:2|0:2,0:0:0:0:
211,45,70827,2,0,P|236:106|238:118,1,50.9600006220703,2|8,1:2|0:2,0:0:0:0:
240,280,70993,2,0,B|178:277|152:230|152:230|116:274|28:266,1,203.840002488281,2|8,1:2|0:2,0:0:0:0:
135,117,71490,1,2,0:2:0:0:
285,350,71656,6,0,P|296:255|316:144,1,203.840002488281,2|8,1:2|0:2,0:0:0:0:
146,277,72153,1,2,1:2:0:0:
349,227,72319,1,2,1:2:0:0:
171,132,72484,1,2,1:2:0:0:
366,59,72650,1,10,0:2:0:0:
180,258,72816,2,0,P|171:195|157:150,1,101.920001244141,2|0,0:2|1:0,0:0:0:0:
337,34,73147,5,2,1:2:0:0:
311,246,73313,1,10,0:2:0:0:
135,98,73479,2,0,P|121:162|120:186,1,50.9600006220703,2|8,1:2|0:2,0:0:0:0:
144,352,73645,2,0,B|206:349|232:302|232:302|268:346|356:338,1,203.840002488281,2|10,1:2|0:0,0:0:0:0:
375,59,74142,6,0,P|389:126|404:193,1,101.920001244141,6|0,1:2|0:0,0:0:0:0:
177,18,74473,1,10,0:0:0:0:
110,288,74639,1,10,0:0:0:0:
416,185,74805,2,0,P|405:249|400:277,1,50.9600006220703,10|8,0:0|0:0,0:0:0:0:
253,115,74971,1,10,0:0:0:0:
350,344,75136,1,10,0:0:0:0:
406,41,75302,1,10,0:0:0:0:
231,279,75468,5,10,0:0:0:0:
231,279,75551,1,8,0:0:0:0:
231,279,75634,2,0,B|105:248|211:195|37:149,1,203.840002488281,6|8,1:2|0:2,0:0:0:0:
234,48,76131,2,0,P|247:116|255:138,1,50.9600006220703,2|8,1:2|0:2,0:0:0:0:
408,178,76297,2,0,B|356:185|320:141|320:141|294:188|232:191,1,203.840002488281,2|8,1:2|0:2,0:0:0:0:
405,77,76794,1,2,0:2:0:0:
296,311,76960,6,0,P|189:288|64:272,1,203.840002488281,2|8,1:2|0:2,0:0:0:0:
322,142,77457,1,2,1:2:0:0:
194,323,77623,1,2,1:2:0:0:
107,102,77788,1,2,1:2:0:0:
303,268,77954,1,10,0:2:0:0:
62,277,78120,1,2,0:2:0:0:
241,75,78286,6,0,P|314:26|425:59,1,203.840002488281,2|8,1:2|0:2,0:0:0:0:
189,203,78783,2,0,P|204:262|204:279,1,50.9600006220703,2|8,1:2|0:2,0:0:0:0:
338,139,78949,2,0,P|436:134|505:205,1,203.840002488281,2|8,1:2|0:2,0:0:0:0:
288,342,79446,1,2,0:2:0:0:
147,99,79612,6,0,P|174:233|187:327,1,203.840002488281,2|8,1:2|0:2,0:0:0:0:
322,102,80109,1,2,1:2:0:0:
131,241,80275,1,2,1:2:0:0:
328,325,80440,1,2,1:2:0:0:
181,83,80606,1,10,0:2:0:0:
113,277,80772,1,2,0:2:0:0:
456,223,80938,6,0,B|326:212|397:299|240:294,1,203.840002488281,6|8,1:2|0:2,0:0:0:0:
98,143,81435,2,0,P|127:197|132:217,1,50.9600006220703,2|8,1:2|0:2,0:0:0:0:
102,359,81600,2,0,B|153:366|189:322|189:322|215:369|277:372,1,203.840002488281,2|8,1:2|0:2,0:0:0:0:
113,277,82098,1,2,0:2:0:0:
265,178,82263,6,0,L|275:285,1,101.920001244141,2|0,1:2|0:0,0:0:0:0:
98,143,82595,1,8,0:2:0:0:
260,61,82761,1,2,1:2:0:0:
130,243,82926,1,2,1:2:0:0:
252,32,83092,1,2,1:2:0:0:
371,244,83258,1,14,0:2:0:0:
166,54,83424,2,0,P|181:128|189:185,1,101.920001244141,2|0,0:2|1:0,0:0:0:0:
346,74,83755,1,2,1:2:0:0:
130,243,83921,5,10,0:2:0:0:
392,208,84087,1,2,1:2:0:0:
88,165,84252,1,10,0:0:0:0:
428,283,84418,1,0,1:0:0:0:
257,66,84584,1,10,0:0:0:0:
161,323,84750,6,0,P|155:254|142:197,1,101.920001244141,6|0,1:2|0:0,0:0:0:0:
340,111,85081,1,10,0:0:0:0:
340,111,85164,1,8,0:0:0:0:
340,111,85247,2,0,P|331:161|327:211,1,101.920001244141,10|2,0:0|0:0,0:0:0:0:
163,76,85578,1,2,1:2:0:0:
276,321,85744,1,10,0:0:0:0:
432,72,85910,1,10,0:0:0:0:
206,271,86076,1,10,0:0:0:0:
206,271,86159,1,8,0:0:0:0:
206,271,86241,1,4,1:2:0:0:
256,192,86324,12,0,89391,0:0:0:0:
425,270,90882,6,0,B|355:291|302:222|302:222|271:301|177:309,1,278.460001699585,2|0,1:2|0:0,0:0:0:0:
87,54,91545,6,0,P|84:136|75:248,1,185.640001133057,4|8,1:2|0:2,0:0:0:0:
194,125,92042,1,0,1:2:0:0:
194,125,92125,1,8,0:2:0:0:
194,125,92208,2,0,P|208:209|214:250,1,92.8200005665283,0|0,1:2|1:2,0:0:0:0:
325,69,92540,2,0,P|317:114|309:160,1,92.8200005665283,8|0,0:2|0:2,0:0:0:0:
443,274,92871,6,0,B|325:280|397:349|257:356,1,185.640001133057,2|8,1:2|0:2,0:0:0:0:
103,289,93368,1,0,1:2:0:0:
103,289,93451,1,8,0:2:0:0:
103,289,93534,2,0,P|111:226|109:183,1,92.8200005665283,0|0,1:2|1:2,0:0:0:0:
286,263,93866,2,0,P|278:200|280:157,1,92.8200005665283,8|0,0:2|0:2,0:0:0:0:
60,109,94197,6,0,P|118:38|214:51,1,185.640001133057,2|8,1:2|0:2,0:0:0:0:
315,156,94694,1,0,1:2:0:0:
315,156,94777,1,8,0:2:0:0:
315,156,94860,1,0,1:2:0:0:
160,120,95026,1,0,1:2:0:0:
361,54,95192,1,8,0:2:0:0:
206,236,95357,6,0,P|190:165|181:129,1,92.8200005665283,6|0,1:2|0:2,0:0:0:0:
339,288,95689,1,8,0:2:0:0:
445,80,95855,2,0,P|434:125|424:170,1,92.8200005665283,10|0,0:2|1:2,0:0:0:0:
251,41,96186,1,10,0:2:0:0:
251,41,96269,1,8,0:2:0:0:
251,41,96352,1,8,0:2:0:0:
325,256,96518,1,8,0:2:0:0:
160,120,96683,2,0,P|158:183|154:204,1,46.4100002832642,10|8,0:2|0:2,0:0:0:0:
142,337,96849,6,0,B|207:337|236:298|236:298|265:345|321:347,1,203.840002488281,6|8,1:2|0:2,0:0:0:0:
370,113,97346,1,2,0:2:0:0:
162,243,97512,1,10,0:2:0:0:
413,306,97678,1,0,1:2:0:0:
287,73,97844,1,8,0:2:0:0:
233,336,98009,1,2,1:2:0:0:
454,155,98175,6,0,B|328:139|388:227|248:219,1,203.840002488281,2|8,1:2|0:2,0:0:0:0:
98,46,98672,1,2,0:2:0:0:
287,121,98838,1,10,0:2:0:0:
74,235,99004,1,0,1:2:0:0:
227,15,99170,1,8,0:2:0:0:
357,241,99335,1,2,1:2:0:0:
118,68,99501,6,0,P|130:187|144:303,1,203.840002488281,2|8,1:2|0:2,0:0:0:0:
316,79,99998,1,2,0:2:0:0:
218,314,100164,1,10,0:2:0:0:
452,213,100330,1,0,1:2:0:0:
163,174,100496,1,8,0:2:0:0:
353,358,100661,1,2,1:2:0:0:
393,78,100827,5,10,0:0:0:0:
393,78,100993,2,0,P|335:49|291:49,1,101.920001244141,2|8,0:0|0:0,0:0:0:0:
196,329,101324,1,2,0:2:0:0:
374,176,101490,1,10,0:2:0:0:
137,129,101656,1,0,1:2:0:0:
315,357,101821,1,8,0:2:0:0:
274,67,101987,1,2,1:2:0:0:
110,358,102153,6,0,P|48:333|16:277,1,101.920001244141,6|0,1:2|0:2,0:2:0:0:
170,103,102484,1,8,0:2:0:0:
319,266,102650,1,2,1:2:0:0:
36,199,102816,1,10,0:2:0:0:
253,35,102982,1,0,1:2:0:0:
216,310,103147,1,8,0:2:0:0:
147,9,103313,1,2,1:2:0:0:
407,225,103479,6,0,P|433:286|428:341,1,101.920001244141,10|0,0:2|0:2,0:2:0:0:
191,204,103810,1,8,0:2:0:0:
387,82,103976,1,2,1:2:0:0:
302,368,104142,1,10,0:2:0:0:
79,188,104308,1,0,1:2:0:0:
348,64,104473,1,8,0:2:0:0:
277,337,104639,1,2,1:2:0:0:
160,23,104805,5,2,1:2:0:0:
361,184,104971,2,0,P|343:250|344:267,3,50.9600006220703,8|8|8|8,0:2|0:2|0:2|0:2,0:0:0:0:
239,119,105302,2,0,P|180:96|153:100,1,50.9600006220703,2|0,1:2|1:2,0:0:0:0:
383,202,105468,2,0,P|365:268|366:285,3,50.9600006220703,8|8|8|8,0:2|0:2|0:2|0:2,0:0:0:0:
212,131,105799,2,0,P|153:108|126:112,1,50.9600006220703,0|0,1:2|1:2,0:0:0:0:
238,254,105965,6,0,P|245:282|249:310,1,50.9600006220703,10|8,0:2|0:2,0:0:0:0:
90,192,106131,2,0,P|43:179|9:186,3,50.9600006220703,10|8|0|0,0:2|0:2|1:2|1:2,0:0:0:0:
258,267,106462,2,0,P|265:295|269:323,1,50.9600006220703,0|0,1:2|1:2,0:0:0:0:
352,75,106628,6,0,P|394:57|444:56,1,50.9600006220703,10|8,0:2|0:2,0:0:0:0:
319,203,106794,2,0,P|276:185|242:187,1,50.9600006220703,6|8,1:2|0:2,0:0:0:0:
239,69,106960,6,0,P|224:11|213:-13,1,50.9600006220703,8|8,0:2|0:2,0:0:0:0:
440,209,107126,2,0,P|423:264|423:289,1,50.9600006220703,8|8,1:2|0:2,0:0:0:0:
216,87,107291,6,0,P|201:29|190:5,1,50.9600006220703,10|8,0:2|0:2,0:0:0:0:
417,185,107457,2,0,P|401:234|395:294,1,94.6399994223633,2|0,0:2|0:2,0:0:0:0:
