osu file format v14

[General]
AudioFilename: audio.mp3
AudioLeadIn: 0
PreviewTime: 64446
Countdown: 0
SampleSet: Soft
StackLeniency: 0.7
Mode: 0
LetterboxInBreaks: 0
WidescreenStoryboard: 1

[Editor]
DistanceSpacing: 1
BeatDivisor: 4
GridSize: 32
TimelineZoom: 1

[Metadata]
Title:Idola no Circus
TitleUnicode:イドラのサーカス
Artist:Himeringo
ArtistUnicode:ひめりんご
Creator:Sotarks
Version:Akitoshi's Normal
Source:
Tags:Neru Vocaloid Kagamine Rin GUHROOVY narangd Nico Douga jap japanese rock jrock short cut edit ver version female vocals vocalist reform kujinn akitoshi corinn -laura-
BeatmapID:1886664
BeatmapSetID:903106

[Difficulty]
HPDrainRate:4
CircleSize:3.2
OverallDifficulty:4
ApproachRate:5
SliderMultiplier:0.999999999999999
SliderTickRate:1

[Events]
//Background and Video events
0,0,"bg.jpg",0,0
//Break Periods
//Storyboard Layer 0 (Background)
//Storyboard Layer 1 (Fail)
//Storyboard Layer 2 (Pass)
//Storyboard Layer 3 (Foreground)
//Storyboard Sound Samples

[TimingPoints]
1380,331.491712707182,4,2,22,52,1,0
1380,-125,4,2,22,52,0,0
10496,-111.111111111111,4,2,22,72,0,0
10827,-111.111111111111,4,2,22,52,0,0
10993,-111.111111111111,4,2,22,62,0,0
11324,-111.111111111111,4,2,22,72,0,0
11987,-100,4,2,22,82,0,0
22595,-100,4,2,22,62,0,0
25247,-100,4,2,22,82,0,0
27899,-100,4,2,22,62,0,0
30551,-100,4,2,22,82,0,0
33203,-100,4,2,22,62,0,0
35855,-100,4,2,22,82,0,0
38507,-100,4,2,22,62,0,0
41159,-100,4,2,22,82,0,0
43810,-100,4,2,22,72,0,0
54418,-100,4,2,22,82,0,0
59722,-100,4,2,22,82,0,0
65026,-95.2380952380952,4,2,22,92,0,1
86241,-95.2380952380952,4,2,22,92,0,0
96849,-95.2380952380952,4,2,22,92,0,1
107457,-100,4,2,22,72,0,0
107788,-100,4,2,22,22,0,0

[Colours]
Combo1 : 36,251,203
Combo2 : 125,251,0
Combo3 : 255,243,17
Combo4 : 255,140,13

[HitObjects]
105,154,1380,6,0,L|194:142,1,79.9999999999999,6|2,0:2|3:2,0:0:0:0:
246,93,2042,2,0,P|225:140|245:219,2,120,2|2|2,0:2|0:2|3:2,0:0:0:0:
299,33,3368,1,2,0:2:0:0:
378,23,3700,1,2,3:2:0:0:
447,61,4031,6,0,P|443:102|438:147,1,79.9999999999999,2|2,0:2|3:2,0:0:0:0:
395,207,4694,2,0,P|401:270|408:335,2,120,2|2|2,0:2|0:2|3:2,0:0:0:0:
332,156,6020,2,0,P|282:154|248:167,1,79.9999999999999,2|2,0:2|3:2,0:0:0:0:
179,192,6683,6,0,P|129:194|95:181,1,79.9999999999999,6|2,0:2|3:2,0:0:0:0:
52,120,7346,2,0,L|40:241,2,120,2|2|2,0:2|0:2|3:2,0:0:0:0:
73,42,8672,1,2,0:2:0:0:
150,20,9004,1,2,3:2:0:0:
224,49,9335,6,0,P|261:56|315:46,1,79.9999999999999,2|2,0:2|3:2,0:0:0:0:
380,29,9998,2,0,L|387:118,1,79.9999999999999,2|2,0:2|3:2,0:0:0:0:
413,144,10496,6,0,B|425:189|425:189|412:240,1,89.999997253418,6|0,1:2|1:2,0:0:0:0:
399,273,10993,1,8,1:2:0:0:
325,324,11324,2,0,L|274:320,1,44.999998626709,10|8,1:2|1:2,0:0:0:0:
239,301,11656,2,0,L|188:305,1,44.999998626709,10|8,1:2|1:2,0:0:0:0:
144,307,11987,6,0,P|126:260|138:197,1,99.9999999999999,2|10,1:2|0:2,0:0:0:0:
195,134,12650,2,0,L|189:80,2,50,10|0|10,0:2|1:2|0:2,0:0:0:0:
223,175,13147,2,0,P|272:180|318:162,1,99.9999999999999,0|0,1:2|0:2,0:0:0:0:
357,130,13645,1,10,0:2:0:0:
448,170,13976,2,0,L|456:234,1,50,10|2,0:2|1:2,0:0:0:0:
472,266,14308,2,0,L|464:330,1,50,10|2,0:2|1:2,0:0:0:0:
451,363,14639,6,0,P|401:373|343:358,1,99.9999999999999,2|10,1:2|0:2,0:0:0:0:
282,292,15302,2,0,L|213:299,2,50,10|0|10,0:2|1:2|0:2,0:0:0:0:
324,266,15799,2,0,P|333:217|323:168,1,99.9999999999999,0|0,1:2|0:2,0:0:0:0:
294,128,16297,1,10,0:2:0:0:
205,81,16628,2,0,L|212:20,2,50,10|2|10,0:2|1:2|0:2,0:0:0:0:
119,133,17291,6,0,P|126:183|134:236,1,99.9999999999999,2|10,1:2|0:2,0:0:0:0:
202,304,17954,2,0,L|195:365,2,50,10|0|10,0:2|1:2|0:2,0:0:0:0:
242,274,18451,2,0,P|288:291|350:283,1,99.9999999999999,0|0,1:2|0:2,0:0:0:0:
386,273,18949,1,10,0:2:0:0:
478,234,19280,2,0,L|473:182,1,50,10|2,0:2|1:2,0:0:0:0:
442,144,19612,2,0,L|447:92,1,50,10|2,0:2|0:0,0:0:0:0:
450,44,19943,5,4,1:2:0:0:
353,17,20275,1,10,0:2:0:0:
263,62,20606,2,0,L|193:56,2,50,10|10|10,0:2|0:2|0:2,0:0:0:0:
297,97,21103,2,0,P|293:149|288:208,1,99.9999999999999,6|2,1:2|1:2,0:0:0:0:
283,246,21600,1,10,0:2:0:0:
210,314,21932,2,0,P|159:325|98:307,1,99.9999999999999,14|8,0:2|0:0,0:0:0:0:
42,244,22595,6,0,B|19:134|19:134|52:93,2,150,4|0|2,1:2|3:2|3:2,0:0:0:0:
138,217,23921,2,0,B|161:107|161:107|137:77,2,150,0|2|14,1:2|3:2|0:2,0:0:0:0:
42,244,25247,6,0,P|10:286|8:354,2,99.9999999999999,6|8|2,1:2|0:2|1:2,0:0:0:0:
138,217,26241,1,8,0:2:0:0:
221,272,26573,2,0,P|267:266|328:260,1,99.9999999999999,2|8,1:2|0:2,0:0:0:0:
419,245,27236,1,2,1:2:0:0:
475,162,27567,1,10,0:2:0:0:
414,82,27899,6,0,B|359:56|308:68|308:68|281:109,2,150,4|0|2,1:2|3:2|3:2,0:0:0:0:
475,162,29225,2,0,B|501:217|489:268|489:268|448:295,2,150,0|2|14,1:2|3:2|0:2,0:0:0:0:
375,169,30551,6,0,P|323:190|272:187,2,99.9999999999999,6|8|2,1:2|0:2|1:2,0:0:0:0:
414,82,31545,1,8,0:2:0:0:
334,21,31877,2,0,P|265:33|230:40,1,99.9999999999999,2|8,1:2|0:2,0:0:0:0:
138,64,32540,1,2,1:2:0:0:
89,151,32871,1,10,0:2:0:0:
132,241,33203,6,0,B|143:296|105:333|105:333|120:354|126:379,2,150,6|0|0,1:2|1:2|3:2,0:0:0:0:
210,178,34529,2,0,B|199:123|237:86|237:86|222:65|216:40,2,150,2|2|14,1:2|1:2|0:2,0:0:0:0:
276,252,35855,6,0,P|336:240|381:249,2,99.9999999999999,6|8|2,1:2|0:2|1:2,0:0:0:0:
187,297,36849,1,8,0:2:0:0:
92,263,37181,2,0,P|80:203|89:158,1,99.9999999999999,2|8,1:2|0:2,0:0:0:0:
141,81,37844,2,0,P|201:69|246:78,1,99.9999999999999,2|10,1:2|0:2,0:0:0:0:
323,128,38507,6,0,B|346:118|373:122|373:122|404:139|404:139|426:127|472:129,2,150,6|0|0,1:2|1:2|3:2,0:0:0:0:
254,200,39833,2,0,B|231:190|204:194|204:194|173:211|173:211|151:199|105:201,2,150,2|2|14,1:2|1:2|0:2,0:0:0:0:
333,260,41159,6,0,P|350:316|343:365,2,99.9999999999999,6|8|2,1:2|0:2|1:2,0:0:0:0:
254,200,42153,1,8,0:2:0:0:
170,254,42484,2,0,P|112:245|56:237,1,99.9999999999999,2|8,1:2|0:2,0:0:0:0:
1,167,43147,1,2,1:2:0:0:
52,81,43479,2,0,L|115:73,1,50,10|10,0:2|0:0,0:0:0:0:
151,69,43810,6,0,P|201:83|254:69,1,99.9999999999999,6|10,1:2|0:2,0:0:0:0:
335,25,44473,1,2,1:2:0:0:
430,56,44805,1,10,0:2:0:0:
480,142,45136,2,0,L|470:244,1,99.9999999999999,2|10,1:2|0:2,0:0:0:0:
451,339,45799,1,2,1:2:0:0:
355,368,46131,1,10,0:2:0:0:
261,332,46462,6,0,P|241:273|253:222,1,99.9999999999999,6|8,1:2|0:2,0:0:0:0:
274,194,46960,2,0,P|264:109|261:76,1,99.9999999999999,6|0,1:2|1:2,0:0:0:0:
255,45,47457,1,10,0:2:0:0:
156,26,47788,2,0,P|108:44|51:36,1,99.9999999999999,6|8,1:2|0:2,0:0:0:0:
14,18,48286,2,0,P|8:68|2:118,1,99.9999999999999,6|0,1:2|1:2,0:0:0:0:
0,168,48783,1,10,0:2:0:0:
49,254,49114,6,0,P|110:250|157:277,1,99.9999999999999,6|10,1:2|0:2,0:0:0:0:
233,311,49777,1,2,1:2:0:0:
333,311,50109,1,10,0:2:0:0:
422,265,50440,2,0,P|440:218|433:169,1,99.9999999999999,2|10,1:2|0:2,0:0:0:0:
393,78,51103,1,2,1:2:0:0:
298,44,51435,1,10,0:2:0:0:
204,79,51766,6,0,P|209:133|215:195,1,99.9999999999999,6|8,1:2|0:2,0:0:0:0:
217,228,52263,2,0,P|167:249|105:249,1,99.9999999999999,6|0,1:2|1:2,0:0:0:0:
71,244,52761,1,10,0:2:0:0:
5,168,53092,2,0,P|9:118|14:68,1,99.9999999999999,6|8,1:2|0:2,0:0:0:0:
21,18,53589,2,0,P|66:36|129:33,1,99.9999999999999,6|0,1:2|1:2,0:0:0:0:
165,24,54087,2,0,L|235:23,1,50,10|10,0:2|0:2,0:0:0:0:
265,23,54418,6,0,P|280:78|267:133,1,99.9999999999999,6|8,1:2|0:2,0:0:0:0:
209,197,55081,2,0,L|148:193,2,50,2|0|10,1:2|1:2|0:2,0:0:0:0:
253,220,55578,2,0,P|314:204|372:212,1,99.9999999999999,2|0,1:2|0:0,0:0:0:0:
398,222,56076,1,8,0:2:0:0:
457,302,56407,2,0,L|518:298,2,50,2|0|10,1:2|1:2|0:2,0:0:0:0:
420,335,56904,6,0,P|372:349|322:348,1,99.9999999999999,2|0,1:2|0:2,0:0:0:0:
274,336,57402,1,10,0:2:0:0:
216,254,57733,2,0,L|155:258,2,50,2|0|10,1:2|1:2|0:2,0:0:0:0:
253,220,58230,2,0,P|264:171|250:114,1,99.9999999999999,2|2,1:2|0:2,0:0:0:0:
227,80,58728,1,10,0:2:0:0:
129,57,59059,2,0,L|122:164,1,99.9999999999999,2|8,1:2|0:2,0:0:0:0:
93,198,59556,1,2,1:2:0:0:
93,198,59722,6,0,L|100:305,1,99.9999999999999,4|8,1:2|0:0,0:0:0:0:
178,360,60385,2,0,L|242:354,1,50,4|4,0:3|0:3,0:0:0:0:
277,347,60717,1,8,0:0:0:0:
352,281,61048,2,0,P|363:233|342:169,1,99.9999999999999,0|8,1:0|0:0,0:0:0:0:
274,120,61711,2,0,L|208:115,1,50,4|4,0:3|0:3,0:0:0:0:
174,109,62042,1,12,0:0:0:0:
86,158,62374,6,0,B|70:207|70:207|87:266,1,99.9999999999999,10|10,0:2|0:0,0:0:0:0:
167,307,63037,1,10,0:0:0:0:
270,297,63368,1,10,0:0:0:0:
270,297,63534,2,0,P|291:257|292:198,1,99.9999999999999,10|10,0:0|0:0,0:0:0:0:
281,154,64031,2,0,L|213:162,2,50,10|10|10,0:0|0:0|0:0,0:0:0:0:
491,188,65026,6,0,L|480:304,1,104.999996795654,6|8,1:2|0:2,0:0:0:0:
477,348,65523,1,2,1:2:0:0:
477,348,65689,2,0,P|425:326|369:335,1,104.999996795654,2|8,1:2|0:2,0:0:0:0:
332,354,66186,1,2,0:2:0:0:
332,354,66352,2,0,P|280:358|232:337,1,104.999996795654,2|8,1:2|0:2,0:0:0:0:
157,264,67015,1,2,1:2:0:0:
198,167,67346,1,10,0:2:0:0:
301,149,67678,6,0,P|314:102|293:35,1,104.999996795654,2|8,1:2|0:2,0:0:0:0:
263,23,68175,1,2,1:2:0:0:
263,23,68341,2,0,P|206:28|155:31,1,104.999996795654,2|8,1:2|0:2,0:0:0:0:
120,67,68838,1,2,0:2:0:0:
120,67,69004,2,0,P|63:62|12:59,1,104.999996795654,2|8,1:2|0:2,0:0:0:0:
0,164,69667,1,2,1:2:0:0:
84,226,69998,1,10,0:2:0:0:
176,175,70330,6,0,P|222:164|296:189,1,104.999996795654,6|8,1:2|0:2,0:0:0:0:
326,207,70827,1,2,1:2:0:0:
326,207,70993,2,0,P|376:194|427:205,1,104.999996795654,2|8,1:2|0:2,0:0:0:0:
501,279,71656,1,2,1:2:0:0:
425,352,71987,2,0,L|366:349,1,52.4999983978271,8|2,0:2|1:2,0:0:0:0:
320,341,72319,2,0,P|269:328|218:339,1,104.999996795654,2|10,1:2|0:2,0:0:0:0:
120,377,72982,6,0,P|114:310|110:253,1,104.999996795654,0|10,1:0|0:2,0:0:0:0:
180,192,73645,2,0,P|230:203|281:190,1,104.999996795654,2|10,1:2|0:0,0:0:0:0:
329,169,74142,2,0,B|346:118|346:118|324:61,1,104.999996795654,6|10,1:2|0:0,0:0:0:0:
299,25,74639,1,10,0:0:0:0:
194,15,74971,1,10,0:0:0:0:
130,98,75302,1,10,0:0:0:0:
180,192,75634,6,0,P|176:246|173:302,1,104.999996795654,6|8,1:2|0:2,0:0:0:0:
172,353,76131,1,2,1:2:0:0:
172,353,76297,2,0,P|223:339|284:347,1,104.999996795654,2|8,1:2|0:2,0:0:0:0:
330,359,76794,1,2,0:2:0:0:
330,359,76960,2,0,P|381:373|442:365,1,104.999996795654,2|8,1:2|0:2,0:0:0:0:
506,293,77623,1,2,1:2:0:0:
506,188,77954,1,10,0:2:0:0:
431,113,78286,6,0,P|382:130|320:119,1,104.999996795654,2|8,1:2|0:2,0:0:0:0:
284,111,78783,1,2,1:2:0:0:
284,111,78949,2,0,P|288:161|293:226,1,104.999996795654,2|8,1:2|0:2,0:0:0:0:
331,259,79446,1,2,0:2:0:0:
331,259,79612,2,0,P|326:309|322:374,1,104.999996795654,2|8,1:2|0:2,0:0:0:0:
217,371,80275,1,2,1:2:0:0:
119,333,80606,1,10,0:2:0:0:
79,235,80938,6,0,P|71:174|91:118,1,104.999996795654,6|8,1:2|0:2,0:0:0:0:
111,90,81435,1,2,1:2:0:0:
111,90,81600,2,0,P|161:102|213:93,1,104.999996795654,2|8,1:2|0:2,0:0:0:0:
311,55,82263,1,2,1:2:0:0:
397,114,82595,2,0,L|394:186,1,52.4999983978271,8|2,0:2|1:2,0:0:0:0:
388,218,82926,2,0,P|337:213|279:207,1,104.999996795654,2|14,1:2|0:2,0:0:0:0:
178,201,83589,6,0,P|164:251|172:306,1,104.999996795654,0|10,1:0|0:2,0:0:0:0:
249,373,84252,2,0,P|300:368|358:362,1,104.999996795654,10|10,0:0|0:0,0:0:0:0:
405,351,84750,2,0,P|420:301|415:249,1,104.999996795654,6|10,1:2|0:0,0:0:0:0:
391,202,85247,1,10,0:0:0:0:
320,124,85578,2,0,L|249:129,1,52.4999983978271,2|10,1:2|0:0,0:0:0:0:
220,151,85910,2,0,L|149:146,1,52.4999983978271,10|10,0:0|0:0,0:0:0:0:
115,145,86241,5,4,1:2:0:0:
256,192,86324,12,0,88893,0:0:0:0:
307,122,90882,6,0,B|272:101|234:98|234:98|199:104|161:143,1,157.499995193481,2|0,1:2|0:0,0:0:0:0:
147,187,91545,6,0,L|158:291,1,104.999996795654,4|8,1:2|0:2,0:0:0:0:
236,361,92208,1,0,1:2:0:0:
341,357,92540,1,8,0:2:0:0:
432,305,92871,2,0,P|445:249|434:195,1,104.999996795654,2|8,1:2|0:2,0:0:0:0:
390,108,93534,1,0,1:2:0:0:
296,60,93866,1,8,0:2:0:0:
199,101,94197,6,0,P|129:112|81:97,1,104.999996795654,2|8,1:2|0:2,0:0:0:0:
0,61,94860,2,0,P|8:124|16:181,1,104.999996795654,0|8,1:2|0:2,0:0:0:0:
21,217,95357,2,0,P|72:208|123:220,1,104.999996795654,6|8,1:2|0:2,0:0:0:0:
168,247,95855,1,10,0:2:0:0:
251,310,96186,2,0,L|317:304,1,52.4999983978271,10|8,0:2|0:2,0:0:0:0:
347,276,96518,2,0,L|413:282,1,52.4999983978271,8|10,0:2|0:2,0:0:0:0:
451,285,96849,6,0,P|466:231|449:167,1,104.999996795654,6|8,1:2|0:2,0:0:0:0:
433,144,97346,1,2,0:2:0:0:
433,144,97512,2,0,P|379:159|315:142,1,104.999996795654,10|8,0:2|0:2,0:0:0:0:
234,110,98175,2,0,P|228:195|226:224,1,104.999996795654,2|8,1:2|0:2,0:0:0:0:
226,271,98672,1,2,0:2:0:0:
226,271,98838,2,0,P|141:277|112:279,1,104.999996795654,10|8,0:2|0:2,0:0:0:0:
28,229,99501,6,0,P|15:173|26:125,1,104.999996795654,2|8,1:2|0:2,0:0:0:0:
47,82,99998,1,2,0:2:0:0:
47,82,100164,2,0,P|103:95|151:84,1,104.999996795654,10|8,0:2|0:2,0:0:0:0:
244,41,100827,2,0,P|296:43|359:46,1,104.999996795654,10|8,0:0|0:0,0:0:0:0:
405,56,101324,1,2,0:2:0:0:
405,56,101490,2,0,P|407:108|410:171,1,104.999996795654,10|8,0:2|0:2,0:0:0:0:
405,266,102153,5,6,1:2:0:0:
317,323,102484,1,8,0:2:0:0:
211,317,102816,1,10,0:2:0:0:
157,226,103147,1,8,0:2:0:0:
215,138,103479,2,0,P|229:83|215:31,1,104.999996795654,10|8,0:2|0:2,0:0:0:0:
113,33,104142,2,0,P|98:87|112:139,1,104.999996795654,10|8,0:2|0:2,0:0:0:0:
157,226,104805,6,0,L|283:233,1,104.999996795654,2|8,1:2|0:2,0:0:0:0:
309,254,105302,2,0,L|435:247,1,104.999996795654,2|8,1:2|0:2,0:0:0:0:
466,246,105799,2,0,P|477:197|463:136,1,104.999996795654,0|10,1:2|0:2,0:0:0:0:
436,100,106297,2,0,P|387:111|326:97,1,104.999996795654,0|10,1:2|0:2,0:0:0:0:
289,73,106794,1,6,1:2:0:0:
184,70,107125,1,8,1:2:0:0:
119,146,107457,6,0,B|121:163|121:163|122:173|124:185|124:185|126:198|128:211|128:211|128:219|130:227|130:227|132:240|133:251|133:251,1,99.9999999999999,2|0,0:2|0:2,0:0:0:0:
