osu file format v14

[General]
AudioFilename: audio.mp3
AudioLeadIn: 0
PreviewTime: 59357
Countdown: 0
SampleSet: Normal
StackLeniency: 0.7
Mode: 1
LetterboxInBreaks: 0
WidescreenStoryboard: 0

[Editor]
Bookmarks: 17222,28009,38795
DistanceSpacing: 1.2
BeatDivisor: 4
GridSize: 4
TimelineZoom: 0.9

[Metadata]
Title:Koi no Hime Hime Pettanko
TitleUnicode:恋のヒメヒメぺったんこ
Artist:Himeno Kotori (cv. Tamura Yukari)
ArtistUnicode:姫野湖鳥 (cv. 田村ゆかり)
Creator:Akemi_Homura
Version:Muzukashii
Source:弱虫ペダル
Tags:Yowamushi Pedal
BeatmapID:1247864
BeatmapSetID:589264

[Difficulty]
HPDrainRate:6
CircleSize:3
OverallDifficulty:5
ApproachRate:5
SliderMultiplier:1.4
SliderTickRate:1

[Events]
//Background and Video events
0,0,"hime.jpg",0,0
//Break Periods
//Storyboard Layer 0 (Background)
//Storyboard Layer 1 (Fail)
//Storyboard Layer 2 (Pass)
//Storyboard Layer 3 (Foreground)
//Storyboard Sound Samples

[TimingPoints]
706,337.078651685393,4,1,0,50,1,0
6099,-100,4,1,0,70,0,0
60031,-100,4,1,0,90,0,1
78908,-100,4,1,0,70,0,0

[HitObjects]
256,192,706,5,0,0:0:0:0:
256,192,874,1,8,0:0:0:0:
256,192,958,1,8,0:0:0:0:
256,192,1043,1,8,0:0:0:0:
256,192,1211,1,0,0:0:0:0:
256,192,1380,1,8,0:0:0:0:
256,192,1717,1,8,0:0:0:0:
256,192,2054,1,0,0:0:0:0:
256,192,2222,1,8,0:0:0:0:
256,192,2307,1,8,0:0:0:0:
256,192,2391,1,8,0:0:0:0:
256,192,2559,1,0,0:0:0:0:
256,192,2728,1,8,0:0:0:0:
256,192,3065,1,8,0:0:0:0:
256,192,3402,1,0,0:0:0:0:
256,192,3571,1,8,0:0:0:0:
256,192,3655,1,8,0:0:0:0:
256,192,3739,1,8,0:0:0:0:
256,192,3908,1,0,0:0:0:0:
256,192,4076,1,8,0:0:0:0:
256,192,4413,1,8,0:0:0:0:
256,192,4750,1,8,0:0:0:0:
256,192,4919,1,0,0:0:0:0:
256,192,5088,1,0,0:0:0:0:
256,192,5256,1,8,0:0:0:0:
256,192,5425,1,0,0:0:0:0:
256,192,5762,1,8,0:0:0:0:
256,192,6099,1,12,0:0:0:0:
256,192,6773,1,0,0:0:0:0:
256,192,7110,1,8,0:0:0:0:
256,192,7447,1,12,0:0:0:0:
256,192,7784,1,0,0:0:0:0:
256,192,7953,1,8,0:0:0:0:
256,192,8458,1,0,0:0:0:0:
256,192,8795,1,12,0:0:0:0:
256,192,9470,1,0,0:0:0:0:
256,192,9807,1,8,0:0:0:0:
256,192,10144,1,12,0:0:0:0:
256,192,10481,1,0,0:0:0:0:
256,192,10649,1,8,0:0:0:0:
256,192,10986,1,0,0:0:0:0:
256,192,11155,1,8,0:0:0:0:
256,192,11239,1,8,0:0:0:0:
256,192,11323,1,8,0:0:0:0:
256,192,11492,1,0,0:0:0:0:
256,192,11661,1,0,0:0:0:0:
256,192,11829,1,8,0:0:0:0:
256,192,12166,1,0,0:0:0:0:
256,192,12503,1,8,0:0:0:0:
256,192,12672,1,0,0:0:0:0:
256,192,12840,1,8,0:0:0:0:
256,192,13177,1,0,0:0:0:0:
256,192,13346,1,8,0:0:0:0:
256,192,13683,1,0,0:0:0:0:
256,192,13852,1,8,0:0:0:0:
256,192,14189,1,0,0:0:0:0:
256,192,14357,1,0,0:0:0:0:
256,192,14526,1,8,0:0:0:0:
256,192,14863,1,0,0:0:0:0:
256,192,15200,1,8,0:0:0:0:
256,192,15368,1,0,0:0:0:0:
256,192,15537,1,8,0:0:0:0:
256,192,15874,1,0,0:0:0:0:
256,192,16043,1,8,0:0:0:0:
256,192,16380,1,4,0:0:0:0:
256,192,16548,1,12,0:0:0:0:
256,192,17222,1,8,0:0:0:0:
256,192,17391,1,0,0:0:0:0:
256,192,17559,1,0,0:0:0:0:
256,192,17728,1,8,0:0:0:0:
256,192,17897,1,8,0:0:0:0:
256,192,18234,1,0,0:0:0:0:
256,192,18571,1,8,0:0:0:0:
256,192,18739,1,0,0:0:0:0:
256,192,19076,1,0,0:0:0:0:
256,192,19245,1,8,0:0:0:0:
256,192,19582,1,0,0:0:0:0:
256,192,19919,1,8,0:0:0:0:
256,192,20088,1,8,0:0:0:0:
256,192,20256,1,0,0:0:0:0:
256,192,20425,1,0,0:0:0:0:
256,192,20593,1,8,0:0:0:0:
256,192,20930,1,0,0:0:0:0:
256,192,21267,1,8,0:0:0:0:
256,192,21436,1,0,0:0:0:0:
256,192,21773,1,8,0:0:0:0:
256,192,21941,1,8,0:0:0:0:
256,192,22279,1,0,0:0:0:0:
256,192,22616,1,8,0:0:0:0:
256,192,22784,1,8,0:0:0:0:
256,192,22953,1,0,0:0:0:0:
256,192,23121,1,0,0:0:0:0:
256,192,23290,1,8,0:0:0:0:
256,192,23627,1,0,0:0:0:0:
256,192,23964,1,8,0:0:0:0:
256,192,24132,1,0,0:0:0:0:
256,192,24470,1,0,0:0:0:0:
256,192,24638,1,8,0:0:0:0:
256,192,24807,1,8,0:0:0:0:
256,192,25144,1,0,0:0:0:0:
256,192,25312,1,8,0:0:0:0:
256,192,25481,1,0,0:0:0:0:
256,192,25649,1,8,0:0:0:0:
256,192,25986,1,0,0:0:0:0:
256,192,26155,1,8,0:0:0:0:
256,192,26492,1,0,0:0:0:0:
256,192,26661,1,8,0:0:0:0:
256,192,26829,1,8,0:0:0:0:
256,192,26998,1,0,0:0:0:0:
256,192,27166,1,8,0:0:0:0:
256,192,27250,1,8,0:0:0:0:
256,192,27335,1,8,0:0:0:0:
256,192,27672,1,4,0:0:0:0:
256,192,28009,1,8,0:0:0:0:
256,192,28177,1,0,0:0:0:0:
256,192,28346,1,0,0:0:0:0:
256,192,28514,1,8,0:0:0:0:
256,192,28683,1,8,0:0:0:0:
256,192,29020,1,0,0:0:0:0:
256,192,29357,1,8,0:0:0:0:
256,192,29526,1,0,0:0:0:0:
256,192,29863,1,0,0:0:0:0:
256,192,30031,1,8,0:0:0:0:
256,192,30368,1,0,0:0:0:0:
256,192,30705,1,8,0:0:0:0:
256,192,30874,1,8,0:0:0:0:
256,192,31043,1,0,0:0:0:0:
256,192,31211,1,0,0:0:0:0:
256,192,31380,1,8,0:0:0:0:
256,192,31717,1,0,0:0:0:0:
256,192,32054,1,8,0:0:0:0:
256,192,32222,1,0,0:0:0:0:
256,192,32559,1,8,0:0:0:0:
256,192,32728,1,8,0:0:0:0:
256,192,33065,1,0,0:0:0:0:
256,192,33402,1,8,0:0:0:0:
256,192,33739,1,0,0:0:0:0:
256,192,33908,1,8,0:0:0:0:
256,192,34076,1,8,0:0:0:0:
256,192,34413,1,0,0:0:0:0:
256,192,34750,1,8,0:0:0:0:
256,192,34919,1,8,0:0:0:0:
256,192,35256,1,0,0:0:0:0:
256,192,35425,1,8,0:0:0:0:
256,192,35593,1,8,0:0:0:0:
256,192,35762,1,0,0:0:0:0:
256,192,36099,1,8,0:0:0:0:
256,192,36436,1,0,0:0:0:0:
256,192,36773,1,8,0:0:0:0:
256,192,36941,1,0,0:0:0:0:
256,192,37279,1,0,0:0:0:0:
256,192,37447,1,0,0:0:0:0:
256,192,37616,1,0,0:0:0:0:
256,192,37784,1,8,0:0:0:0:
256,192,37953,1,0,0:0:0:0:
256,192,38037,1,0,0:0:0:0:
256,192,38121,1,0,0:0:0:0:
256,192,38458,1,4,0:0:0:0:
256,192,38795,1,8,0:0:0:0:
256,192,39132,1,0,0:0:0:0:
256,192,39470,1,8,0:0:0:0:
256,192,39807,1,8,0:0:0:0:
256,192,40144,1,0,0:0:0:0:
256,192,40481,1,0,0:0:0:0:
256,192,40818,1,8,0:0:0:0:
256,192,41155,1,0,0:0:0:0:
256,192,41323,1,8,0:0:0:0:
256,192,41492,1,8,0:0:0:0:
256,192,41661,1,0,0:0:0:0:
256,192,42166,1,8,0:0:0:0:
256,192,42503,1,8,0:0:0:0:
256,192,42672,1,0,0:0:0:0:
256,192,42841,1,0,0:0:0:0:
256,192,43009,1,8,0:0:0:0:
256,192,43346,1,8,0:0:0:0:
256,192,43514,1,8,0:0:0:0:
256,192,43683,1,0,0:0:0:0:
256,192,43852,1,0,0:0:0:0:
256,192,44189,1,8,0:0:0:0:
256,192,44526,1,0,0:0:0:0:
256,192,44863,1,8,0:0:0:0:
256,192,45200,1,8,0:0:0:0:
256,192,45537,1,0,0:0:0:0:
256,192,45874,1,8,0:0:0:0:
256,192,46548,1,12,0:0:0:0:
256,192,46885,1,8,0:0:0:0:
256,192,47054,1,0,0:0:0:0:
256,192,47138,1,0,0:0:0:0:
256,192,47222,1,0,0:0:0:0:
256,192,47391,1,8,0:0:0:0:
256,192,47728,1,12,0:0:0:0:
256,192,48065,1,8,0:0:0:0:
256,192,48234,1,8,0:0:0:0:
256,192,48402,1,0,0:0:0:0:
256,192,48571,1,8,0:0:0:0:
256,192,48908,1,0,0:0:0:0:
256,192,49076,1,0,0:0:0:0:
256,192,49245,1,12,0:0:0:0:
256,192,49582,1,8,0:0:0:0:
256,192,49919,1,8,0:0:0:0:
256,192,50088,1,0,0:0:0:0:
256,192,50256,1,8,0:0:0:0:
256,192,50593,1,12,0:0:0:0:
256,192,50930,1,0,0:0:0:0:
256,192,51099,1,8,0:0:0:0:
256,192,51604,1,0,0:0:0:0:
256,192,51773,1,0,0:0:0:0:
256,192,51941,1,12,0:0:0:0:
256,192,52279,1,8,0:0:0:0:
256,192,52616,1,8,0:0:0:0:
256,192,52784,1,0,0:0:0:0:
256,192,52953,1,8,0:0:0:0:
256,192,53290,1,12,0:0:0:0:
256,192,53627,1,0,0:0:0:0:
256,192,53795,1,8,0:0:0:0:
256,192,54132,1,8,0:0:0:0:
256,192,54301,1,8,0:0:0:0:
256,192,54470,1,4,0:0:0:0:
256,192,54807,1,0,0:0:0:0:
256,192,54975,1,8,0:0:0:0:
256,192,55312,1,0,0:0:0:0:
256,192,55481,1,8,0:0:0:0:
256,192,55649,1,8,0:0:0:0:
256,192,55818,1,0,0:0:0:0:
256,192,56155,1,8,0:0:0:0:
256,192,56323,1,0,0:0:0:0:
256,192,56492,1,0,0:0:0:0:
256,192,56661,1,0,0:0:0:0:
256,192,56829,1,8,0:0:0:0:
256,192,57166,1,4,0:0:0:0:
256,192,57503,1,0,0:0:0:0:
256,192,57672,1,8,0:0:0:0:
256,192,58009,1,0,0:0:0:0:
256,192,58177,1,0,0:0:0:0:
256,192,58514,5,12,0:0:0:0:
256,192,58852,1,12,0:0:0:0:
256,192,59020,1,12,0:0:0:0:
256,192,60031,1,12,0:0:0:0:
256,192,60368,1,0,0:0:0:0:
256,192,60537,1,0,0:0:0:0:
256,192,60705,1,8,0:0:0:0:
256,192,61043,1,8,0:0:0:0:
256,192,61211,1,0,0:0:0:0:
256,192,61380,1,8,0:0:0:0:
256,192,61464,1,8,0:0:0:0:
256,192,61548,1,8,0:0:0:0:
256,192,61717,1,0,0:0:0:0:
256,192,61885,1,8,0:0:0:0:
256,192,62054,1,0,0:0:0:0:
256,192,62391,1,0,0:0:0:0:
256,192,62559,1,0,0:0:0:0:
256,192,62728,1,8,0:0:0:0:
256,192,63065,1,0,0:0:0:0:
256,192,63234,1,0,0:0:0:0:
256,192,63402,1,8,0:0:0:0:
256,192,63739,1,0,0:0:0:0:
256,192,63908,1,0,0:0:0:0:
256,192,64076,1,8,0:0:0:0:
256,192,64161,1,8,0:0:0:0:
256,192,64245,1,8,0:0:0:0:
256,192,64413,1,8,0:0:0:0:
256,192,64582,1,0,0:0:0:0:
256,192,64750,1,8,0:0:0:0:
256,192,65088,1,8,0:0:0:0:
256,192,65256,1,0,0:0:0:0:
256,192,65425,1,0,0:0:0:0:
256,192,65509,1,0,0:0:0:0:
256,192,65593,1,0,0:0:0:0:
256,192,65762,1,8,0:0:0:0:
256,192,65930,1,0,0:0:0:0:
256,192,66099,1,8,0:0:0:0:
256,192,66436,1,8,0:0:0:0:
256,192,66604,1,0,0:0:0:0:
256,192,66689,1,0,0:0:0:0:
256,192,66773,1,0,0:0:0:0:
256,192,66941,1,8,0:0:0:0:
256,192,67110,1,0,0:0:0:0:
256,192,67279,1,8,0:0:0:0:
256,192,67447,1,8,0:0:0:0:
256,192,67784,1,0,0:0:0:0:
256,192,67953,1,0,0:0:0:0:
256,192,68121,1,8,0:0:0:0:
256,192,68458,1,0,0:0:0:0:
256,192,68627,1,0,0:0:0:0:
256,192,68795,1,8,0:0:0:0:
256,192,68964,1,8,0:0:0:0:
256,192,69048,1,8,0:0:0:0:
256,192,69132,1,8,0:0:0:0:
256,192,69301,1,12,0:0:0:0:
256,192,69638,1,0,0:0:0:0:
256,192,69807,1,8,0:0:0:0:
256,192,70144,1,8,0:0:0:0:
256,192,70481,1,0,0:0:0:0:
256,192,70649,1,0,0:0:0:0:
256,192,70818,1,12,0:0:0:0:
256,192,71155,1,8,0:0:0:0:
256,192,71323,1,0,0:0:0:0:
256,192,71492,1,8,0:0:0:0:
256,192,71829,1,8,0:0:0:0:
256,192,71998,1,0,0:0:0:0:
256,192,72166,1,8,0:0:0:0:
256,192,72250,1,8,0:0:0:0:
256,192,72335,1,8,0:0:0:0:
256,192,72503,1,8,0:0:0:0:
256,192,72672,1,0,0:0:0:0:
256,192,72840,1,8,0:0:0:0:
256,192,73177,1,8,0:0:0:0:
256,192,73346,1,0,0:0:0:0:
256,192,73514,1,8,0:0:0:0:
256,192,73852,1,8,0:0:0:0:
256,192,74020,1,0,0:0:0:0:
256,192,74189,1,8,0:0:0:0:
256,192,74526,1,8,0:0:0:0:
256,192,74694,1,0,0:0:0:0:
256,192,74863,1,8,0:0:0:0:
256,192,74947,1,8,0:0:0:0:
256,192,75031,1,8,0:0:0:0:
256,192,75200,1,8,0:0:0:0:
256,192,75368,1,0,0:0:0:0:
256,192,75537,1,8,0:0:0:0:
256,192,75874,1,8,0:0:0:0:
256,192,76043,1,0,0:0:0:0:
256,192,76211,1,0,0:0:0:0:
256,192,76295,1,0,0:0:0:0:
256,192,76380,1,0,0:0:0:0:
256,192,76548,1,8,0:0:0:0:
256,192,76717,1,0,0:0:0:0:
256,192,76885,1,8,0:0:0:0:
256,192,77222,1,8,0:0:0:0:
256,192,77391,1,0,0:0:0:0:
256,192,77559,1,8,0:0:0:0:
256,192,77644,1,8,0:0:0:0:
256,192,77728,1,8,0:0:0:0:
256,192,77897,1,0,0:0:0:0:
256,192,78065,1,8,0:0:0:0:
256,192,78234,1,4,0:0:0:0:
256,192,78908,1,12,0:0:0:0:
256,192,79245,1,0,0:0:0:0:
256,192,79582,1,8,0:0:0:0:
256,192,79750,1,8,0:0:0:0:
256,192,79919,1,0,0:0:0:0:
256,192,80088,1,0,0:0:0:0:
256,192,80256,1,12,0:0:0:0:
256,192,80593,1,8,0:0:0:0:
256,192,80762,1,0,0:0:0:0:
256,192,80930,1,8,0:0:0:0:
256,192,81267,1,0,0:0:0:0:
256,192,81436,1,12,0:0:0:0:
256,192,81773,1,0,0:0:0:0:
256,192,81941,1,8,0:0:0:0:
256,192,82110,1,0,0:0:0:0:
256,192,82279,1,8,0:0:0:0:
256,192,82616,1,8,0:0:0:0:
256,192,82784,1,4,0:0:0:0:
256,192,83121,1,0,0:0:0:0:
256,192,83290,1,8,0:0:0:0:
256,192,83458,1,0,0:0:0:0:
256,192,83795,1,8,0:0:0:0:
256,192,83880,1,8,0:0:0:0:
256,192,83964,1,8,0:0:0:0:
