osu file format v14

[General]
AudioFilename: audio.mp3
AudioLeadIn: 0
PreviewTime: 59357
Countdown: 0
SampleSet: Normal
StackLeniency: 0.7
Mode: 1
LetterboxInBreaks: 0
WidescreenStoryboard: 0

[Editor]
Bookmarks: 17222,28009,38795
DistanceSpacing: 1.2
BeatDivisor: 4
GridSize: 4
TimelineZoom: 0.3999998

[Metadata]
Title:Koi no Hime Hime Pettanko
TitleUnicode:恋のヒメヒメぺったんこ
Artist:Himeno Kotori (cv. Tamura Yukari)
ArtistUnicode:姫野湖鳥 (cv. 田村ゆかり)
Creator:Akemi_Homura
Version:Kantan
Source:弱虫ペダル
Tags:Yowamushi Pedal
BeatmapID:1248075
BeatmapSetID:589264

[Difficulty]
HPDrainRate:7
CircleSize:3
OverallDifficulty:3
ApproachRate:5
SliderMultiplier:1.4
SliderTickRate:1

[Events]
//Background and Video events
0,0,"hime.jpg",0,0
//Break Periods
//Storyboard Layer 0 (Background)
//Storyboard Layer 1 (Fail)
//Storyboard Layer 2 (Pass)
//Storyboard Layer 3 (Foreground)
//Storyboard Sound Samples

[TimingPoints]
706,337.078651685393,4,1,0,50,1,0
6099,-100,4,1,0,70,0,0
60031,-100,4,1,0,90,0,1
78908,-100,4,1,0,70,0,0

[HitObjects]
256,192,706,5,0,0:0:0:0:
256,192,2054,1,0,0:0:0:0:
256,192,3402,1,0,0:0:0:0:
256,192,4076,1,8,0:0:0:0:
256,192,4750,1,8,0:0:0:0:
256,192,5425,1,8,0:0:0:0:
256,192,6099,1,4,0:0:0:0:
256,192,7447,1,12,0:0:0:0:
256,192,8458,1,0,0:0:0:0:
256,192,8795,1,12,0:0:0:0:
256,192,10144,1,12,0:0:0:0:
256,192,11155,1,0,0:0:0:0:
256,192,11492,1,8,0:0:0:0:
256,192,12166,1,0,0:0:0:0:
256,192,12840,1,8,0:0:0:0:
256,192,14189,1,8,0:0:0:0:
256,192,14863,1,0,0:0:0:0:
256,192,15537,1,8,0:0:0:0:
256,192,16548,1,12,0:0:0:0:
256,192,17222,1,0,0:0:0:0:
256,192,17897,1,8,0:0:0:0:
256,192,18234,1,0,0:0:0:0:
256,192,18571,1,0,0:0:0:0:
256,192,19245,1,8,0:0:0:0:
256,192,19919,1,0,0:0:0:0:
256,192,20593,1,8,0:0:0:0:
256,192,20930,1,0,0:0:0:0:
256,192,21267,1,8,0:0:0:0:
256,192,22616,1,0,0:0:0:0:
256,192,23290,1,8,0:0:0:0:
256,192,23627,1,0,0:0:0:0:
256,192,23964,1,8,0:0:0:0:
256,192,24807,1,0,0:0:0:0:
256,192,25649,1,8,0:0:0:0:
256,192,26155,1,0,0:0:0:0:
256,192,26998,1,8,0:0:0:0:
256,192,27672,1,4,0:0:0:0:
256,192,28683,1,8,0:0:0:0:
256,192,29020,1,0,0:0:0:0:
256,192,29357,1,8,0:0:0:0:
256,192,30031,1,8,0:0:0:0:
256,192,30705,1,8,0:0:0:0:
256,192,31380,1,8,0:0:0:0:
256,192,31717,1,0,0:0:0:0:
256,192,32054,1,0,0:0:0:0:
256,192,33065,1,0,0:0:0:0:
256,192,33402,1,8,0:0:0:0:
256,192,34076,1,8,0:0:0:0:
256,192,34413,1,0,0:0:0:0:
256,192,34750,1,0,0:0:0:0:
256,192,35425,1,8,0:0:0:0:
256,192,36099,1,0,0:0:0:0:
256,192,36773,1,8,0:0:0:0:
256,192,37447,1,8,0:0:0:0:
256,192,37784,1,8,0:0:0:0:
256,192,38458,1,4,0:0:0:0:
256,192,39807,1,8,0:0:0:0:
256,192,41155,1,0,0:0:0:0:
256,192,42166,1,0,0:0:0:0:
256,192,42503,1,8,0:0:0:0:
256,192,43514,1,8,0:0:0:0:
256,192,43852,1,0,0:0:0:0:
256,192,45200,1,8,0:0:0:0:
256,192,46548,1,12,0:0:0:0:
256,192,47222,1,0,0:0:0:0:
256,192,47728,1,12,0:0:0:0:
256,192,48571,1,8,0:0:0:0:
256,192,49245,1,4,0:0:0:0:
256,192,49919,1,0,0:0:0:0:
256,192,50593,1,4,0:0:0:0:
256,192,51099,1,12,0:0:0:0:
256,192,51941,1,12,0:0:0:0:
256,192,52616,1,8,0:0:0:0:
256,192,53290,1,12,0:0:0:0:
256,192,53795,1,0,0:0:0:0:
256,192,54470,12,0,55649,0:0:0:0:
256,192,56323,5,0,0:0:0:0:
256,192,56661,1,8,0:0:0:0:
256,192,57166,1,4,0:0:0:0:
92,140,58009,1,0,0:0:0:0:
256,192,58346,1,8,0:0:0:0:
256,192,59020,1,12,0:0:0:0:
256,192,60031,5,12,0:0:0:0:
256,192,60705,1,8,0:0:0:0:
256,192,61380,1,0,0:0:0:0:
256,192,61717,1,0,0:0:0:0:
256,192,62054,1,8,0:0:0:0:
256,192,62728,1,8,0:0:0:0:
256,192,63402,1,8,0:0:0:0:
256,192,64076,1,8,0:0:0:0:
256,192,64413,1,0,0:0:0:0:
256,192,64750,1,8,0:0:0:0:
256,192,65425,1,0,0:0:0:0:
256,192,66099,1,8,0:0:0:0:
256,192,66773,1,8,0:0:0:0:
256,192,67110,1,0,0:0:0:0:
256,192,67447,1,8,0:0:0:0:
256,192,68121,1,8,0:0:0:0:
256,192,68795,1,8,0:0:0:0:
256,192,69301,1,12,0:0:0:0:
256,192,70818,1,12,0:0:0:0:
256,192,71492,1,8,0:0:0:0:
256,192,72166,1,0,0:0:0:0:
256,192,72503,1,0,0:0:0:0:
256,192,72840,1,8,0:0:0:0:
256,192,73514,1,8,0:0:0:0:
256,192,74189,1,8,0:0:0:0:
256,192,74863,1,8,0:0:0:0:
256,192,75200,1,0,0:0:0:0:
256,192,75537,1,8,0:0:0:0:
256,192,76211,1,0,0:0:0:0:
256,192,76885,1,8,0:0:0:0:
256,192,77559,1,8,0:0:0:0:
256,192,78234,1,4,0:0:0:0:
256,192,78908,1,12,0:0:0:0:
256,192,79582,1,8,0:0:0:0:
256,192,80256,1,4,0:0:0:0:
256,192,80930,1,0,0:0:0:0:
256,192,81436,1,12,0:0:0:0:
256,192,82279,1,8,0:0:0:0:
256,192,82784,1,4,0:0:0:0:
256,192,83290,1,8,0:0:0:0:
256,192,83964,1,0,0:0:0:0:
