osu file format v14

[General]
AudioFilename: audio.mp3
AudioLeadIn: 0
PreviewTime: 12498
Countdown: 0
SampleSet: Soft
StackLeniency: 0.7
Mode: 0
LetterboxInBreaks: 0
WidescreenStoryboard: 0

[Editor]
Bookmarks: 33927
DistanceSpacing: 1.5
BeatDivisor: 4
GridSize: 32
TimelineZoom: 2

[Metadata]
Title:neko nipples
TitleUnicode:neko nipples
Artist:Himeko Katagiri
ArtistUnicode:Himeko Katagiri
Creator:farq
Version:NYA!! :3
Source:
Tags:cat Lolicore Drum & Bass DnB Breakcore Electronic Instrumental mashcore SOUND OF LOLI Tsundere Violence Japanese Yoshino Sightread
BeatmapID:3967275
BeatmapSetID:1921996

[Difficulty]
HPDrainRate:6
CircleSize:3.6
OverallDifficulty:8.7
ApproachRate:9.3
SliderMultiplier:1.7
SliderTickRate:1

[Events]
//Background and Video events
0,0,"neko.jpg",0,0
//Break Periods
//Storyboard Layer 0 (Background)
//Storyboard Layer 1 (Fail)
//Storyboard Layer 2 (Pass)
//Storyboard Layer 3 (Foreground)
//Storyboard Layer 4 (Overlay)
//Storyboard Sound Samples

[TimingPoints]
156,342.857142857143,4,2,1,65,1,0
413,-100,4,2,1,5,0,0
498,-100,4,2,1,65,0,0
756,-100,4,2,1,5,0,0
841,-100,4,2,1,65,0,0
927,-100,4,2,1,65,0,0
1184,-100,4,2,1,45,0,0
1356,-100,4,2,1,60,0,0
4270,-166.666666666667,4,2,1,60,0,0
4870,-500,4,2,1,5,0,0
4956,-76.9230769230769,4,2,1,60,0,0
5641,-71.4285714285714,4,2,1,60,0,0
6156,-76.9230769230769,4,2,1,60,0,0
6841,-100,4,2,1,70,0,0
7956,-100,4,2,1,70,0,0
9756,-105.263157894737,4,2,1,70,0,0
10441,-52.6315789473684,4,2,1,70,0,0
10956,-52.6315789473684,4,2,1,70,0,0
12498,-52.6315789473684,4,2,1,60,0,0
17984,-333.333333333333,4,2,1,60,0,0
18241,-333.333333333333,4,2,1,5,0,0
18327,-52.6315789473684,4,2,1,60,0,0
19356,-100,4,2,1,60,0,0
19870,-52.6315789473684,4,2,1,60,0,0
22441,-62.5,4,2,1,60,0,0
22784,-76.9230769230769,4,2,1,60,0,0
23298,-76.9230769230769,4,2,1,65,0,1
24327,-76.9230769230769,4,2,1,65,0,1
26213,-250,4,2,1,65,0,1
26727,-76.9230769230769,4,2,1,65,0,1
28784,-55.5555555555556,4,2,1,70,0,1
29127,-71.4285714285714,4,2,1,70,0,1
31698,-52.6315789473684,4,2,1,70,0,1
34441,-100,4,2,1,55,0,0
40613,-76.9230769230769,4,2,1,55,0,0
42584,-76.9230769230769,4,2,1,5,0,0
42670,-76.9230769230769,4,2,1,55,0,0
45413,-71.4285714285714,4,2,1,5,0,0

[Colours]
Combo1 : 173,133,128
Combo2 : 199,160,152
Combo3 : 243,219,183

[HitObjects]
133,290,156,6,0,P|126:205|116:139,1,127.5,4|0,1:2|0:0,0:0:0:0:
128,304,498,6,0,P|121:219|111:153,1,127.5,4|0,1:2|0:0,0:0:0:0:
121,316,841,6,0,P|114:231|108:191,1,85,4|0,1:2|3:0,0:0:0:0:
37,218,1098,1,0,3:0:0:0:
37,218,1184,1,8,0:0:0:0:
221,347,1356,6,0,B|299:341|325:298|325:298|380:296|400:328,1,170,4|0,1:2|1:0,0:0:0:0:
422,121,1870,2,0,P|416:149|415:225,1,85,8|0,0:0|0:0,0:0:0:0:
469,264,2127,1,0,0:0:0:0:
469,264,2213,1,0,1:0:0:0:
259,135,2384,1,0,1:0:0:0:
333,216,2556,1,8,0:0:0:0:
353,42,2727,1,0,0:0:0:0:
358,53,2812,1,0,0:0:0:0:
359,65,2898,6,0,L|261:52,1,85,0|0,1:0|3:0,0:0:0:0:
185,32,3156,1,0,3:0:0:0:
185,32,3241,2,0,P|187:56|183:126,1,85,8|0,0:0|1:0,0:0:0:0:
129,233,3584,5,0,3:0:0:0:
129,211,3670,1,0,3:0:0:0:
126,190,3755,1,0,1:3:0:0:
42,302,3927,1,8,0:0:0:0:
0,131,4098,1,0,3:0:0:0:
0,146,4183,1,0,3:0:0:0:
6,156,4270,6,0,B|45:142|65:108|65:108|128:103|171:131,1,178.499994552612,4|0,1:3|0:0,0:0:0:0:
183,230,4956,2,0,P|210:232|238:238,1,55.2499974708558,4|0,1:3|0:0,0:0:0:0:
364,157,5127,2,0,P|337:155|310:150,1,55.2499974708558,4|0,1:3|0:0,0:0:0:0:
222,52,5298,1,8,0:0:0:0:
299,312,5470,1,0,0:0:0:0:
293,339,5555,1,0,0:0:0:0:
294,366,5641,6,0,P|226:355|195:356,1,59.4999981842042,4|0,1:3|0:0,0:0:0:0:
398,280,5813,1,0,3:0:0:0:
398,280,5898,1,0,3:0:0:0:
398,280,5984,2,0,P|406:216|411:195,1,59.4999981842042,8|0,0:0|0:0,0:0:0:0:
206,100,6156,5,4,1:3:0:0:
68,302,6327,2,0,P|97:291|122:287,1,55.2499974708558,8|0,0:0|0:0,0:0:0:0:
285,335,6498,1,0,1:0:0:0:
271,333,6583,1,0,0:0:0:0:
257,336,6669,1,0,3:0:0:0:
244,341,6755,1,0,3:0:0:0:
233,350,6841,6,0,P|227:222|223:200,1,127.5,4|0,1:2|0:0,0:0:0:0:
185,203,7184,1,4,1:2:0:0:
386,362,7356,2,0,P|416:352|473:350,1,85,8|0,0:0|3:0,0:0:0:0:
490,267,7613,1,0,3:0:0:0:
490,267,7698,5,4,1:2:0:0:
348,238,7870,1,4,1:2:0:0:
231,353,8041,2,0,P|194:345|162:344,1,42.5,8|0,0:0|0:0,0:0:0:0:
60,210,8213,1,0,3:0:0:0:
64,230,8298,1,0,3:0:0:0:
63,251,8384,6,0,L|131:229,1,42.5,4|0,1:2|0:0,0:0:0:0:
147,59,8556,1,0,3:0:0:0:
121,64,8641,1,0,3:0:0:0:
106,82,8727,2,0,P|114:106|120:136,1,42.5,8|0,0:0|0:0,0:0:0:0:
259,253,8898,6,0,P|280:247|314:244,1,42.5,4|0,1:2|0:0,0:0:0:0:
423,163,9070,2,0,P|383:155|364:149,1,42.5,0|0,3:0|3:0,0:0:0:0:
307,367,9241,2,0,P|336:360|349:360,1,42.5,4|0,1:2|0:0,0:0:0:0:
219,146,9413,1,8,0:0:0:0:
150,362,9584,1,0,3:0:0:0:
129,352,9669,1,0,3:0:0:0:
108,349,9756,6,0,B|143:263|117:223|117:223|97:254|76:273,1,161.499995687485,4|8,1:3|0:0,0:0:0:0:
85,92,10270,1,0,3:0:0:0:
269,49,10441,6,0,B|248:44|220:54|220:54|236:77|234:81,1,80.7499978437424,4|0,1:3|0:0,0:0:0:0:
398,90,10613,2,0,B|391:118|405:144|405:144|383:161|385:154,1,80.7499978437424,4|0,1:3|0:0,0:0:0:0:
468,322,10784,1,8,0:0:0:0:
468,301,10869,1,0,0:0:0:0:
472,281,10955,1,0,3:0:0:0:
482,263,11041,1,0,3:0:0:0:
496,247,11127,6,0,P|446:262|496:248,1,161.499995687485,4|0,1:3|3:0,0:0:0:0:
266,378,11469,1,8,0:0:0:0:
276,383,11555,1,0,0:0:0:0:
286,383,11641,2,0,B|277:361|229:350|229:350|243:320|255:259,1,161.499995687485,4|8,1:3|0:0,0:0:0:0:
299,123,11898,1,0,0:0:0:0:
299,123,11984,2,0,B|308:140|302:161|302:161|317:167|344:161,1,80.7499978437424,4|0,1:3|0:0,0:0:0:0:
419,65,12156,5,0,3:0:0:0:
436,55,12241,1,0,3:0:0:0:
451,41,12327,1,0,3:0:0:0:
462,24,12413,1,0,3:0:0:0:
468,5,12498,5,4,1:2:0:0:
264,212,12841,1,8,0:0:0:0:
141,99,13184,5,0,1:0:0:0:
205,38,13356,1,0,1:0:0:0:
133,189,13527,1,8,0:0:0:0:
385,361,13870,5,0,1:0:0:0:
448,234,14041,1,0,1:0:0:0:
282,296,14213,1,8,0:0:0:0:
465,332,14384,1,0,1:0:0:0:
358,173,14556,5,0,3:0:0:0:
361,193,14641,1,0,3:0:0:0:
356,209,14727,1,0,1:0:0:0:
211,183,14898,1,8,0:0:0:0:
246,51,15070,1,0,3:0:0:0:
262,50,15156,1,0,3:0:0:0:
277,46,15241,5,0,1:0:0:0:
152,22,15584,1,8,0:0:0:0:
13,166,15927,5,0,1:0:0:0:
114,222,16098,1,0,1:0:0:0:
1,182,16270,1,8,0:0:0:0:
241,218,16613,5,0,1:0:0:0:
295,96,16784,1,0,3:0:0:0:
301,108,16870,1,0,3:0:0:0:
296,123,16956,1,8,0:0:0:0:
249,237,17127,5,0,1:0:0:0:
100,226,17298,1,0,3:0:0:0:
87,228,17384,1,0,3:0:0:0:
73,224,17470,1,0,1:0:0:0:
24,30,17641,5,8,3:2:0:0:
50,40,17727,1,0,3:0:0:0:
77,40,17812,1,0,3:0:0:0:
97,37,17898,1,0,3:0:0:0:
115,29,17984,6,0,L|164:23,1,38.2499988327027,4|0,3:0|0:0,0:0:0:0:
237,63,18327,6,2,P|232:98|233:312,1,242.249993531227,8|0,0:0|0:0,0:0:0:0:
267,336,18670,1,0,1:0:0:0:
71,234,18841,1,0,1:0:0:0:
133,166,19013,1,8,0:0:0:0:
133,166,19356,6,0,P|79:155|17:150,1,85,4|0,1:3|1:0,0:0:0:0:
23,179,19613,1,0,3:0:0:0:
23,179,19699,1,8,0:0:0:0:
42,42,19870,6,0,P|198:30|219:25,1,161.499995687485,4|0,1:3|3:0,0:0:0:0:
251,111,20127,1,0,3:0:0:0:
251,111,20213,2,0,P|320:101|345:93,1,80.7499978437424,4|0,1:3|0:0,0:0:0:0:
439,195,20384,2,0,P|369:182|339:180,1,80.7499978437424,8|0,0:0|0:0,0:0:0:0:
434,99,20556,1,0,3:0:0:0:
434,99,20641,1,0,3:0:0:0:
434,99,20727,5,0,1:0:0:0:
249,202,21070,1,8,0:0:0:0:
379,314,21413,1,0,1:0:0:0:
455,204,21585,1,0,1:0:0:0:
382,333,21756,1,8,0:0:0:0:
370,365,22098,6,0,P|420:356|454:345,1,80.7499978437424,4|0,1:3|0:0,0:0:0:0:
191,374,22270,5,0,3:0:0:0:
191,374,22356,1,0,3:0:0:0:
191,374,22441,2,0,P|254:366|274:356,1,68,4|0,1:3|0:0,0:0:0:0:
40,320,22613,5,0,3:0:0:0:
40,320,22699,1,0,3:0:0:0:
40,320,22784,2,0,P|74:314|104:302,1,55.2499974708558,4|0,1:3|0:0,0:0:0:0:
142,109,22956,6,0,P|137:136|134:163,1,55.2499974708558,0|0,3:0|3:0,0:0:0:0:
200,250,23127,1,8,0:0:0:0:
311,52,23298,6,0,B|276:30|240:33|240:33|219:2|240:-22,1,110.499994941712,4|0,1:2|0:0,0:0:0:0:
403,33,23556,1,0,0:0:0:0:
403,33,23641,2,0,P|397:60|395:106,1,55.2499974708558,4|0,1:2|0:0,0:0:0:0:
314,212,23813,2,0,P|302:150|296:134,1,55.2499974708558,8|0,0:0|0:0,0:0:0:0:
457,283,23984,1,0,3:0:0:0:
459,298,24070,1,0,3:0:0:0:
449,308,24156,6,0,P|380:295|364:294,1,55.2499974708558,4|0,1:2|0:0,0:0:0:0:
298,369,24327,2,0,P|270:361|240:358,1,55.2499974708558,4|0,1:2|0:0,0:0:0:0:
118,344,24498,1,8,0:0:0:0:
112,317,24583,1,0,0:0:0:0:
116,289,24669,1,0,3:0:0:0:
130,266,24755,1,0,3:0:0:0:
151,248,24841,6,0,P|156:202|160:189,1,55.2499974708558,4|0,1:2|0:0,0:0:0:0:
25,55,25013,1,0,3:0:0:0:
19,75,25098,1,0,3:0:0:0:
27,94,25184,2,0,P|33:123|34:164,1,55.2499974708558,8|0,0:0|0:0,0:0:0:0:
203,55,25356,6,0,P|214:-3|221:-18,1,55.2499974708558,4|0,1:2|0:0,0:0:0:0:
298,184,25527,1,0,3:0:0:0:
298,184,25613,1,0,3:0:0:0:
298,184,25698,2,0,P|344:172|362:173,1,55.2499974708558,4|0,1:2|0:0,0:0:0:0:
457,82,25870,1,8,0:0:0:0:
452,76,25955,1,0,0:0:0:0:
449,70,26041,1,0,3:0:0:0:
448,63,26127,1,0,3:0:0:0:
448,57,26213,6,0,B|372:48,1,68,4|8,1:2|0:0,0:0:0:0:
487,219,26727,5,0,3:0:0:0:
487,219,26813,1,0,3:0:0:0:
487,219,26898,2,0,P|478:246|477:315,1,55.2499974708558,4|0,1:2|0:0,0:0:0:0:
328,185,27070,2,0,P|324:136|317:115,1,55.2499974708558,4|0,1:2|0:0,0:0:0:0:
369,321,27241,1,8,0:0:0:0:
347,304,27326,1,0,0:0:0:0:
322,292,27412,1,0,3:0:0:0:
294,288,27498,1,0,3:0:0:0:
267,290,27584,6,0,P|229:281|188:280,1,55.2499974708558,4|0,1:2|0:0,0:0:0:0:
112,360,27756,2,0,P|106:311|102:293,1,55.2499974708558,0|0,3:0|3:0,0:0:0:0:
165,136,27927,6,0,P|159:164|156:191,1,55.2499974708558,8|0,0:0|0:0,0:0:0:0:
8,246,28098,2,0,P|5:214|-4:181,1,55.2499974708558,4|0,1:2|0:0,0:0:0:0:
79,34,28270,2,0,P|107:31|133:23,1,55.2499974708558,8|0,0:0|0:0,0:0:0:0:
363,30,28441,1,4,1:2:0:0:
336,37,28526,1,0,0:0:0:0:
308,38,28612,1,0,3:0:0:0:
281,34,28698,1,0,3:0:0:0:
255,23,28784,6,0,P|260:49|260:198,1,152.999995330811,4|0,1:2|0:0,0:0:0:0:
352,204,29041,1,0,0:0:0:0:
352,204,29127,2,0,P|346:235|341:295,1,59.4999981842042,4|0,1:2|0:0,0:0:0:0:
453,162,29298,2,0,P|421:146|392:121,1,59.4999981842042,8|0,0:0|0:0,0:0:0:0:
206,257,29470,5,0,3:0:0:0:
206,257,29556,1,0,3:0:0:0:
206,257,29641,2,0,P|159:256|114:244,1,59.4999981842042,4|0,1:2|0:0,0:0:0:0:
35,370,29813,2,0,P|87:357|118:358,1,59.4999981842042,4|0,1:2|0:0,0:0:0:0:
283,371,29984,1,8,0:0:0:0:
300,362,30069,1,0,0:0:0:0:
318,357,30155,1,0,3:0:0:0:
337,356,30241,1,0,3:0:0:0:
356,359,30327,6,0,P|366:303|361:245,1,59.4999981842042,4|0,1:2|0:0,0:0:0:0:
478,209,30498,1,0,3:0:0:0:
487,224,30584,1,0,3:0:0:0:
484,239,30670,2,0,P|447:229|409:212,1,59.4999981842042,8|0,0:0|0:0,0:0:0:0:
261,174,30841,6,0,P|323:160|357:147,1,59.4999981842042,4|0,1:2|0:0,0:0:0:0:
181,295,31013,1,0,3:0:0:0:
197,301,31098,1,0,3:0:0:0:
211,298,31184,2,0,P|238:299|291:313,1,59.4999981842042,4|0,1:2|0:0,0:0:0:0:
203,67,31356,1,8,0:0:0:0:
180,47,31441,1,0,0:0:0:0:
151,47,31527,1,0,3:0:0:0:
129,65,31613,1,0,3:0:0:0:
126,95,31698,6,0,B|81:90|35:106|35:106|81:125|109:185,1,161.499995687485,4|0,1:3|0:0,0:0:0:0:
246,297,32041,1,8,0:0:0:0:
246,297,32213,2,0,P|241:221|238:207,1,80.7499978437424,0|0,3:0|3:0,0:0:0:0:
402,339,32384,6,0,P|349:352|316:369,1,80.7499978437424,4|0,1:3|0:0,0:0:0:0:
63,274,32556,2,0,P|124:261|152:253,1,80.7499978437424,4|0,1:3|0:0,0:0:0:0:
452,139,32727,1,8,0:0:0:0:
454,158,32812,1,0,0:0:0:0:
449,178,32898,1,0,3:0:0:0:
436,193,32984,1,0,3:0:0:0:
419,203,33070,6,0,P|361:182|330:180,1,80.7499978437424,4|0,1:3|0:0,0:0:0:0:
176,49,33241,1,0,3:0:0:0:
183,68,33327,1,0,3:0:0:0:
200,78,33413,2,0,P|239:69|278:56,1,80.7499978437424,8|0,0:0|0:0,0:0:0:0:
97,193,33584,2,0,P|49:178|5:177,1,80.7499978437424,4|0,1:3|0:0,0:0:0:0:
232,335,33756,5,0,3:0:0:0:
240,331,33841,1,0,3:0:0:0:
245,324,33927,5,8,0:0:0:0:
240,286,34012,1,8,0:0:0:0:
261,245,34098,5,8,0:0:0:0:
233,211,34184,5,8,0:0:0:0:
278,166,34269,5,8,0:0:0:0:
231,125,34355,5,8,0:0:0:0:
293,73,34441,5,4,1:2:0:0:
462,252,34784,1,8,0:0:0:0:
423,67,35127,5,4,1:3:0:0:
423,67,35299,2,0,P|465:74|506:87,1,85,4|8,1:3|0:0,0:0:0:0:
482,264,35641,1,4,1:3:0:0:
355,351,35813,5,0,3:0:0:0:
349,344,35898,1,0,3:0:0:0:
351,334,35984,2,0,P|308:316|245:317,1,85,4|8,1:3|0:0,0:0:0:0:
129,368,36327,1,0,3:0:0:0:
140,368,36413,1,0,3:0:0:0:
151,362,36498,6,0,P|147:321|139:295,1,42.5,4|0,1:3|0:0,0:0:0:0:
211,212,36670,2,0,P|211:181|217:152,1,42.5,4|0,1:3|0:0,0:0:0:0:
295,72,36841,1,8,0:0:0:0:
75,152,37013,1,0,3:0:0:0:
73,168,37098,1,0,3:0:0:0:
79,182,37184,5,4,1:3:0:0:
97,27,37527,1,8,0:0:0:0:
3,254,37870,1,4,1:3:0:0:
0,273,38041,1,4,1:3:0:0:
166,195,38213,1,8,0:0:0:0:
170,207,38556,5,0,1:0:0:0:
352,248,38727,1,0,3:0:0:0:
358,267,38813,1,0,3:0:0:0:
350,283,38898,1,8,0:0:0:0:
415,64,39070,5,0,1:0:0:0:
311,158,39241,1,8,0:0:0:0:
245,16,39413,1,0,1:0:0:0:
227,326,39584,5,8,0:0:0:0:
195,322,39669,1,8,0:0:0:0:
163,319,39755,1,8,0:0:0:0:
131,315,39841,1,8,0:0:0:0:
100,312,39927,5,4,1:2:0:0:
227,192,40270,1,8,0:0:0:0:
207,2,40613,6,0,P|201:38|199:80,1,55.2499974708558,4|0,1:2|0:0,0:0:0:0:
102,77,40784,2,0,P|113:107|120:152,1,55.2499974708558,4|0,1:2|0:0,0:0:0:0:
340,53,40956,2,0,P|333:83|332:136,1,55.2499974708558,8|0,0:0|0:0,0:0:0:0:
313,215,41127,5,4,1:2:0:0:
313,215,41213,1,0,0:0:0:0:
313,215,41298,6,0,P|343:209|374:209,1,55.2499974708558,0|0,3:0|3:0,0:0:0:0:
243,136,41470,2,0,P|213:135|175:127,1,55.2499974708558,4|0,1:2|0:0,0:0:0:0:
196,309,41641,2,0,P|193:279|186:255,1,55.2499974708558,8|0,0:0|0:0,0:0:0:0:
107,363,41813,5,0,3:0:0:0:
107,363,41898,1,0,3:0:0:0:
107,363,41984,2,0,P|65:352|41:353,1,55.2499974708558,4|0,1:2|0:0,0:0:0:0:
294,311,42156,2,0,P|290:343|291:382,1,55.2499974708558,4|0,1:2|0:0,0:0:0:0:
94,229,42327,2,0,B|65:155|90:94|90:94|115:127|143:128,1,165.749992412568,8|0,0:0|0:0,0:0:0:0:
180,154,42670,5,4,1:2:0:0:
291,77,43013,1,8,0:0:0:0:
459,218,43184,1,0,3:0:0:0:
443,236,43270,1,0,3:0:0:0:
427,227,43356,1,4,1:2:0:0:
508,60,43527,1,0,1:0:0:0:
354,341,43698,5,4,1:2:0:0:
138,46,44041,1,4,1:2:0:0:
256,192,44127,12,0,45413,0:0:0:0:
