osu file format v14

[General]
AudioFilename: audio.mp3
AudioLeadIn: 0
PreviewTime: 12498
Countdown: 0
SampleSet: Soft
StackLeniency: 0.7
Mode: 0
LetterboxInBreaks: 0
WidescreenStoryboard: 1

[Editor]
Bookmarks: 33927
DistanceSpacing: 1.5
BeatDivisor: 4
GridSize: 32
TimelineZoom: 2

[Metadata]
Title:neko nipples
TitleUnicode:neko nipples
Artist:Himeko Katagiri
ArtistUnicode:Himeko Katagiri
Creator:farq
Version:Insane!! :3
Source:
Tags:cat Lolicore Drum & Bass DnB Breakcore Electronic Instrumental mashcore SOUND OF LOLI Tsundere Violence Japanese Yoshino Sightread
BeatmapID:3968757
BeatmapSetID:1921996

[Difficulty]
HPDrainRate:5
CircleSize:4
OverallDifficulty:8
ApproachRate:9
SliderMultiplier:1.6
SliderTickRate:1

[Events]
//Background and Video events
0,0,"neko.jpg",0,0
//Break Periods
//Storyboard Layer 0 (Background)
//Storyboard Layer 1 (Fail)
//Storyboard Layer 2 (Pass)
//Storyboard Layer 3 (Foreground)
//Storyboard Layer 4 (Overlay)
//Storyboard Sound Samples

[TimingPoints]
156,342.857142857143,4,2,1,65,1,0
156,-100,4,2,1,65,0,0
1184,-100,4,2,1,45,0,0
1356,-100,4,2,1,60,0,0
4270,-111.111111111111,4,2,1,60,0,0
4956,-83.3333333333333,4,2,1,60,0,0
5298,-200,4,2,1,60,0,0
6841,-83.3333333333333,4,2,1,70,0,0
12498,-111.111111111111,4,2,1,60,0,0
13784,-111.111111111111,4,2,1,5,0,0
13870,-111.111111111111,4,2,1,60,0,0
17984,-222.222222222222,4,2,1,60,0,0
18841,-111.111111111111,4,2,1,60,0,0
23298,-76.9230769230769,4,2,1,65,0,1
28784,-76.9230769230769,4,2,1,70,0,1
31698,-71.4285714285714,4,2,1,70,0,1
34441,-100,4,2,1,55,0,0
42670,-200,4,2,1,55,0,0
43013,-100,4,2,1,55,0,0
45413,-100,4,2,1,5,0,0

[Colours]
Combo1 : 173,133,128
Combo2 : 199,160,152
Combo3 : 243,219,183

[HitObjects]
127,221,156,5,4,1:2:0:0:
162,102,498,1,4,1:2:0:0:
126,230,841,1,4,1:2:0:0:
155,80,1013,1,0,3:0:0:0:
161,72,1099,1,0,3:0:0:0:
172,73,1185,1,8,0:0:0:0:
215,186,1356,6,0,P|260:183|302:174,1,80,4|0,1:2|0:0,0:0:0:0:
426,51,1698,1,0,1:0:0:0:
347,108,1870,1,8,0:0:0:0:
463,148,2041,5,0,0:0:0:0:
475,156,2127,1,0,0:0:0:0:
476,175,2213,2,0,P|466:202|463:258,1,80,0|0,1:0|1:0,0:0:0:0:
410,332,2556,1,8,0:0:0:0:
395,328,2898,5,0,1:0:0:0:
298,247,3070,1,0,3:0:0:0:
300,264,3156,1,0,3:0:0:0:
289,275,3241,2,0,P|239:262|199:259,1,80,8|0,0:0|1:0,0:0:0:0:
131,358,3584,5,0,3:0:0:0:
116,358,3670,1,0,3:0:0:0:
111,347,3756,2,0,P|103:282|93:256,1,80,0|8,1:3|0:0,0:0:0:0:
44,136,4098,1,0,3:0:0:0:
41,153,4184,1,0,3:0:0:0:
51,171,4270,6,0,P|103:90|236:137,1,251.999992309571,4|0,1:3|0:0,0:0:0:0:
280,230,4956,6,0,L|232:235,1,47.9999985351563,4|0,1:3|0:0,0:0:0:0:
297,246,5127,2,0,L|250:253,1,47.9999985351563,4|0,1:3|0:0,0:0:0:0:
331,35,5298,2,0,P|326:66|324:122,1,80,8|4,0:0|1:3,0:0:0:0:
404,278,5813,5,0,3:0:0:0:
402,296,5898,1,0,3:0:0:0:
412,302,5984,1,8,0:0:0:0:
502,244,6156,1,4,1:3:0:0:
472,124,6327,5,8,0:0:0:0:
367,53,6499,1,0,1:0:0:0:
309,203,6670,1,0,3:0:0:0:
299,209,6756,1,0,3:0:0:0:
289,204,6841,6,0,P|286:147|278:106,1,95.9999970703126,4|0,1:2|0:0,0:0:0:0:
378,263,7184,2,0,P|372:291|368:376,1,95.9999970703126,4|8,1:2|0:0,0:0:0:0:
251,337,7527,5,0,3:0:0:0:
256,351,7613,1,0,3:0:0:0:
250,363,7698,2,0,P|170:337|120:334,1,95.9999970703126,4|4,1:2|1:2,0:0:0:0:
70,384,8041,1,8,0:0:0:0:
2,261,8213,5,0,3:0:0:0:
11,268,8298,1,0,3:0:0:0:
23,266,8384,2,0,P|65:249|121:253,1,95.9999970703126,4|0,1:2|3:0,0:0:0:0:
136,265,8641,1,0,3:0:0:0:
137,273,8727,1,8,0:0:0:0:
200,168,8898,6,0,P|119:150|97:142,1,95.9999970703126,4|0,1:2|3:0,0:0:0:0:
236,25,9241,1,4,1:2:0:0:
351,84,9413,1,8,0:0:0:0:
273,174,9584,1,0,3:0:0:0:
285,180,9670,1,0,3:0:0:0:
294,193,9756,6,0,B|321:284|295:355|295:355|293:380|312:395,1,191.999994140625,4|8,1:3|0:0,0:0:0:0:
387,363,10270,1,0,3:0:0:0:
398,368,10356,1,0,3:0:0:0:
412,365,10441,2,0,P|458:351|516:351,1,95.9999970703126,4|4,1:3|1:3,0:0:0:0:
387,270,10784,1,8,0:0:0:0:
161,368,10956,5,0,3:0:0:0:
174,376,11042,1,0,3:0:0:0:
193,376,11127,2,0,P|201:323|203:268,1,95.9999970703126,4|0,1:3|3:0,0:0:0:0:
198,245,11384,1,0,3:0:0:0:
200,255,11470,1,8,0:0:0:0:
96,82,11641,6,0,P|100:126|100:188,1,95.9999970703126,4|8,1:3|0:0,0:0:0:0:
58,266,11984,1,4,1:3:0:0:
207,62,12156,5,0,3:0:0:0:
218,57,12241,1,0,3:0:0:0:
226,62,12327,1,0,3:0:0:0:
230,74,12413,1,0,3:0:0:0:
229,87,12498,6,0,B|292:96|333:56|333:56|312:36|296:9,1,143.999995605469,4|8,1:2|0:0,0:0:0:0:
471,133,13184,1,0,1:0:0:0:
424,18,13355,1,0,1:0:0:0:
474,150,13527,2,0,P|421:135|347:133,1,107.999996704102,8|0,0:0|0:0,0:0:0:0:
346,167,13870,5,0,1:0:0:0:
429,328,14041,1,0,1:0:0:0:
338,318,14213,1,8,0:0:0:0:
452,237,14384,1,0,1:0:0:0:
253,348,14556,5,0,3:0:0:0:
243,349,14641,1,0,3:0:0:0:
227,346,14727,1,0,1:0:0:0:
209,226,14898,1,8,0:0:0:0:
116,319,15070,5,0,3:0:0:0:
115,335,15155,1,0,3:0:0:0:
108,350,15241,2,0,B|66:318|78:281|78:281|126:265|153:233,1,143.999995605469,0|8,1:0|0:0,0:0:0:0:
35,108,15927,5,0,1:0:0:0:
64,194,16098,1,0,1:0:0:0:
28,94,16270,2,0,P|70:86|97:75,1,71.9999978027344,8|0,0:0|0:0,0:0:0:0:
151,0,16613,5,0,1:0:0:0:
253,172,16784,1,0,3:0:0:0:
252,152,16870,1,0,3:0:0:0:
246,132,16956,1,8,0:0:0:0:
151,0,17127,5,0,1:0:0:0:
296,2,17298,1,0,3:0:0:0:
302,22,17384,1,0,3:0:0:0:
303,42,17470,2,0,P|327:37|357:38,1,35.9999989013672,0|0,1:0|0:0,0:0:0:0:
424,81,17641,5,8,3:2:0:0:
421,89,17726,1,0,3:0:0:0:
420,98,17813,1,0,3:0:0:0:
419,107,17898,1,0,3:0:0:0:
419,116,17984,6,0,P|413:159|412:198,2,71.9999978027344,4|8|0,3:0|0:0|1:0,0:0:0:0:
307,173,18841,2,0,P|317:207|319:243,1,71.9999978027344,0|8,1:0|0:0,0:0:0:0:
231,226,19356,5,4,1:3:0:0:
419,327,19527,1,0,1:0:0:0:
420,336,19613,1,0,3:0:0:0:
416,344,19698,1,8,0:0:0:0:
281,367,19870,6,0,P|237:358|192:355,1,71.9999978027344,4|0,1:3|3:0,0:0:0:0:
139,381,20127,1,0,3:0:0:0:
139,381,20213,2,0,P|134:328|127:290,1,71.9999978027344,4|8,1:3|0:0,0:0:0:0:
30,237,20556,1,0,3:0:0:0:
30,237,20641,1,0,3:0:0:0:
30,237,20727,6,0,B|72:206|121:205|121:205|140:169|118:130,1,143.999995605469,0|8,1:0|0:0,0:0:0:0:
33,23,21413,2,0,P|42:58|44:94,2,71.9999978027344,0|0|8,1:0|1:0|0:0,0:0:0:0:
123,16,22098,6,0,P|165:14|202:6,1,71.9999978027344,4|0,1:3|3:0,0:0:0:0:
291,90,22356,5,0,3:0:0:0:
291,90,22441,2,0,P|249:82|214:82,1,71.9999978027344,4|0,1:3|3:0,0:0:0:0:
150,123,22698,5,0,3:0:0:0:
150,123,22784,2,0,P|155:154|156:219,1,71.9999978027344,4|0,1:3|3:0,0:0:0:0:
101,249,23041,5,0,3:0:0:0:
101,249,23127,1,8,0:0:0:0:
158,332,23298,6,0,B|250:330|315:272|340:288|358:324,1,207.999990478516,4|4,1:2|1:2,0:0:0:0:
412,148,23813,1,8,0:0:0:0:
323,207,23984,1,0,3:0:0:0:
305,214,24070,1,0,3:0:0:0:
292,200,24156,6,0,P|288:156|273:88,1,103.999995239258,4|4,1:2|1:2,0:0:0:0:
301,19,24498,1,8,0:0:0:0:
180,100,24670,1,0,3:0:0:0:
177,110,24756,1,0,3:0:0:0:
165,113,24841,6,0,P|125:101|58:97,1,103.999995239258,4|0,1:2|3:0,0:0:0:0:
29,161,25098,1,0,3:0:0:0:
27,168,25184,2,0,P|31:189|33:238,1,51.999997619629,8|0,0:0|0:0,0:0:0:0:
94,285,25356,6,0,P|129:272|205:273,1,103.999995239258,4|0,1:2|3:0,0:0:0:0:
260,366,25613,1,0,3:0:0:0:
273,356,25698,2,0,P|288:272|300:245,1,103.999995239258,4|8,1:2|0:0,0:0:0:0:
210,173,26041,1,0,3:0:0:0:
211,188,26127,1,0,3:0:0:0:
222,199,26213,6,0,B|253:188|261:162|261:162|358:162|418:225,1,207.999990478516,4|8,1:2|0:0,0:0:0:0:
467,48,26727,1,0,3:0:0:0:
479,57,26813,1,0,3:0:0:0:
473,71,26898,2,0,P|419:82|356:89,1,103.999995239258,4|4,1:2|1:2,0:0:0:0:
300,44,27241,1,8,0:0:0:0:
480,157,27413,1,0,3:0:0:0:
495,165,27498,1,0,3:0:0:0:
503,181,27584,6,0,P|494:226|494:298,1,103.999995239258,4|0,1:2|3:0,0:0:0:0:
422,343,27841,1,0,3:0:0:0:
432,355,27927,2,0,P|395:348|374:349,1,51.999997619629,8|0,0:0|0:0,0:0:0:0:
362,272,28098,2,0,P|328:281|305:282,1,51.999997619629,4|0,1:2|0:0,0:0:0:0:
263,384,28270,1,8,0:0:0:0:
205,279,28441,5,4,1:2:0:0:
203,259,28526,1,0,0:0:0:0:
202,240,28612,1,0,3:0:0:0:
201,220,28698,1,0,3:0:0:0:
200,201,28784,6,0,P|146:183|86:178,1,103.999995239258,4|0,1:2|0:0,0:0:0:0:
0,81,29127,2,0,B|56:57|81:14|81:14|146:12|168:37|214:33,1,207.999990478516,4|0,1:2|3:0,0:0:0:0:
257,60,29556,5,0,3:0:0:0:
261,71,29641,2,0,P|265:95|267:129,1,51.999997619629,4|0,1:2|0:0,0:0:0:0:
338,205,29813,2,0,P|338:179|346:155,1,51.999997619629,4|0,1:2|0:0,0:0:0:0:
408,80,29984,1,8,0:0:0:0:
246,219,30156,1,0,3:0:0:0:
239,230,30241,1,0,3:0:0:0:
221,232,30327,6,0,P|148:214|77:216,1,103.999995239258,4|0,1:2|3:0,0:0:0:0:
71,285,30584,1,0,3:0:0:0:
71,285,30670,2,0,L|80:336,1,51.999997619629,8|0,0:0|0:0,0:0:0:0:
154,366,30841,6,0,P|206:353|267:353,1,103.999995239258,4|0,1:2|3:0,0:0:0:0:
337,378,31098,1,0,3:0:0:0:
337,378,31184,1,4,1:2:0:0:
299,228,31356,1,8,0:0:0:0:
457,319,31527,1,0,3:0:0:0:
451,330,31613,1,0,3:0:0:0:
430,330,31698,6,0,B|382:227|481:184|411:84,1,223.999993164063,4|8,1:3|0:0,0:0:0:0:
205,67,32213,1,0,3:0:0:0:
218,73,32298,1,0,3:0:0:0:
230,65,32384,2,0,P|260:59|287:52,1,55.9999982910157,4|0,1:3|0:0,0:0:0:0:
201,172,32556,2,0,P|171:160|135:155,1,55.9999982910157,4|0,1:3|0:0,0:0:0:0:
69,76,32727,5,8,0:0:0:0:
57,79,32813,1,0,0:0:0:0:
39,96,32898,1,0,3:0:0:0:
26,127,32984,1,0,3:0:0:0:
30,156,33070,6,0,P|38:205|38:272,1,111.999996582031,4|0,1:3|3:0,0:0:0:0:
88,347,33327,1,0,3:0:0:0:
88,347,33413,2,0,L|147:336,1,55.9999982910157,8|0,0:0|0:0,0:0:0:0:
144,252,33584,2,0,P|194:264|283:276,1,111.999996582031,4|0,1:3|3:0,0:0:0:0:
341,354,33927,5,8,0:0:0:0:
340,350,34013,1,8,0:0:0:0:
340,346,34099,1,8,0:0:0:0:
339,342,34184,1,8,0:0:0:0:
340,338,34270,1,8,0:0:0:0:
341,334,34356,1,8,0:0:0:0:
341,330,34441,6,0,B|398:334|436:311|436:311|403:293|389:264,1,160,4|8,1:2|0:0,0:0:0:0:
242,187,35127,2,0,P|286:173|323:152,1,80,4|4,1:3|1:3,0:0:0:0:
156,31,35470,1,8,0:0:0:0:
260,99,35641,1,4,1:3:0:0:
100,112,35813,5,0,3:0:0:0:
94,121,35898,1,0,3:0:0:0:
93,138,35984,2,0,P|34:120|-10:124,1,80,4|8,1:3|0:0,0:0:0:0:
138,234,36327,5,0,3:0:0:0:
153,239,36413,1,0,3:0:0:0:
163,230,36498,2,0,P|172:176|191:133,2,80,4|4|8,1:3|1:3|0:0,0:0:0:0:
84,311,37013,5,0,3:0:0:0:
87,330,37098,1,0,3:0:0:0:
102,343,37184,2,0,B|117:367|219:296|269:333,2,160,4|8|4,1:3|0:0|1:3,0:0:0:0:
322,384,38041,1,4,1:3:0:0:
359,259,38213,1,8,0:0:0:0:
365,272,38556,5,0,1:0:0:0:
228,173,38727,1,0,3:0:0:0:
234,189,38813,1,0,3:0:0:0:
246,204,38898,1,8,0:0:0:0:
169,105,39070,1,0,1:0:0:0:
57,283,39241,5,8,0:0:0:0:
0,170,39413,1,0,1:0:0:0:
8,41,39584,1,8,0:0:0:0:
47,36,39669,1,8,0:0:0:0:
87,32,39755,1,8,0:0:0:0:
127,28,39841,1,8,0:0:0:0:
167,24,39927,6,0,B|193:0|247:10|247:10|263:47|287:82,1,160,4|8,3:2|0:0,0:0:0:0:
279,181,40613,6,0,P|313:177|346:170,1,40,4|0,1:2|0:0,0:0:0:0:
401,281,40784,2,0,P|380:274|362:271,1,40,4|0,1:2|0:0,0:0:0:0:
281,363,40956,2,0,P|262:355|243:350,1,40,8|0,0:0|0:0,0:0:0:0:
160,379,41127,5,4,1:2:0:0:
37,230,41298,1,0,3:0:0:0:
42,246,41384,1,0,3:0:0:0:
53,261,41470,2,0,P|124:248|127:245,1,80,4|8,1:2|0:0,0:0:0:0:
232,111,41813,1,0,3:0:0:0:
234,125,41898,1,0,3:0:0:0:
225,140,41984,2,0,P|185:131|147:119,2,80,4|4|8,1:2|1:2|0:0,0:0:0:0:
20,20,42670,6,0,P|22:61|23:108,1,80,4|8,1:2|0:0,0:0:0:0:
153,19,43184,1,0,3:0:0:0:
164,28,43270,1,0,3:0:0:0:
172,48,43356,1,4,1:2:0:0:
115,246,43527,1,0,1:0:0:0:
141,143,43698,6,0,P|192:139|229:132,1,80,4|0,1:2|0:0,0:0:0:0:
365,302,44041,1,4,1:2:0:0:
256,192,44127,12,0,45413,0:0:0:0:
