osu file format v14

[General]
AudioFilename: audio.mp3
AudioLeadIn: 0
PreviewTime: 12498
Countdown: 0
SampleSet: Soft
StackLeniency: 0.7
Mode: 0
LetterboxInBreaks: 0
WidescreenStoryboard: 1

[Editor]
Bookmarks: 33927
DistanceSpacing: 1.5
BeatDivisor: 4
GridSize: 32
TimelineZoom: 2

[Metadata]
Title:neko nipples
TitleUnicode:neko nipples
Artist:Himeko Katagiri
ArtistUnicode:Himeko Katagiri
Creator:farq
Version:Hard!! :3
Source:
Tags:cat Lolicore Drum & Bass DnB Breakcore Electronic Instrumental mashcore SOUND OF LOLI Tsundere Violence Japanese Yoshino Sightread
BeatmapID:3968867
BeatmapSetID:1921996

[Difficulty]
HPDrainRate:4
CircleSize:3.5
OverallDifficulty:6
ApproachRate:7.5
SliderMultiplier:1.4
SliderTickRate:1

[Events]
//Background and Video events
0,0,"neko.jpg",0,0
//Break Periods
//Storyboard Layer 0 (Background)
//Storyboard Layer 1 (Fail)
//Storyboard Layer 2 (Pass)
//Storyboard Layer 3 (Foreground)
//Storyboard Layer 4 (Overlay)
//Storyboard Sound Samples

[TimingPoints]
156,342.857142857143,4,2,1,65,1,0
156,-105.263157894737,4,2,1,65,0,0
1184,-105.263157894737,4,2,1,45,0,0
1356,-105.263157894737,4,2,1,60,0,0
6841,-100,4,2,1,70,0,0
12498,-111.111111111111,4,2,1,60,0,0
23298,-100,4,2,1,65,0,1
28784,-100,4,2,1,70,0,1
34441,-105.263157894737,4,2,1,55,0,0
45413,-105.263157894737,4,2,1,5,0,0

[Colours]
Combo1 : 173,133,128
Combo2 : 199,160,152
Combo3 : 243,219,183

[HitObjects]
399,94,156,5,4,1:2:0:0:
399,94,498,1,4,1:2:0:0:
399,94,841,1,4,1:2:0:0:
323,159,1013,2,0,L|328:203,2,33.2499991121292,0|0|8,3:0|3:0|0:0,0:0:0:0:
280,68,1356,6,0,P|211:63|120:41,1,132.999996448517,4|0,1:2|1:0,0:0:0:0:
62,101,1870,2,0,P|67:134|68:170,1,66.4999982242585,8|0,0:0|0:0,0:0:0:0:
170,187,2213,1,0,1:0:0:0:
170,187,2384,2,0,P|164:224|166:273,1,66.4999982242585,0|8,1:0|0:0,0:0:0:0:
328,366,2898,5,0,1:0:0:0:
413,310,3070,1,0,3:0:0:0:
413,310,3156,1,0,3:0:0:0:
413,310,3241,2,0,P|414:256|417:225,1,66.4999982242585,8|0,0:0|1:0,0:0:0:0:
384,148,3584,2,0,L|421:138,2,33.2499991121292,0|0|0,3:0|3:0|1:3,0:0:0:0:
283,145,3927,1,8,0:0:0:0:
265,56,4098,1,0,3:0:0:0:
265,56,4184,1,0,3:0:0:0:
265,56,4270,6,0,P|193:30|110:39,1,132.999996448517,4|8,1:3|0:0,0:0:0:0:
2,179,4956,2,0,P|9:219|8:256,1,66.4999982242585,4|4,1:3|1:3,0:0:0:0:
79,315,5298,2,0,P|118:308|165:305,1,66.4999982242585,8|0,0:0|0:0,0:0:0:0:
218,238,5641,1,4,1:3:0:0:
304,307,5813,1,0,3:0:0:0:
304,307,5984,6,0,P|315:259|317:225,1,66.4999982242585,8|4,0:0|1:3,0:0:0:0:
410,207,6327,2,0,P|398:167|389:127,1,66.4999982242585,8|0,0:0|1:0,0:0:0:0:
321,90,6670,1,0,3:0:0:0:
321,90,6841,6,0,P|274:86|233:74,1,70,4|0,1:2|0:0,0:0:0:0:
177,9,7184,2,0,P|68:32|21:31,1,140,4|0,1:2|3:0,0:0:0:0:
10,133,7698,2,0,P|16:169|19:222,1,70,4|4,1:2|1:2,0:0:0:0:
103,265,8041,1,8,0:0:0:0:
150,170,8213,1,0,3:0:0:0:
150,170,8384,6,0,P|218:159|290:129,1,140,4|0,1:2|3:0,0:0:0:0:
329,211,8898,2,0,P|363:195|407:189,1,70,4|0,1:2|3:0,0:0:0:0:
472,121,9241,1,4,1:2:0:0:
472,121,9413,1,8,0:0:0:0:
414,44,9584,1,0,3:0:0:0:
414,44,9670,1,0,3:0:0:0:
414,44,9756,6,0,P|327:40|250:25,1,140,4|8,1:3|0:0,0:0:0:0:
202,113,10270,1,0,3:0:0:0:
202,113,10441,2,0,P|210:150|212:200,1,70,4|4,1:3|1:3,0:0:0:0:
309,223,10784,2,0,P|302:263|299:304,1,70,8|0,0:0|3:0,0:0:0:0:
292,318,11041,1,0,3:0:0:0:
281,335,11127,2,0,P|228:320|190:323,1,70,4|0,1:3|3:0,0:0:0:0:
115,358,11470,6,0,P|106:305|96:268,1,70,8|4,0:0|1:3,0:0:0:0:
197,243,11813,2,0,P|199:196|205:161,1,70,8|4,0:0|1:3,0:0:0:0:
98,154,12156,1,0,3:0:0:0:
22,81,12327,1,0,0:0:0:0:
26,70,12413,1,0,0:0:0:0:
43,65,12498,6,0,B|78:74|140:35|140:35|156:51|167:58,1,125.999996154785,4|8,1:2|0:0,0:0:0:0:
374,65,13184,2,0,P|380:98|382:148,1,62.9999980773926,0|0,1:0|1:0,0:0:0:0:
464,183,13527,1,8,0:0:0:0:
464,183,13870,6,0,P|457:219|454:264,1,62.9999980773926,0|0,1:0|1:0,0:0:0:0:
472,342,14213,1,8,0:0:0:0:
472,342,14384,2,0,L|392:332,1,62.9999980773926,0|0,1:0|3:0,0:0:0:0:
327,287,14727,2,0,P|296:279|236:274,1,62.9999980773926,0|8,1:0|0:0,0:0:0:0:
255,375,15070,1,0,3:0:0:0:
255,375,15156,1,0,3:0:0:0:
255,375,15241,1,0,1:0:0:0:
76,330,15584,5,8,0:0:0:0:
76,330,15927,2,0,P|119:318|149:301,1,62.9999980773926,0|0,1:0|1:0,0:0:0:0:
180,226,16270,1,8,0:0:0:0:
180,226,16613,6,0,P|175:188|170:163,1,62.9999980773926,0|0,1:0|3:0,0:0:0:0:
151,157,16870,1,0,3:0:0:0:
128,159,16956,2,0,P|97:145|53:138,1,62.9999980773926,8|0,0:0|1:0,0:0:0:0:
28,46,17298,2,0,L|-14:53,2,31.4999990386963,0|0|0,3:0|3:0|1:0,0:0:0:0:
122,14,17641,1,8,3:2:0:0:
122,14,17727,1,0,3:0:0:0:
122,14,17813,1,0,3:0:0:0:
140,106,17984,6,0,P|209:89|282:80,1,125.999996154785,4|8,3:0|0:0,0:0:0:0:
443,22,18670,2,0,L|435:90,1,62.9999980773926,0|0,1:0|1:0,0:0:0:0:
496,164,19013,1,8,0:0:0:0:
497,353,19356,5,4,1:3:0:0:
462,264,19527,1,0,1:0:0:0:
462,264,19613,1,0,3:0:0:0:
461,264,19698,2,0,P|399:261|336:252,1,125.999996154785,8|0,0:0|3:0,0:0:0:0:
348,346,20213,2,0,P|302:346|271:352,1,62.9999980773926,4|8,1:3|0:0,0:0:0:0:
217,299,20556,1,0,3:0:0:0:
217,299,20641,1,0,3:0:0:0:
217,299,20727,5,0,1:0:0:0:
31,302,21070,1,8,0:0:0:0:
31,302,21413,6,0,P|27:253|21:224,1,62.9999980773926,0|0,1:0|1:0,0:0:0:0:
87,170,21756,1,8,0:0:0:0:
87,170,22098,6,0,P|85:130|81:96,1,62.9999980773926,4|0,1:3|3:0,0:0:0:0:
174,88,22441,6,0,P|168:51|168:25,1,62.9999980773926,4|0,1:3|3:0,0:0:0:0:
255,61,22783,6,0,L|328:46,1,62.9999980773926,4|0,1:3|3:0,0:0:0:0:
330,42,23041,1,0,3:0:0:0:
334,31,23127,1,8,0:0:0:0:
438,33,23298,6,0,P|431:70|429:124,1,70,4|0,1:2|0:0,0:0:0:0:
327,132,23641,2,0,P|339:198|342:281,1,140,4|0,1:2|3:0,0:0:0:0:
430,302,24156,2,0,P|466:293|502:294,1,70,4|4,1:2|1:2,0:0:0:0:
482,190,24498,1,8,0:0:0:0:
460,86,24670,1,0,3:0:0:0:
468,94,24756,1,0,3:0:0:0:
468,94,24841,6,0,P|391:87|304:70,1,140,4|8,1:2|0:0,0:0:0:0:
250,18,25356,2,0,P|217:38|174:50,1,70,4|0,1:2|3:0,0:0:0:0:
167,54,25613,1,0,3:0:0:0:
147,59,25698,2,0,P|152:92|154:140,1,70,4|8,1:2|0:0,0:0:0:0:
258,150,26041,1,0,3:0:0:0:
258,150,26213,6,0,P|251:213|250:305,1,140,4|8,1:2|0:0,0:0:0:0:
177,354,26727,1,0,3:0:0:0:
177,354,26813,1,0,3:0:0:0:
177,354,26898,2,0,P|130:337|92:333,1,70,4|4,1:2|1:2,0:0:0:0:
13,293,27241,2,0,P|13:252|6:208,1,70,8|0,0:0|3:0,0:0:0:0:
83,148,27584,6,0,P|125:135|155:123,1,70,4|0,1:2|3:0,0:0:0:0:
167,229,27927,2,0,P|201:232|264:243,1,70,8|4,0:0|1:2,0:0:0:0:
335,200,28270,2,0,L|346:126,1,70,8|4,0:0|1:2,0:0:0:0:
336,34,28613,1,0,3:0:0:0:
336,34,28698,1,0,3:0:0:0:
336,34,28784,6,0,P|259:39|176:16,1,140,4|4,1:2|1:2,0:0:0:0:
107,73,29298,2,0,P|114:109|117:156,1,70,8|0,0:0|3:0,0:0:0:0:
220,151,29641,2,0,P|214:186|211:232,1,70,4|4,1:2|1:2,0:0:0:0:
115,261,29984,1,8,0:0:0:0:
191,333,30156,1,0,3:0:0:0:
191,333,30241,1,0,3:0:0:0:
191,333,30327,6,0,P|255:320|338:323,1,140,4|8,1:2|0:0,0:0:0:0:
431,294,30841,2,0,L|441:212,1,70,4|0,1:2|3:0,0:0:0:0:
335,208,31184,2,0,L|323:122,1,70,4|8,1:2|0:0,0:0:0:0:
435,121,31527,1,0,3:0:0:0:
435,121,31698,6,0,P|441:78|450:49,1,70,4|0,1:3|0:0,0:0:0:0:
348,19,32041,2,0,P|307:13|258:2,1,70,8|0,0:0|3:0,0:0:0:0:
173,9,32384,1,4,1:3:0:0:
73,43,32556,2,0,P|77:77|80:133,1,70,4|8,1:3|0:0,0:0:0:0:
22,200,32898,1,0,3:0:0:0:
22,200,32984,1,0,3:0:0:0:
22,200,33070,6,0,P|35:269|43:354,1,140,4|8,1:3|0:0,0:0:0:0:
144,363,33584,2,0,P|175:353|231:350,1,70,4|0,1:3|3:0,0:0:0:0:
314,374,33927,1,8,0:0:0:0:
314,374,34013,1,8,0:0:0:0:
314,374,34098,2,0,L|320:321,3,35,8|8|8|8,0:0|0:0|0:0|0:0,0:0:0:0:
369,328,34441,6,0,P|359:263|351:171,1,132.999996448517,4|8,1:2|0:0,0:0:0:0:
244,33,35127,1,4,1:3:0:0:
244,33,35298,2,0,P|202:26|152:14,1,66.4999982242585,4|8,1:3|0:0,0:0:0:0:
80,37,35641,2,0,P|83:68|80:116,1,66.4999982242585,4|0,1:3|3:0,0:0:0:0:
71,123,35898,5,0,3:0:0:0:
63,147,35984,2,0,P|67:185|65:236,1,66.4999982242585,4|8,1:3|0:0,0:0:0:0:
44,310,36327,1,0,3:0:0:0:
44,310,36498,2,0,P|84:303|133:303,1,66.4999982242585,4|4,1:3|1:3,0:0:0:0:
164,218,36841,2,0,P|198:234|246:251,1,66.4999982242585,8|0,0:0|3:0,0:0:0:0:
239,259,37098,1,0,3:0:0:0:
246,273,37184,6,0,P|307:257|382:265,1,132.999996448517,4|8,1:3|0:0,0:0:0:0:
499,105,37870,2,0,P|499:66|504:31,1,66.4999982242585,4|4,1:3|1:3,0:0:0:0:
406,11,38213,1,8,0:0:0:0:
406,11,38556,5,0,1:0:0:0:
350,93,38727,1,0,3:0:0:0:
350,93,38813,1,0,3:0:0:0:
350,93,38898,2,0,P|286:79|262:77,1,66.4999982242585,8|0,0:0|1:0,0:0:0:0:
220,2,39241,2,0,P|170:20|132:27,1,66.4999982242585,8|0,0:0|1:0,0:0:0:0:
88,96,39584,2,0,L|94:150,3,33.2499991121292,8|8|8|8,0:0|0:0|0:0|0:0,0:0:0:0:
44,146,39927,6,0,P|52:217|49:290,1,132.999996448517,4|8,1:2|0:0,0:0:0:0:
228,369,40613,1,4,1:2:0:0:
228,369,40784,2,0,L|309:355,1,66.4999982242585,4|8,1:2|0:0,0:0:0:0:
389,330,41127,2,0,P|391:282|397:249,1,66.4999982242585,4|0,1:2|3:0,0:0:0:0:
377,258,41384,1,0,3:0:0:0:
353,253,41470,2,0,P|352:195|348:159,1,66.4999982242585,4|8,1:2|0:0,0:0:0:0:
260,144,41813,1,0,3:0:0:0:
260,144,41984,6,0,P|219:152|166:154,1,66.4999982242585,4|4,1:2|1:2,0:0:0:0:
94,151,42327,1,8,0:0:0:0:
46,344,42670,1,4,1:2:0:0:
244,363,43013,6,0,P|283:356|342:355,1,66.4999982242585,8|0,0:0|3:0,0:0:0:0:
326,345,43270,1,0,3:0:0:0:
340,332,43356,2,0,P|342:287|350:256,1,66.4999982242585,4|0,1:2|1:0,0:0:0:0:
247,256,43698,5,4,1:2:0:0:
421,159,44041,1,4,1:2:0:0:
256,192,44213,12,0,45413,0:0:0:0:
