osu file format v14

[General]
AudioFilename: thenosebleedsection.mp3
AudioLeadIn: 0
PreviewTime: 58747
Countdown: 0
SampleSet: None
StackLeniency: 0.3
Mode: 0
LetterboxInBreaks: 0
WidescreenStoryboard: 1

[Editor]
Bookmarks: 339,10189,20039,29889,39739,49589,59439,69290,79140,88990,98840,108690,118540,128390,133315,138241,148091,157941,167791,177641,187491,197457,207307
DistanceSpacing: 0.6
BeatDivisor: 4
GridSize: 8
TimelineZoom: 2.3

[Metadata]
Title:The Nosebleed Section
TitleUnicode:The Nosebleed Section
Artist:Hilltop Hoods
ArtistUnicode:Hilltop Hoods
Creator:Axarious
Version:you know i looked around
Source:
Tags:
BeatmapID:1562811
BeatmapSetID:740819

[Difficulty]
HPDrainRate:4
CircleSize:4
OverallDifficulty:8
ApproachRate:9.6
SliderMultiplier:3.2
SliderTickRate:0.5

[Events]
//Background and Video events
0,0,"thenosebleedsection.png",0,0
//Break Periods
2,128590,131575
2,133515,136500
//Storyboard Layer 0 (Background)
//Storyboard Layer 1 (Fail)
//Storyboard Layer 2 (Pass)
//Storyboard Layer 3 (Foreground)
//Storyboard Sound Samples

[TimingPoints]
339,307.817013046311,4,3,0,40,1,0
339,-200,4,3,0,40,0,0
19731,-100,4,3,0,40,0,0
20039,-133.333333333333,4,3,0,40,0,0
29889,-200,4,3,0,40,0,0
39739,-100,4,3,0,40,0,0
49589,-80,4,3,0,40,0,0
59439,-133.333333333333,4,3,0,40,0,0
69290,-66.6666666666667,4,3,0,40,0,0
79140,-50,4,3,0,40,0,0
88990,-62.5,4,3,0,40,0,0
98840,-166.666666666667,4,3,0,40,0,0
108690,-800,4,3,0,40,0,0
118540,-133.333333333333,4,3,0,40,0,0
128390,-200,4,3,0,40,0,0
138241,-100,4,3,0,40,0,0
148091,-66.6666666666667,4,3,0,40,0,0
157941,615.637184485943,4,3,0,40,1,0
157941,-100,4,3,0,40,0,0
162866,-50,4,3,0,40,0,0
167791,307.817013046311,4,3,0,40,1,0
167791,-100,4,3,0,40,0,0
172716,-66.6666666666667,4,3,0,40,0,0
177641,-200,4,3,0,40,0,0
182566,-100,4,3,0,40,0,0
187491,315.789473684211,4,3,0,40,1,0
187491,-200,4,3,0,40,0,0
187806,303.030303030303,4,3,0,40,1,0
187883,294.117647058824,4,3,0,40,1,0
187956,277.777777777778,4,3,0,40,1,0
188094,394.736842105263,4,3,0,40,1,0
188291,389.61038961039,4,3,0,40,1,0
188485,348.837209302326,4,3,0,40,1,0
188659,344.827586206897,4,3,0,40,1,0
188659,-200,4,3,0,40,0,0
189348,361.44578313253,4,3,0,40,1,0
189348,-200,4,3,0,40,0,0
190613,344.827586206897,4,3,0,40,1,0
190785,375,4,3,0,40,1,0
190785,-200,4,3,0,40,0,0
190972,288.461538461538,4,3,0,40,1,0
190972,-200,4,3,0,40,0,0
191116,300,4,3,0,40,1,0
191266,348.837209302326,4,3,0,40,1,0
192138,307.817013046311,4,3,0,40,1,0
192138,-200,4,3,0,40,0,0
195677,291.26213592233,4,3,0,40,1,0
196842,307.817013046311,4,3,0,40,1,0
197457,307.817013046311,4,3,0,40,1,0
197457,-66.6666666666667,4,3,0,40,0,0

[Colours]
Combo1 : 248,250,163
Combo2 : 254,205,139
Combo3 : 250,152,152
Combo4 : 221,147,249

[HitObjects]
159,234,339,6,0,L|168:313,1,80
139,74,646,2,0,L|149:153,1,80
241,298,954,2,0,P|301:348|379:347,1,160,8|0,0:0|0:0,0:0:0:0:
256,192,1416,1,0,0:0:0:0:
332,271,1570,6,0,L|411:262,1,80
423,151,1878,2,0,L|502:142,1,80
318,105,2185,2,0,P|258:155|180:154,1,160,8|0,0:0|0:0,0:0:0:0:
403,287,2801,6,0,L|324:296,1,80
139,74,3109,2,0,L|218:65,1,80
419,15,3417,1,8,0:0:0:0:
419,15,3724,2,0,P|448:66|447:125,1,120
472,106,4032,6,0,L|481:185,1,80
294,33,4340,2,0,L|303:112,1,80
312,194,4648,1,8,0:0:0:0:
113,227,4802,2,0,B|72:216|72:216|55:99,1,160
159,234,5264,6,0,L|168:313,1,80
139,74,5571,2,0,L|149:153,1,80
241,298,5879,2,0,P|301:348|379:347,1,160,8|0,0:0|0:0,0:0:0:0:
256,192,6341,1,0,0:0:0:0:
332,271,6495,6,0,L|411:262,1,80
423,151,6803,2,0,L|502:142,1,80
318,105,7110,2,0,P|258:155|180:154,1,160,8|0,0:0|0:0,0:0:0:0:
403,287,7726,6,0,L|324:296,1,80
139,74,8034,2,0,L|218:65,1,80
419,15,8342,1,8,0:0:0:0:
419,15,8649,2,0,P|448:66|447:125,1,120
472,106,8957,6,0,L|481:185,1,80
294,33,9265,2,0,L|303:112,1,80,8|0,0:0|0:0,0:0:0:0:
312,194,9573,1,8,0:0:0:0:
113,227,9727,2,0,B|72:216|72:216|55:99,1,160
139,74,10189,6,0,L|149:153,1,80
168,313,10496,2,0,L|159:234,1,80
209,21,10804,1,8,0:0:0:0:
209,20,11112,2,0,P|267:31|309:72,1,120
337,49,11420,6,0,L|324:128,1,80
416,224,11728,1,0,0:0:0:0:
470,64,11882,1,0,0:0:0:0:
310,72,12036,6,0,L|297:151,1,80,8|0,0:0|0:0,0:0:0:0:
495,152,12344,1,0,0:0:0:0:
426,329,12498,1,0,0:0:0:0:
426,329,12651,6,0,P|390:313|351:307,1,80
85,270,12959,2,0,P|123:261|163:259,1,80
302,245,13267,1,8,0:0:0:0:
302,245,13575,2,0,P|262:289|210:319,1,120
244,349,13882,6,0,L|164:339,1,80
134,156,14190,1,8,0:0:0:0:
85,270,14344,1,0,0:0:0:0:
45,76,14498,1,8,0:0:0:0:
233,137,14652,2,0,B|268:152|268:152|249:31,1,160
334,74,15114,6,0,P|372:85|411:78,1,80
173,74,15422,2,0,P|138:93|115:125,1,80
157,338,15729,1,8,0:0:0:0:
157,338,16037,2,0,B|165:316|165:316|69:330,1,120
31,337,16345,6,0,L|45:258,1,80
196,159,16653,1,0,0:0:0:0:
157,338,16807,1,0,0:0:0:0:
331,282,16961,2,0,P|282:251|223:258,1,120,8|0,0:0|0:0,0:0:0:0:
183,243,17268,2,0,L|262:235,1,80
451,101,17576,6,0,P|419:150|363:170,1,120
332,157,17884,2,0,L|324:77,1,80
117,79,18192,2,0,P|149:30|205:10,1,120,8|0,0:0|0:0,0:0:0:0:
236,23,18500,2,0,L|244:103,1,80
269,368,18808,5,0,0:0:0:0:
200,173,18961,1,0,0:0:0:0:
403,210,19115,1,8,0:0:0:0:
262,284,19269,2,0,L|222:288,1,40
147,262,19423,6,0,L|136:299,1,40,8|0,0:0|0:0,0:0:0:0:
76,350,19577,6,0,L|36:354,1,40
151,376,19731,6,0,L|161:338,5,40
269,368,20039,6,0,P|340:319|332:234,1,180.000006866455,4|0,0:0|0:0,0:0:0:0:
216,192,20347,2,0,L|96:203,1,120.000004577637
341,83,20654,1,8,0:0:0:0:
262,284,20808,1,0,0:0:0:0:
127,115,20962,1,0,0:0:0:0:
344,0,21116,6,0,P|415:49|407:134,1,180.000006866455
333,163,21424,1,0,0:0:0:0:
493,319,21578,2,0,B|465:302|465:302|377:308,1,120.000004577637
117,195,21886,1,8,0:0:0:0:
199,338,22040,2,0,P|249:367|306:354,1,120.000004577637
243,22,22347,6,0,P|156:12|86:66,1,180.000006866455
53,138,22655,1,0,0:0:0:0:
262,284,22809,2,0,L|281:165,1,120.000004577637
94,359,23117,1,8,0:0:0:0:
281,165,23271,1,0,0:0:0:0:
117,195,23425,1,0,0:0:0:0:
360,312,23579,6,0,P|443:290|468:207,1,180.000006866455
438,130,23887,1,0,0:0:0:0:
207,226,24040,2,0,B|192:245|192:245|287:235,1,120.000004577637,8|0,0:0|0:0,0:0:0:0:
190,133,24348,1,8,0:0:0:0:
384,229,24502,1,0,0:0:0:0:
201,346,24656,2,0,P|150:373|93:358,1,120.000004577637
0,109,24964,6,0,B|140:122|140:122|164:152,1,180.000006866455,2|0,0:0|0:0,0:0:0:0:
244,124,25272,2,0,P|246:182|207:226,1,120.000004577637
13,364,25579,1,8,0:0:0:0:
91,193,25733,1,0,0:0:0:0:
201,346,25887,1,0,0:0:0:0:
0,108,26041,6,0,P|45:33|130:12,1,180.000006866455
209,42,26349,1,0,0:0:0:0:
207,226,26503,2,0,L|201:345,1,120.000004577637
55,181,26811,1,8,0:0:0:0:
244,124,26965,1,0,0:0:0:0:
48,289,27119,1,0,0:0:0:0:
313,207,27272,1,0,0:0:0:0:
54,181,27426,6,0,P|33:96|87:28,1,180.000006866455
173,19,27734,1,0,0:0:0:0:
144,282,27888,1,0,0:0:0:0:
244,124,28042,2,0,L|125:116,1,120.000004577637,8|0,0:0|0:0,0:0:0:0:
314,317,28350,2,0,P|382:371|466:349,1,180.000006866455
491,269,28658,6,0,B|500:182|500:182|488:149,1,120.000004577637
239,357,28965,2,0,B|227:326|227:326|237:239,1,120.000004577637,8|0,0:0|0:0,0:0:0:0:
512,75,29273,1,8,0:0:0:0:
401,278,29427,1,0,0:0:0:0:
280,80,29581,2,0,B|75:49|75:49|97:72,1,240.000009155274,0|4,0:0|0:0,0:0:0:0:
394,28,30505,6,0,P|406:105|363:170,1,160,8|0,0:0|0:0,0:0:0:0:
179,355,31120,2,0,P|51:270|39:116,1,320,0|8,0:0|0:0,0:0:0:0:
280,80,32044,1,0,0:0:0:0:
197,199,32198,1,0,0:0:0:0:
114,167,32351,6,0,L|274:160,1,160
349,130,32813,1,0,0:0:0:0:
349,130,32967,2,0,L|363:209,1,80,8|0,0:0|0:0,0:0:0:0:
393,231,33275,2,0,L|407:310,1,80
306,327,33583,5,0,0:0:0:0:
213,280,33737,1,0,0:0:0:0:
113,303,33891,1,8,0:0:0:0:
113,303,34044,2,0,L|33:297,1,80,0|8,0:0|0:0,0:0:0:0:
235,384,34505,1,0,0:0:0:0:
306,327,34660,1,0,0:0:0:0:
235,384,34814,6,0,L|75:366,1,160,2|0,0:0|0:0,0:0:0:0:
188,305,35276,1,0,0:0:0:0:
319,351,35430,2,0,L|398:359,1,80,8|0,0:0|0:0,0:0:0:0:
424,336,35737,2,0,L|504:345,1,80
188,305,36045,5,0,0:0:0:0:
188,305,36199,1,0,0:0:0:0:
188,305,36353,1,0,0:0:0:0:
188,305,36507,1,0,0:0:0:0:
345,269,36661,2,0,L|265:262,1,80,8|0,0:0|0:0,0:0:0:0:
319,351,36969,2,0,L|399:358,1,80
188,305,37277,5,0,0:0:0:0:
188,305,37430,1,0,0:0:0:0:
188,305,37584,1,0,0:0:0:0:
188,305,37738,1,0,0:0:0:0:
110,249,37892,2,0,L|30:242,1,80,8|0,0:0|0:0,0:0:0:0:
250,172,38200,2,0,L|170:165,1,80
188,305,38508,5,0,0:0:0:0:
188,305,38661,1,0,0:0:0:0:
188,305,38816,1,8,0:0:0:0:
188,305,38970,1,0,0:0:0:0:
76,161,39123,2,0,L|67:81,1,80,8|0,0:0|0:0,0:0:0:0:
229,79,39431,2,0,L|220:0,1,80
256,384,39739,5,4,0:0:0:0:
139,30,40046,1,0,0:0:0:0:
376,328,40355,1,8,0:0:0:0:
0,384,40663,2,0,P|6:304|47:237,1,160
323,261,40970,6,0,L|164:245,2,160
102,302,41432,2,0,P|188:380|305:371,1,240
376,328,41740,1,0,0:0:0:0:
363,61,41894,2,0,P|295:19|216:20,1,160
455,356,42202,6,0,L|468:116,1,240
363,61,42509,2,0,B|354:178|354:178|369:217,1,160
217,21,42817,2,0,B|245:41|245:41|40:53,1,240,8|0,0:0|0:0,0:0:0:0:
0,202,43125,2,0,P|54:145|132:134,1,160
331,360,43433,6,0,L|172:341,2,160,0|0|8,0:0|0:0|0:0,0:0:0:0:
471,83,43895,2,0,B|444:111|444:111|242:123,1,240
132,134,44202,1,0,0:0:0:0:
434,286,44356,2,0,P|472:228|407:206,1,160
252,6,44664,6,0,L|233:245,1,240,2|0,0:0|0:0,0:0:0:0:
224,347,44972,2,0,B|238:368|238:368|103:354,1,160
2,63,45280,2,0,P|111:95|132:207,1,240,8|0,0:0|0:0,0:0:0:0:
233,245,45588,2,0,L|392:239,1,160
205,61,45895,6,0,L|364:68,2,160
30,268,46358,1,0,0:0:0:0:
224,347,46511,2,0,P|298:323|337:255,1,160,8|0,0:0|0:0,0:0:0:0:
130,12,46819,2,0,P|26:65|2:179,1,240
30,268,47127,6,0,B|11:252|11:252|145:259,1,160
419,100,47435,2,0,B|285:107|285:107|304:91,1,160
92,335,47742,2,0,P|168:248|283:259,1,240,8|0,0:0|0:0,0:0:0:0:
184,354,48050,2,0,L|344:342,1,160
145,76,48358,6,0,L|304:89,2,160,0|0|8,0:0|0:0|0:0,0:0:0:0:
466,98,48820,1,0,0:0:0:0:
222,114,48974,2,0,L|62:126,1,160,8|0,0:0|0:0,0:0:0:0:
343,342,49281,2,0,L|503:330,1,160
0,200,49589,6,0,B|32:178|32:178|292:201,1,300,4|0,0:0|0:0,0:0:0:0:
378,160,49897,2,0,L|354:367,1,200
298,70,50205,2,0,P|476:140|502:330,1,400,8|0,0:0|0:0,0:0:0:0:
0,199,50744,1,0,0:0:0:0:
0,199,50840,6,0,B|97:177|97:177|55:269,1,200
299,70,51148,2,0,B|201:91|201:91|244:0,1,200
114,352,51436,2,0,P|301:318|362:137,1,400,8|0,0:0|0:0,0:0:0:0:
55,270,51975,1,0,0:0:0:0:
55,270,52071,6,0,B|67:302|99:318|99:318|217:378,1,200
311,206,52379,2,0,B|315:239|294:269|294:269|218:377,1,200
55,270,52667,2,0,B|26:200|90:132|166:162|166:162|217:103|308:127|311:205,1,400,8|0,0:0|0:0,0:0:0:0:
0,131,53129,1,0,0:0:0:0:
129,236,53283,6,0,B|184:244|200:298|200:298|190:242|233:209,1,200,4|0,0:0|0:0,0:0:0:0:
448,109,53591,2,0,P|334:88|408:177,1,300,8|0,0:0|0:0,0:0:0:0:
270,140,53899,2,0,P|280:-8|351:122,1,400,12|0,0:0|0:0,0:0:0:0:
120,320,54360,1,0,0:0:0:0:
39,127,54514,6,0,P|153:38|296:67,1,300,4|0,0:0|0:0,0:0:0:0:
349,124,54822,2,0,L|338:323,1,200
27,37,55130,2,0,P|172:32|270:140,1,300,8|0,0:0|0:0,0:0:0:0:
271,238,55438,2,0,P|218:322|129:364,1,200
484,367,55746,6,0,B|498:331|498:331|476:70,1,300
346,17,56053,2,0,P|334:113|394:191,1,200
255,346,56361,2,0,B|7:356|7:356|57:370,1,300,8|0,0:0|0:0,0:0:0:0:
205,238,56669,2,0,P|217:142|157:64,1,200
57,370,56977,6,0,L|255:346,1,200
448,119,57285,2,0,B|383:111|383:111|356:120|356:120|181:99|181:99|154:110,1,300
122,206,57592,2,0,P|56:136|79:43,1,200,8|0,0:0|0:0,0:0:0:0:
348,23,57900,2,0,L|361:223,1,200
57,369,58208,6,0,P|136:249|280:243,1,300
313,317,58516,2,0,L|513:304,1,200,8|0,0:0|0:0,0:0:0:0:
153,110,58824,2,0,L|353:97,1,200,8|0,0:0|0:0,0:0:0:0:
0,262,59132,2,0,L|200:249,1,200
495,227,59439,5,0,0:0:0:0:
495,227,59747,1,0,0:0:0:0:
495,227,60055,6,0,P|388:159|512:184,1,360.000013732911,8|0,0:0|0:0,0:0:0:0:
478,267,60709,1,0,0:0:0:0:
452,233,60863,1,0,0:0:0:0:
426,199,61017,1,0,0:0:0:0:
410,239,61171,1,0,0:0:0:0:
394,279,61325,6,0,B|388:338|321:366|266:329|266:329|190:351|134:285|163:218,1,360.000013732911,8|0,0:0|0:0,0:0:0:0:
233,256,61940,1,0,0:0:0:0:
259,222,62094,1,0,0:0:0:0:
285,188,62248,1,0,0:0:0:0:
302,228,62402,1,0,0:0:0:0:
318,268,62556,6,0,B|311:104|311:104|332:68|321:30,1,240.000009155274,8|0,0:0|0:0,0:0:0:0:
244,54,63018,1,0,0:0:0:0:
218,88,63172,1,0,0:0:0:0:
192,122,63326,1,0,0:0:0:0:
164,155,63479,6,0,P|83:119|136:191,1,240.000009155274,8|0,0:0|0:0,0:0:0:0:
152,230,63941,2,0,P|119:312|110:225,1,240.000009155274,8|0,0:0|0:0,0:0:0:0:
194,235,64364,6,0,P|266:185|179:195,1,240.000009155274,4|0,0:0|0:0,0:0:0:0:
16,40,64826,1,0,0:0:0:0:
96,32,64980,2,0,B|96:40|96:40|104:32|104:32|104:40|104:40|112:32|112:32|112:40|112:40|120:32|120:32|120:40|120:40|128:32|128:32|128:40|128:40|136:32|136:32|136:40|136:40|144:32|144:32|144:40|144:40|152:32|152:32|152:40|152:40|160:32|160:32|160:40|160:40|168:32|168:32|168:40|168:40|176:32|176:32|176:40|176:40|184:32|184:32|184:40|184:40|192:32|192:32|192:40,1,240.000009155274,8|0,0:0|0:0,0:0:0:0:
272,40,65442,1,0,0:0:0:0:
448,128,65596,5,0,0:0:0:0:
416,104,65749,1,0,0:0:0:0:
376,112,65904,1,0,0:0:0:0:
304,200,66057,1,0,0:0:0:0:
272,176,66211,2,0,B|272:184|272:184|264:176|264:176|264:184|264:184|256:176|256:176|256:184|256:184|248:176|248:176|248:184|248:184|240:176|240:176|240:184|240:184|232:176|232:176|232:184|232:184|224:176|224:176|224:184|224:184|216:176|216:176|216:184|216:184|208:176|208:176|208:184|208:184|200:176|200:176|200:184|200:184|192:176|192:176|192:184|192:184|184:176|184:176|184:184|184:184|176:176|176:176|176:184,1,240.000009155274,8|0,0:0|0:0,0:0:0:0:
304,288,66673,1,0,0:0:0:0:
320,328,66827,5,0,0:0:0:0:
336,368,66981,1,0,0:0:0:0:
368,336,67135,1,0,0:0:0:0:
400,304,67289,1,0,0:0:0:0:
368,216,67443,2,0,B|368:224|368:224|376:216|376:216|376:224|376:224|384:216|384:216|384:224|384:224|392:216|392:216|392:224|392:224|400:216|400:216|400:224|400:224|408:216|408:216|408:224|408:224|416:216|416:216|416:224|416:224|424:216|424:216|424:224|424:224|432:216|432:216|432:224|432:224|440:216|440:216|440:224|440:224|448:216|448:216|448:224|448:224|456:216|456:216|456:224|456:224|464:216|464:216|464:224,2,240.000009155274,8|0|0,0:0|0:0|0:0,0:0:0:0:
272,200,68212,1,0,0:0:0:0:
232,288,68366,1,8,0:0:0:0:
184,296,68520,1,0,0:0:0:0:
144,272,68674,1,8,0:0:0:0:
144,272,68982,1,0,0:0:0:0:
343,320,69290,5,4,0:0:0:0:
277,353,69443,2,0,P|349:312|290:371,1,240.000009155274
496,323,69751,2,0,B|391:288|384:165|384:165|329:239|250:213,1,360.000013732911
251,214,70059,2,0,B|278:135|239:66|239:66|260:113|294:135,1,240.000009155274
498,10,70367,2,0,P|495:69|468:122,1,120.000004577637
345,68,70521,6,0,P|383:-4|363:75,1,240.000009155274
391,368,70829,2,0,P|274:347|154:354,1,240.000009155274
142,158,71136,2,0,B|186:275|99:354|99:354|36:302|55:225,1,360.000013732911,8|0,0:0|0:0,0:0:0:0:
55,225,71444,2,0,P|172:252|270:320,1,240.000009155274
353,340,71752,6,0,B|343:267|343:267|433:288|433:288|394:351,1,240.000009155274
114,345,72060,2,0,B|92:302|92:302|106:243|106:243|243:288,1,240.000009155274
462,137,72368,2,0,B|227:174|227:174|274:207|274:207|330:175,1,360.000013732911,8|0,0:0|0:0,0:0:0:0:
331,174,72676,2,0,B|328:27|328:27|256:86,1,240.000009155274
256,85,72983,5,0,0:0:0:0:
63,199,73137,2,0,B|22:190|22:190|13:140|13:140|62:116|62:116|96:155|96:155|78:192,1,240.000009155274
201,266,73445,2,0,B|169:302|169:302|151:382|151:382|204:286,2,240.000009155274,0|8|0,0:0|0:0|0:0,0:0:0:0:
212,217,73907,2,0,B|166:202|166:202|208:240|208:240|357:220|357:220|252:220,1,360.000013732911
240,148,74215,5,2,0:0:0:0:
176,52,74368,2,0,P|206:131|210:38,1,240.000009155274
341,85,74676,2,0,P|327:142|290:188,1,120.000004577637
122,190,74830,2,0,B|243:214|260:334|260:334|290:263|370:253,1,360.000013732911,8|0,0:0|0:0,0:0:0:0:
480,264,75138,2,0,P|385:243|460:183,1,240.000009155274
505,13,75446,6,0,P|429:97|322:61,1,240.000009155274
73,136,75754,2,0,P|128:72|95:150,1,240.000009155274
225,7,76061,2,0,B|272:125|198:220|198:220|266:236|289:308,1,360.000013732911,8|0,0:0|0:0,0:0:0:0:
289,308,76369,2,0,P|170:295|51:295,1,240.000009155274
316,315,76677,6,0,B|340:332|340:332|384:319|384:319|400:276|400:276|362:251|362:251|319:263|319:263|309:288,1,240.000009155274
281,336,76985,2,0,B|266:383|266:383|224:256|224:256|266:292,1,240.000009155274
425,138,77293,2,0,B|441:95|441:95|285:177|285:177|204:135|204:135|249:137,1,360.000013732911,8|0,0:0|0:0,0:0:0:0:
251,137,77601,2,0,B|205:251|205:251|116:174,1,240.000009155274
116,174,77908,5,0,0:0:0:0:
407,227,78062,2,0,B|444:237|444:237|498:173|498:173|428:216|428:216|428:250,2,240.000009155274,0|8|0,0:0|0:0|0:0,0:0:0:0:
215,66,78524,2,2,B|53:44|53:44|175:105|175:105|388:26|388:26|454:96|454:96|238:68,1,840.000032043458,8|0,0:0|0:0,0:0:0:0:
328,182,79140,6,0,B|289:153|289:153|452:174|452:174|345:185,3,320,4|0|0|0,0:0|0:0|0:0|0:0,0:0:0:0:
256,240,79755,1,8,0:0:0:0:
427,292,80679,6,0,B|459:327|459:327|394:366|394:366|344:316|344:316|382:247|382:247|415:280,1,320
478,228,80987,1,8,0:0:0:0:
153,252,81602,6,0,B|137:278|137:278|168:288|168:288|140:147|140:147|193:178|193:178|169:224,3,320
66,185,82218,2,0,B|39:343|39:343|263:386|263:386|250:295,1,480,8|0,0:0|0:0,0:0:0:0:
250,295,82526,2,0,B|296:80|296:80|441:100|441:100|488:268|488:268|390:281,1,640
56,61,83142,6,0,B|9:95|9:95|44:-2|44:-2|133:48|133:48|76:53,1,320,8|0,0:0|0:0,0:0:0:0:
57,87,83449,2,0,B|24:135|24:135|95:200|96:294|96:294|175:307|175:307|223:245|223:245|152:175|155:81|155:81|96:72,1,640,8|0,0:0|0:0,0:0:0:0:
349,75,84065,6,0,P|277:155|334:64,3,320,4|0|0|0,0:0|0:0|0:0|0:0,0:0:0:0:
439,38,84680,1,8,0:0:0:0:
197,251,85604,6,0,B|142:206|142:206|174:122|174:122|240:182|240:182|212:246,1,320
225,323,85912,1,8,0:0:0:0:
53,32,86527,6,0,B|190:62|190:62|99:11|99:11|25:26,3,320
80,115,87143,2,0,B|452:68|452:68|382:147,1,480,8|0,0:0|0:0,0:0:0:0:
382,147,87451,2,0,B|208:118|208:118|326:279|326:279|486:166|486:166|419:153,1,640
119,319,88066,6,0,B|111:372|111:372|68:215|68:215|127:256|127:256|124:288,1,320,8|0,0:0|0:0,0:0:0:0:
155,325,88374,2,0,B|195:371|195:371|281:348|406:372|406:372|439:336|439:336|412:296|412:296|286:297|210:259|210:259|159:292,1,640,8|0,0:0|0:0,0:0:0:0:
76,300,88836,1,0,0:0:0:0:
0,384,88990,6,0,L|512:384,1,512,4|0,0:0|0:0,0:0:0:0:
0,0,89605,2,0,L|512:0,1,512,8|0,0:0|0:0,0:0:0:0:
0,288,90221,6,0,L|256:288,1,256
512,96,90529,2,0,L|256:96,1,256
0,192,90837,6,0,L|512:192,1,512,8|0,0:0|0:0,0:0:0:0:
512,384,91298,1,0,0:0:0:0:
256,384,91452,6,0,L|0:384,1,256
256,288,91760,2,0,L|0:288,1,256
0,0,92068,2,0,L|384:0,1,384,8|0,0:0|0:0,0:0:0:0:
384,96,92376,2,0,L|128:96,1,256
128,288,92684,5,0,0:0:0:0:
128,192,92838,1,0,0:0:0:0:
384,192,92991,1,8,0:0:0:0:
384,288,93145,1,0,0:0:0:0:
0,288,93299,6,0,L|512:288,1,512,8|0,0:0|0:0,0:0:0:0:
512,384,93761,1,0,0:0:0:0:
256,384,93915,6,0,L|0:384,1,256,2|0,0:0|0:0,0:0:0:0:
128,96,94223,2,0,L|384:96,1,256
128,288,94531,6,0,L|384:288,1,256,8|0,0:0|0:0,0:0:0:0:
256,0,94838,2,0,L|0:0,1,256
0,192,95146,6,0,L|384:192,1,384
512,288,95454,2,0,L|256:288,2,256,0|0|8,0:0|0:0|0:0,0:0:0:0:
256,384,95916,1,0,0:0:0:0:
256,288,96070,2,0,L|0:288,1,256
128,0,96377,6,0,L|384:0,1,256
512,192,96685,2,0,L|256:192,1,256
0,96,96993,2,0,L|256:96,1,256,8|0,0:0|0:0,0:0:0:0:
512,96,97301,1,0,0:0:0:0:
512,192,97455,1,0,0:0:0:0:
128,192,97609,5,0,0:0:0:0:
128,96,97763,1,0,0:0:0:0:
384,96,97916,1,8,0:0:0:0:
384,192,98070,1,0,0:0:0:0:
0,192,98224,5,8,0:0:0:0:
0,96,98378,1,0,0:0:0:0:
256,96,98532,1,0,0:0:0:0:
256,192,98686,1,0,0:0:0:0:
256,288,98840,6,0,L|256:384,1,95.9999970703126,4|0,0:0|0:0,0:0:0:0:
384,192,99148,2,0,L|384:288,1,95.9999970703126
80,48,99456,2,0,L|80:144,1,95.9999970703126,8|0,0:0|0:0,0:0:0:0:
96,176,99686,1,0,0:0:0:0:
128,192,99763,2,0,L|128:96,1,95.9999970703126
352,0,100071,6,0,L|352:96,1,95.9999970703126
416,144,100379,1,0,0:0:0:0:
448,224,100533,2,0,L|448:320,1,95.9999970703126,0|8,0:0|0:0,0:0:0:0:
368,352,100841,1,0,0:0:0:0:
160,320,100995,2,0,L|160:224,1,95.9999970703126
192,96,101302,6,0,L|192:192,1,95.9999970703126
416,64,101610,2,0,L|416:160,1,95.9999970703126
80,16,101918,2,0,L|80:112,1,95.9999970703126,8|0,0:0|0:0,0:0:0:0:
496,32,102226,2,0,L|496:128,1,95.9999970703126
480,208,102534,5,0,0:0:0:0:
400,240,102688,1,0,0:0:0:0:
240,256,102842,1,8,0:0:0:0:
320,288,102995,2,0,L|320:384,2,95.9999970703126,0|8|0,0:0|0:0|0:0,0:0:0:0:
160,144,103457,2,0,L|160:48,1,95.9999970703126
176,16,103688,1,0,0:0:0:0:
208,0,103765,6,0,L|208:96,1,95.9999970703126,2|0,0:0|0:0,0:0:0:0:
48,352,104073,2,0,L|48:256,1,95.9999970703126
240,384,104381,2,0,L|240:288,1,95.9999970703126,8|0,0:0|0:0,0:0:0:0:
448,240,104688,2,0,L|448:336,1,95.9999970703126
432,368,104919,1,0,0:0:0:0:
400,384,104996,6,0,L|400:288,2,95.9999970703126
336,224,105458,1,0,0:0:0:0:
304,144,105612,2,0,L|304:48,1,95.9999970703126,8|0,0:0|0:0,0:0:0:0:
160,256,105920,2,0,L|160:352,1,95.9999970703126
208,112,106228,5,0,0:0:0:0:
224,192,106381,1,0,0:0:0:0:
80,272,106535,1,0,0:0:0:0:
288,256,106689,1,0,0:0:0:0:
384,288,106843,2,0,L|384:384,1,95.9999970703126,8|0,0:0|0:0,0:0:0:0:
488,264,107151,2,0,L|488:360,1,95.9999970703126
512,240,107459,6,0,L|512:336,1,95.9999970703126
400,272,107767,2,0,L|400:368,1,95.9999970703126,8|0,0:0|0:0,0:0:0:0:
240,256,108074,2,0,L|240:352,1,95.9999970703126,8|0,0:0|0:0,0:0:0:0:
80,160,108383,2,0,L|80:256,1,95.9999970703126
32,0,108690,5,0,0:0:0:0:
32,0,108998,1,0,0:0:0:0:
89,55,109306,2,0,L|129:60,1,40,8|0,0:0|0:0,0:0:0:0:
227,315,109844,1,0,0:0:0:0:
233,357,109941,6,0,L|236:376,1,20
218,259,110248,2,0,L|221:278,1,20
304,304,110537,1,8,0:0:0:0:
352,8,110845,1,0,0:0:0:0:
333,224,111076,1,0,0:0:0:0:
385,287,111172,6,0,P|402:295|422:296,1,40
495,254,111634,1,0,0:0:0:0:
179,272,111768,2,0,L|159:273,1,20,8|0,0:0|0:0,0:0:0:0:
421,213,112076,2,0,L|425:193,1,20
247,343,112384,6,0,L|250:362,1,20,4|0,0:0|0:0,0:0:0:0:
267,294,112692,2,0,L|263:313,1,20,8|0,0:0|0:0,0:0:0:0:
246,245,113000,2,0,L|249:264,1,20,12|0,0:0|0:0,0:0:0:0:
266,196,113308,2,0,L|262:215,1,20
247,0,113615,5,4,0:0:0:0:
160,16,113769,1,0,0:0:0:0:
176,272,113923,2,0,L|177:291,1,20
417,355,114231,2,0,P|436:354|456:349,1,40,8|0,0:0|0:0,0:0:0:0:
338,335,114693,1,0,0:0:0:0:
446,58,114846,6,0,L|426:55,1,20
347,41,115154,2,0,L|327:38,1,20
78,120,115462,1,8,0:0:0:0:
291,112,115616,1,0,0:0:0:0:
25,188,115770,2,0,L|21:207,1,20
87,257,116078,6,0,L|83:276,1,20
141,51,116386,2,0,L|122:54,1,20
354,40,116693,2,0,L|345:22,1,20,8|0,0:0|0:0,0:0:0:0:
430,238,117001,2,0,L|445:224,1,20
265,372,117309,5,0,0:0:0:0:
354,40,117617,2,0,L|345:22,1,20,8|0,0:0|0:0,0:0:0:0:
87,257,117925,2,0,L|83:276,1,20,8|0,0:0|0:0,0:0:0:0:
430,238,118232,2,0,L|445:224,1,20
141,51,118540,6,0,B|76:63|41:107|41:107|225:171|395:52|395:52|343:196|208:267|208:267|223:240|244:223,1,840.000032043458
0,288,119772,6,0,B|106:162|273:96|457:126|457:126|381:284|227:356,1,840.000032043458
96,201,121041,6,0,P|87:260|61:313,1,120.000004577637
184,155,121349,2,0,P|239:258|347:307,1,240.000009155274
348,307,121926,2,0,B|399:310|447:298|447:298|415:272|394:237,1,180.000006866455
254,68,122273,2,0,P|297:109|325:162,1,120.000004577637
414,84,122580,2,0,P|469:105|512:147,1,120.000004577637
280,372,122888,6,0,P|260:315|264:256,1,120.000004577637
279,224,123081,2,0,P|207:277|171:359,1,180.000006866455
33,380,123465,6,0,P|6:264|37:149,1,240.000009155274,4|0,0:0|0:0,0:0:0:0:
146,66,123927,1,0,0:0:0:0:
287,47,124081,2,0,P|371:77|439:134,1,180.000006866455,8|0,0:0|0:0,0:0:0:0:
455,169,124389,2,0,P|397:156|346:125,1,120.000004577637
27,255,124697,6,0,P|105:211|194:206,1,180.000006866455
78,321,125004,2,0,P|137:315|191:288,1,120.000004577637
277,62,125312,2,0,P|183:91|260:151,1,240.000009155274,8|0,0:0|0:0,0:0:0:0:
494,102,125774,1,0,0:0:0:0:
470,324,125928,6,0,P|383:369|395:272,1,240.000009155274
477,232,126390,1,0,0:0:0:0:
380,90,126543,2,0,P|284:19|166:0,1,240.000009155274,8|0,0:0|0:0,0:0:0:0:
293,255,127005,1,0,0:0:0:0:
189,85,127159,6,0,P|247:96|297:129,1,120.000004577637
41,234,127467,2,0,P|96:212|156:205,1,120.000004577637,8|0,0:0|0:0,0:0:0:0:
436,305,127775,1,8,0:0:0:0:
436,305,128083,1,0,0:0:0:0:
359,344,128390,5,4,0:0:0:0:
115,212,132084,6,0,B|80:196|80:196|203:204|314:149|314:149|286:177,1,320,0|8,0:0|0:0,0:0:0:0:
212,270,133008,2,0,P|218:309|208:347,2,80,0|0|2,0:0|0:0|0:0,0:0:0:0:
208,82,137009,6,0,B|187:42|187:42|258:77|283:171|239:238|239:238|237:192,1,320,0|8,0:0|0:0,0:0:0:0:
340,111,137933,2,0,P|379:104|419:110,1,80
488,165,138241,6,0,B|409:153|340:112|340:112|264:210|139:191|139:191|111:227|65:247,1,480,6|0,0:0|0:0,0:0:0:0:
138,82,138856,2,0,P|211:98|256:37,1,160,8|0,0:0|0:0,0:0:0:0:
394,317,139164,2,0,P|283:276|165:293,1,240
64,322,139472,6,0,P|289:259|494:372,1,480
492,263,140087,2,0,P|420:249|395:319,1,160,8|0,0:0|0:0,0:0:0:0:
493,371,140395,2,0,P|456:258|451:138,1,240
477,20,140703,6,0,P|335:204|103:209,1,480
79,44,141319,2,0,P|89:123|73:201,1,160,8|0,0:0|0:0,0:0:0:0:
338,249,141627,2,0,P|308:133|323:15,1,240
176,37,141934,6,0,B|272:143|414:132|414:132|298:143|221:211,1,480
0,104,142550,2,0,P|79:110|155:135,1,160,8|0,0:0|0:0,0:0:0:0:
0,384,142858,2,0,P|105:329|223:308,1,240
224,308,143166,6,0,B|46:321|46:321|-25:205|104:107|191:204,1,480,2|0,0:0|0:0,0:0:0:0:
286,68,143781,2,0,P|310:143|294:220,1,160,8|0,0:0|0:0,0:0:0:0:
481,306,144089,2,0,P|405:365|408:269,1,240
484,184,144397,6,0,B|395:155|296:209|290:319|290:319|252:256|179:229|113:245,1,480
18,151,145012,2,0,P|38:226|102:271,1,160,8|0,0:0|0:0,0:0:0:0:
261,117,145320,2,0,P|186:30|71:43,1,240
20,238,145628,6,0,L|499:210,1,480
480,341,146244,2,0,P|413:301|335:311,1,160,8|0,0:0|0:0,0:0:0:0:
272,174,146552,2,0,P|163:216|117:324,1,240
421,280,146859,6,0,B|326:333|228:271|274:158|167:51|27:127,1,480
85,26,147475,2,0,L|101:185,1,160,8|0,0:0|0:0,0:0:0:0:
261,86,147783,2,0,L|285:324,1,240
422,10,148091,6,0,L|446:248,1,240,4|0,0:0|0:0,0:0:0:0:
371,224,148398,2,0,B|445:248|445:248|117:274|117:274|183:244,1,480.000018310548,0|8,0:0|0:0,0:0:0:0:
184,244,149168,1,0,0:0:0:0:
184,244,149322,6,0,P|249:341|363:369,1,240.000009155274
237,62,149630,1,0,0:0:0:0:
504,149,149784,2,0,P|438:51|324:23,1,240.000009155274,0|8,0:0|0:0,0:0:0:0:
447,320,150091,1,0,0:0:0:0:
23,219,150245,6,0,L|502:240,2,480.000018310548
256,312,151015,1,0,0:0:0:0:
62,302,151169,2,0,B|48:111|48:111|79:73,1,240.000009155274,8|0,0:0|0:0,0:0:0:0:
440,382,151477,2,0,B|471:344|471:344|457:153,1,240.000009155274
144,125,151784,6,0,L|384:113,2,240.000009155274,0|0|8,0:0|0:0|0:0,0:0:0:0:
279,373,152246,2,0,L|39:360,1,240.000009155274,0|8,0:0|0:0,0:0:0:0:
256,344,152554,1,0,0:0:0:0:
471,298,152708,2,0,L|232:319,1,240.000009155274
38,110,153016,6,0,P|118:25|235:9,1,240.000009155274
200,184,153324,1,0,0:0:0:0:
362,258,153477,2,0,P|281:343|164:359,1,240.000009155274,0|8,0:0|0:0,0:0:0:0:
200,184,153785,1,0,0:0:0:0:
274,31,153939,2,0,L|512:56,1,240.000009155274
388,367,154247,6,0,P|156:355|33:159,2,480.000018310548,0|0|8,0:0|0:0|0:0,0:0:0:0:
462,94,155017,1,0,0:0:0:0:
149,32,155170,2,0,L|173:270,1,240.000009155274
385,366,155478,6,0,L|348:7,1,360.000013732911
348,8,155786,2,0,P|233:22|175:122,1,240.000009155274
173,271,156094,2,0,P|114:370|0:384,1,240.000009155274,8|0,0:0|0:0,0:0:0:0:
16,80,156402,6,0,L|494:46,2,480.000018310548,0|0|8,0:0|0:0|0:0,0:0:0:0:
352,128,157171,1,0,0:0:0:0:
110,340,157325,2,0,B|86:297|86:297|99:106,1,240.000009155274,8|0,0:0|0:0,0:0:0:0:
423,294,157633,2,0,B|436:102|436:102|412:60,1,240.000009155274
24,384,157941,6,0,L|500:329,1,480,4|0,0:0|0:0,0:0:0:0:
423,294,158095,1,0,0:0:0:0:
110,340,158249,1,0,0:0:0:0:
358,365,158403,1,0,0:0:0:0:
191,384,158556,1,8,0:0:0:0:
272,340,158710,1,0,0:0:0:0:
7,122,159172,6,0,P|199:159|60:298,1,480
71,75,159326,1,0,0:0:0:0:
164,82,159480,1,0,0:0:0:0:
229,156,159634,1,0,0:0:0:0:
231,257,159788,1,8,0:0:0:0:
151,319,159942,1,0,0:0:0:0:
94,192,160403,6,0,P|256:44|418:192,1,480
256,192,160557,1,0,0:0:0:0:
180,65,160711,1,0,0:0:0:0:
256,192,160865,1,0,0:0:0:0:
334,66,161019,1,8,0:0:0:0:
256,192,161173,1,0,0:0:0:0:
256,192,161481,1,0,0:0:0:0:
491,282,161635,6,0,P|255:319|19:281,1,480
420,329,161789,1,0,0:0:0:0:
332,294,161942,1,8,0:0:0:0:
256,328,162096,1,0,0:0:0:0:
180,294,162250,1,8,0:0:0:0:
92,329,162404,1,0,0:0:0:0:
328,384,162866,6,0,P|255:773|184:383,1,1120
256,200,163020,1,0,0:0:0:0:
256,328,163173,1,0,0:0:0:0:
192,264,163327,1,0,0:0:0:0:
320,264,163481,1,8,0:0:0:0:
192,264,163635,1,0,0:0:0:0:
320,264,163789,1,0,0:0:0:0:
0,120,164097,6,0,P|-390:191|0:264,1,1120
184,192,164251,1,0,0:0:0:0:
120,128,164404,1,0,0:0:0:0:
56,192,164558,1,0,0:0:0:0:
120,256,164712,1,8,0:0:0:0:
184,192,164866,1,0,0:0:0:0:
56,192,165020,1,0,0:0:0:0:
185,1,165328,6,0,P|252:-388|328:0,1,1120
320,80,165482,1,0,0:0:0:0:
192,80,165635,1,0,0:0:0:0:
320,80,165789,1,0,0:0:0:0:
192,80,165943,1,0,0:0:0:0:
320,80,166097,1,0,0:0:0:0:
192,80,166251,1,0,0:0:0:0:
512,264,166559,6,0,P|902:188|512:120,1,1120
424,256,166713,1,0,0:0:0:0:
344,288,166867,1,0,0:0:0:0:
264,320,167021,1,0,0:0:0:0:
34,174,167175,2,0,L|510:120,1,480,8|0,0:0|0:0,0:0:0:0:
240,32,167329,1,0,0:0:0:0:
376,72,167483,1,0,0:0:0:0:
496,352,167791,6,0,L|496:32,1,320
416,112,168252,1,0,0:0:0:0:
416,32,168406,2,0,B|256:32|256:32|256:192,1,320,8|0,0:0|0:0,0:0:0:0:
96,192,168945,1,0,0:0:0:0:
96,192,169041,6,0,B|96:112|96:112|176:112,1,160
416,192,169349,2,0,B|416:112|416:112|336:112,1,160
176,272,169657,2,0,B|176:352|176:352|336:352|336:352|336:272,1,320,8|0,0:0|0:0,0:0:0:0:
96,272,170176,1,0,0:0:0:0:
96,272,170272,6,0,B|96:352|96:352|16:352,1,160
16,272,170580,2,0,B|16:192|16:192|96:192,1,160
96,192,170888,2,0,B|176:192|176:192|176:272|176:272|16:272,1,320,8|0,0:0|0:0,0:0:0:0:
96,112,171350,1,0,0:0:0:0:
176,112,171484,6,0,L|336:112,1,160,4|0,0:0|0:0,0:0:0:0:
336,192,171792,2,0,L|176:192,1,160,8|0,0:0|0:0,0:0:0:0:
176,272,172100,2,0,B|256:272|256:272|256:352,1,160,12|0,0:0|0:0,0:0:0:0:
336,352,172408,2,0,B|256:352|256:352|256:272,1,160
336,272,172716,6,0,L|456:272,1,120.000004577637,4|0,0:0|0:0,0:0:0:0:
456,352,172869,2,0,L|336:352,1,120.000004577637
176,272,173023,2,0,L|56:272,1,120.000004577637
56,352,173177,2,0,L|176:352,1,120.000004577637
256,352,173331,6,0,B|256:192|256:192|336:192,1,240.000009155274,8|0,0:0|0:0,0:0:0:0:
336,32,173639,2,0,L|456:32,1,120.000004577637
456,112,173793,2,0,B|336:112,1,120.000004577637
96,112,173947,6,0,B|256:112|256:112|256:31,1,240.000009155274
96,192,174255,2,0,B|176:192|176:192|176:32,1,240.000009155274
16,272,174562,2,0,L|256:272,3,240.000009155274,8|0|0|0,0:0|0:0|0:0|0:0,0:0:0:0:
16,192,175178,6,0,L|136:192,1,120.000004577637
136,112,175332,2,0,L|256:112,1,120.000004577637
256,192,175486,2,0,L|136:192,1,120.000004577637
136,112,175640,2,0,L|16:112,1,120.000004577637
16,32,175794,6,0,B|136:31|136:31|256:32,1,240.000009155274,8|0,0:0|0:0,0:0:0:0:
496,112,176103,2,0,L|256:112,1,240.000009155274
136,192,176409,2,0,L|256:192,1,120.000004577637
376,272,176563,2,0,L|256:272,1,120.000004577637
256,352,176717,6,0,L|256:112,1,240.000009155274,8|0,0:0|0:0,0:0:0:0:
176,112,177025,2,0,B|176:192|176:192|16:192,1,240.000009155274,8|0,0:0|0:0,0:0:0:0:
336,192,177333,2,0,B|336:112|336:112|496:112,1,240.000009155274
496,192,177641,6,0,L|336:192,1,160
176,192,178102,2,0,L|16:192,1,160
256,192,178564,1,0,0:0:0:0:
336,192,178795,1,0,0:0:0:0:
336,192,178910,6,0,L|336:352,1,160
176,192,179372,2,0,L|176:32,1,160
256,192,179795,1,0,0:0:0:0:
176,112,180052,1,0,0:0:0:0:
176,112,180161,6,0,B|96:112|96:112|96:192,1,160
336,112,180777,2,0,B|416:112|416:112|416:192,1,160
176,192,181232,1,0,0:0:0:0:
176,272,181386,2,0,B|256:272,1,80
256,352,181694,2,0,B|256:272,1,80
336,272,182001,2,0,B|256:272,1,80
256,192,182309,2,0,B|256:272,1,80
256,352,182566,6,0,L|96:352,1,160,4|0,0:0|0:0,0:0:0:0:
336,192,182874,2,0,L|336:352,1,160
176,112,183180,2,0,L|336:112,1,160,8|0,0:0|0:0,0:0:0:0:
96,272,183489,2,0,L|96:112,1,160
176,32,183797,6,0,L|176:112,1,80
16,112,183951,2,0,L|16:32,1,80
256,32,184105,2,0,L|256:112,1,80
96,112,184259,2,0,L|96:32,1,80
336,32,184413,2,0,L|336:192,1,160,8|0,0:0|0:0,0:0:0:0:
176,352,184720,2,0,L|176:192,1,160
336,192,185028,6,0,L|256:192,1,80
96,272,185182,2,0,L|176:272,1,80
336,272,185336,2,0,L|256:272,1,80
96,352,185490,2,0,L|176:352,1,80
336,352,185644,2,0,L|496:352,1,160,8|0,0:0|0:0,0:0:0:0:
176,32,185952,2,0,L|16:32,1,160
96,112,186260,6,0,L|96:192,1,80
256,192,186413,2,0,L|256:112,1,80
176,32,186567,2,0,L|176:192,1,160
336,352,186875,2,0,L|336:192,1,160,8|0,0:0|0:0,0:0:0:0:
256,192,187183,1,0,0:0:0:0:
256,192,187491,6,0,L|416:192,1,160
504,192,188094,1,0,0:0:0:0:
504,192,188659,1,0,0:0:0:0:
416,192,188831,2,0,L|256:192,1,160
176,192,189348,2,0,L|16:192,1,160
16,272,190070,6,0,L|16:192,1,80
96,222,190522,6,0,L|96:288,1,60
176,272,190785,2,0,L|176:352,1,80
256,384,191080,2,0,L|256:280,1,100
256,192,191440,1,0,0:0:0:0:
256,192,191789,1,0,0:0:0:0:
256,192,192138,2,0,L|256:264,1,70
256,192,192445,2,0,L|256:120,1,70
256,192,193158,5,0,0:0:0:0:
256,192,193465,1,0,0:0:0:0:
336,168,193773,1,0,0:0:0:0:
256,192,193984,12,0,196842,0:0:0:0:
273,247,197457,6,0,P|105:283|0:149,1,360
51,73,197764,2,0,P|159:30|264:82,1,240
475,296,198072,6,0,P|483:236|475:177,1,120,8|0,0:0|0:0,0:0:0:0:
391,275,198226,2,0,P|368:219|332:172,1,120
307,298,198380,2,0,P|259:261|204:238,1,120
245,359,198534,2,0,P|185:350|126:358,1,120
36,236,198688,6,0,P|27:176|35:117,1,120
120,215,198842,2,0,P|142:159|178:112,1,120
204,237,198996,2,0,P|306:177|425:174,1,240
0,339,199303,6,0,P|75:178|230:92,1,360,8|0,0:0|0:0,0:0:0:0:
319,29,199611,2,0,B|326:134|260:213|260:213|256:192|262:170,1,240
375,265,199919,6,0,B|359:249|339:242|339:242|374:338|469:385,1,240
512,188,200227,2,0,P|332:186|176:270,1,360
35,384,200535,6,0,P|153:380|255:319,1,240,8|0,0:0|0:0,0:0:0:0:
512,281,200842,2,0,P|401:235|282:238,1,240
0,94,201150,6,0,P|96:163|214:177,1,240
484,0,201458,2,0,P|374:45|292:132,1,240,8|0,0:0|0:0,0:0:0:0:
438,384,201766,5,8,0:0:0:0:
339,242,201920,1,0,0:0:0:0:
440,245,202074,1,0,0:0:0:0:
230,267,202228,1,0,0:0:0:0:
32,292,202382,1,2,0:0:0:0:
300,322,202535,1,0,0:0:0:0:
22,105,202689,6,0,P|259:83|489:148,1,480,0|8,0:0|0:0,0:0:0:0:
34,24,203305,5,0,0:0:0:0:
258,115,203459,1,0,0:0:0:0:
490,71,203613,1,0,0:0:0:0:
96,74,203921,5,0,0:0:0:0:
333,76,204075,1,0,0:0:0:0:
86,156,204228,1,8,0:0:0:0:
12,198,204536,5,0,0:0:0:0:
338,187,204690,1,0,0:0:0:0:
163,128,204844,5,0,0:0:0:0:
409,144,204998,1,0,0:0:0:0:
256,192,205152,1,0,0:0:0:0:
501,260,205306,1,0,0:0:0:0:
186,375,205460,1,8,0:0:0:0:
145,302,205768,5,0,0:0:0:0:
157,222,206075,5,0,0:0:0:0:
421,300,206229,1,0,0:0:0:0:
224,272,206383,1,8,0:0:0:0:
356,360,206537,1,0,0:0:0:0:
65,338,206691,1,8,0:0:0:0:
0,283,206999,5,0,0:0:0:0:
270,344,207153,1,0,0:0:0:0:
78,254,207307,1,4,0:0:0:0:
