osu file format v14

[General]
AudioFilename: thenosebleedsection110BPM.mp3
AudioLeadIn: 0
PreviewTime: 58747
Countdown: 0
SampleSet: None
StackLeniency: 0.3
Mode: 0
LetterboxInBreaks: 0
WidescreenStoryboard: 1

[Editor]
DistanceSpacing: 0.6
BeatDivisor: 4
GridSize: 8
TimelineZoom: 2.3

[Metadata]
Title:The Nosebleed Section
TitleUnicode:The Nosebleed Section
Artist:Hilltop Hoods
ArtistUnicode:Hilltop Hoods
Creator:Axarious
Version:1.12x
Source:
Tags:
BeatmapID:1562810
BeatmapSetID:740819

[Difficulty]
HPDrainRate:4
CircleSize:4
OverallDifficulty:8.7
ApproachRate:10
SliderMultiplier:3.2
SliderTickRate:0.5

[Events]
//Background and Video events
0,0,"thenosebleedsection.png",0,0
//Break Periods
2,113954,116518
2,118317,120881
//Storyboard Layer 0 (Background)
//Storyboard Layer 1 (Fail)
//Storyboard Layer 2 (Pass)
//Storyboard Layer 3 (Foreground)
//Storyboard Sound Samples

[TimingPoints]
300,272.7273,4,3,0,40,1,0
300,-200,4,3,0,40,0,0
17481,-100,4,3,0,40,0,0
17754,-133.3333,4,3,0,40,0,0
26481,-200,4,3,0,40,0,0
35208,-100,4,3,0,40,0,0
43936,-80,4,3,0,40,0,0
52663,-133.3333,4,3,0,40,0,0
61391,-66.66666,4,3,0,40,0,0
70118,-50,4,3,0,40,0,0
78845,-62.5,4,3,0,40,0,0
87572,-166.6667,4,3,0,40,0,0
96299,-800,4,3,0,40,0,0
105026,-133.3333,4,3,0,40,0,0
113754,-200,4,3,0,40,0,0
122482,-100,4,3,0,40,0,0
131209,-66.66666,4,3,0,40,0,0
139936,545.4573,4,3,0,40,1,0
139936,-100,4,3,0,40,0,0
144300,-50,4,3,0,40,0,0
148663,272.7273,4,3,0,40,1,0
148663,-100,4,3,0,40,0,0
153027,-66.66666,4,3,0,40,0,0
157390,-200,4,3,0,40,0,0
161754,-100,4,3,0,40,0,0
166117,279.7909,4,3,0,40,1,0
166117,-200,4,3,0,40,0,0
166396,268.4862,4,3,0,40,1,0
166465,260.5896,4,3,0,40,1,0
166529,246.1124,4,3,0,40,1,0
166652,349.7386,4,3,0,40,1,0
166826,345.1966,4,3,0,40,1,0
166998,309.0714,4,3,0,40,1,0
167152,305.5188,4,3,0,40,1,0
167152,-200,4,3,0,40,0,0
167763,320.2426,4,3,0,40,1,0
167763,-200,4,3,0,40,0,0
168883,305.5188,4,3,0,40,1,0
169036,332.2517,4,3,0,40,1,0
169036,-200,4,3,0,40,0,0
169202,255.5782,4,3,0,40,1,0
169202,-200,4,3,0,40,0,0
169329,265.8014,4,3,0,40,1,0
169462,309.0714,4,3,0,40,1,0
170235,272.7273,4,3,0,40,1,0
170235,-200,4,3,0,40,0,0
173370,258.0596,4,3,0,40,1,0
174402,272.7273,4,3,0,40,1,0
174947,272.7273,4,3,0,40,1,0
174947,-66.66666,4,3,0,40,0,0

[HitObjects]
159,234,300,6,0,L|168:313,1,80
139,74,572,2,0,L|149:153,1,80
241,298,845,2,0,P|301:348|379:347,1,160,8|0,0:0|0:0,0:0:0:0:
256,192,1254,1,0,0:0:0:0:
332,271,1391,6,0,L|411:262,1,80
423,151,1663,2,0,L|502:142,1,80
318,105,1936,2,0,P|258:155|180:154,1,160,8|0,0:0|0:0,0:0:0:0:
403,287,2481,6,0,L|324:296,1,80
139,74,2754,2,0,L|218:65,1,80
419,15,3027,1,8,0:0:0:0:
419,15,3299,2,0,P|448:66|447:125,1,120
472,106,3572,6,0,L|481:185,1,80
294,33,3845,2,0,L|303:112,1,80,8|0,0:0|0:0,0:0:0:0:
312,194,4118,1,8,0:0:0:0:
113,227,4254,2,0,B|72:216|72:216|55:99,1,160
159,234,4663,6,0,L|168:313,1,80
139,74,4935,2,0,L|149:153,1,80
241,298,5208,2,0,P|301:348|379:347,1,160,8|0,0:0|0:0,0:0:0:0:
256,192,5618,1,0,0:0:0:0:
332,271,5754,6,0,L|411:262,1,80
423,151,6027,2,0,L|502:142,1,80
318,105,6299,2,0,P|258:155|180:154,1,160,8|0,0:0|0:0,0:0:0:0:
403,287,6845,6,0,L|324:296,1,80
139,74,7118,2,0,L|218:65,1,80
419,15,7391,1,8,0:0:0:0:
419,15,7663,2,0,P|448:66|447:125,1,120
472,106,7935,6,0,L|481:185,1,80
294,33,8208,2,0,L|303:112,1,80,8|0,0:0|0:0,0:0:0:0:
312,194,8481,1,8,0:0:0:0:
113,227,8618,2,0,B|72:216|72:216|55:99,1,160
139,74,9027,6,0,L|149:153,1,80
168,313,9299,2,0,L|159:234,1,80
209,21,9572,1,8,0:0:0:0:
209,20,9845,2,0,P|267:31|309:72,1,120
337,49,10118,6,0,L|324:128,1,80
416,224,10391,1,0,0:0:0:0:
470,64,10527,1,0,0:0:0:0:
310,72,10663,6,0,L|297:151,1,80,8|0,0:0|0:0,0:0:0:0:
495,152,10936,1,0,0:0:0:0:
426,329,11073,1,0,0:0:0:0:
426,329,11208,6,0,P|390:313|351:307,1,80
85,270,11481,2,0,P|123:261|163:259,1,80
302,245,11754,1,8,0:0:0:0:
302,245,12027,2,0,P|262:289|210:319,1,120
244,349,12299,6,0,L|164:339,1,80
134,156,12572,1,8,0:0:0:0:
85,270,12708,1,0,0:0:0:0:
45,76,12845,1,8,0:0:0:0:
233,137,12981,2,0,B|268:152|268:152|249:31,1,160
334,74,13391,6,0,P|372:85|411:78,1,80
173,74,13663,2,0,P|138:93|115:125,1,80
157,338,13935,1,8,0:0:0:0:
157,338,14208,2,0,B|165:316|165:316|69:330,1,120
31,337,14481,6,0,L|45:258,1,80
196,159,14754,1,0,0:0:0:0:
157,338,14891,1,0,0:0:0:0:
331,282,15027,2,0,P|282:251|223:258,1,120,8|0,0:0|0:0,0:0:0:0:
183,243,15299,2,0,L|262:235,1,80
451,101,15572,6,0,P|419:150|363:170,1,120
332,157,15845,2,0,L|324:77,1,80
117,79,16118,2,0,P|149:30|205:10,1,120,8|0,0:0|0:0,0:0:0:0:
236,23,16391,2,0,L|244:103,1,80
269,368,16663,5,0,0:0:0:0:
200,173,16799,1,0,0:0:0:0:
403,210,16935,1,8,0:0:0:0:
262,284,17072,2,0,L|222:288,1,40
147,262,17208,6,0,L|136:299,1,40,8|0,0:0|0:0,0:0:0:0:
76,350,17345,6,0,L|36:354,1,40
151,376,17481,6,0,L|161:338,5,40
269,368,17754,6,0,P|340:319|332:234,1,180
216,192,18027,2,0,L|96:203,1,120
341,83,18299,1,8,0:0:0:0:
262,284,18435,1,0,0:0:0:0:
127,115,18572,1,0,0:0:0:0:
344,0,18708,6,0,P|415:49|407:134,1,180
333,163,18981,1,0,0:0:0:0:
493,319,19118,2,0,B|465:302|465:302|377:308,1,120
117,195,19391,1,8,0:0:0:0:
199,338,19527,2,0,P|249:367|306:354,1,120
243,22,19799,6,0,P|156:12|86:66,1,180
53,138,20072,1,0,0:0:0:0:
262,284,20208,2,0,L|281:165,1,120
94,359,20481,1,8,0:0:0:0:
281,165,20618,1,0,0:0:0:0:
117,195,20754,1,0,0:0:0:0:
360,312,20891,6,0,P|443:290|468:207,1,180
438,130,21163,1,0,0:0:0:0:
207,226,21299,2,0,B|192:245|192:245|287:235,1,120
190,133,21572,1,8,0:0:0:0:
384,229,21708,1,0,0:0:0:0:
201,346,21845,2,0,P|150:373|93:358,1,120
0,109,22118,6,0,B|140:122|140:122|164:152,1,180
244,124,22391,2,0,P|246:182|207:226,1,120
13,364,22663,1,8,0:0:0:0:
91,193,22799,1,0,0:0:0:0:
201,346,22935,1,0,0:0:0:0:
0,108,23072,6,0,P|45:33|130:12,1,180
209,42,23345,1,0,0:0:0:0:
207,226,23481,2,0,L|201:345,1,120
55,181,23754,1,8,0:0:0:0:
244,124,23891,1,0,0:0:0:0:
48,289,24027,1,0,0:0:0:0:
313,207,24163,1,0,0:0:0:0:
54,181,24299,6,0,P|33:96|87:28,1,180
173,19,24572,1,0,0:0:0:0:
144,282,24708,1,0,0:0:0:0:
244,124,24845,2,0,L|125:116,1,120
314,317,25118,2,0,P|382:371|466:349,1,180
491,269,25391,6,0,B|500:182|500:182|488:149,1,120
239,357,25663,2,0,B|227:326|227:326|237:239,1,120
512,75,25936,1,8,0:0:0:0:
401,278,26072,1,0,0:0:0:0:
280,80,26208,2,0,B|75:49|75:49|97:72,1,240
394,28,27027,6,0,P|406:105|363:170,1,160
179,355,27572,2,0,P|51:270|39:116,1,320
280,80,28391,1,0,0:0:0:0:
197,199,28527,1,0,0:0:0:0:
114,167,28663,6,0,L|274:160,1,160
349,130,29072,1,0,0:0:0:0:
349,130,29208,2,0,L|363:209,1,80
393,231,29481,2,0,L|407:310,1,80
306,327,29754,5,0,0:0:0:0:
213,280,29891,1,0,0:0:0:0:
113,303,30027,1,8,0:0:0:0:
113,303,30163,2,0,L|33:297,1,80
235,384,30571,1,0,0:0:0:0:
306,327,30708,1,0,0:0:0:0:
235,384,30845,6,0,L|75:366,1,160
188,305,31254,1,0,0:0:0:0:
319,351,31391,2,0,L|398:359,1,80
424,336,31663,2,0,L|504:345,1,80
188,305,31936,5,0,0:0:0:0:
188,305,32072,1,0,0:0:0:0:
188,305,32208,1,0,0:0:0:0:
188,305,32345,1,0,0:0:0:0:
345,269,32481,2,0,L|265:262,1,80
319,351,32754,2,0,L|399:358,1,80
188,305,33027,5,0,0:0:0:0:
188,305,33163,1,0,0:0:0:0:
188,305,33299,1,0,0:0:0:0:
188,305,33436,1,0,0:0:0:0:
110,249,33572,2,0,L|30:242,1,80
250,172,33845,2,0,L|170:165,1,80
188,305,34118,5,0,0:0:0:0:
188,305,34253,1,0,0:0:0:0:
188,305,34391,1,8,0:0:0:0:
188,305,34527,1,0,0:0:0:0:
76,161,34663,2,0,L|67:81,1,80
229,79,34936,2,0,L|220:0,1,80
256,384,35208,5,4,0:0:0:0:
139,30,35480,1,0,0:0:0:0:
376,328,35754,1,8,0:0:0:0:
0,384,36027,2,0,P|6:304|47:237,1,160
323,261,36299,6,0,L|164:245,2,160
102,302,36708,2,0,P|188:380|305:371,1,240
376,328,36981,1,0,0:0:0:0:
363,61,37118,2,0,P|295:19|216:20,1,160
455,356,37391,6,0,L|468:116,1,240
363,61,37663,2,0,B|354:178|354:178|369:217,1,160
217,21,37936,2,0,B|245:41|245:41|40:53,1,240
0,202,38208,2,0,P|54:145|132:134,1,160
331,360,38481,6,0,L|172:341,2,160
471,83,38891,2,0,B|444:111|444:111|242:123,1,240
132,134,39163,1,0,0:0:0:0:
434,286,39299,2,0,P|472:228|407:206,1,160
252,6,39572,6,0,L|233:245,1,240
224,347,39845,2,0,B|238:368|238:368|103:354,1,160
2,63,40118,2,0,P|111:95|132:207,1,240
233,245,40391,2,0,L|392:239,1,160
205,61,40663,6,0,L|364:68,2,160
30,268,41073,1,0,0:0:0:0:
224,347,41208,2,0,P|298:323|337:255,1,160
130,12,41481,2,0,P|26:65|2:179,1,240
30,268,41754,6,0,B|11:252|11:252|145:259,1,160
419,100,42027,2,0,B|285:107|285:107|304:91,1,160
92,335,42299,2,0,P|168:248|283:259,1,240
184,354,42572,2,0,L|344:342,1,160
145,76,42845,6,0,L|304:89,2,160
466,98,43254,1,0,0:0:0:0:
222,114,43391,2,0,L|62:126,1,160
343,342,43663,2,0,L|503:330,1,160
0,200,43936,6,0,B|32:178|32:178|292:201,1,300
378,160,44208,2,0,L|354:367,1,200
298,70,44481,2,0,P|476:140|502:330,1,400
0,199,44959,1,0,0:0:0:0:
0,199,45044,6,0,B|97:177|97:177|55:269,1,200
299,70,45317,2,0,B|201:91|201:91|244:0,1,200
114,352,45572,2,0,P|301:318|362:137,1,400
55,270,46050,1,0,0:0:0:0:
55,270,46135,6,0,B|67:302|99:318|99:318|217:378,1,200
311,206,46408,2,0,B|315:239|294:269|294:269|218:377,1,200
55,270,46663,2,0,B|26:200|90:132|166:162|166:162|217:103|308:127|311:205,1,400
0,131,47072,1,0,0:0:0:0:
129,236,47208,6,0,B|184:244|200:298|200:298|190:242|233:209,1,200
448,109,47481,2,0,P|334:88|408:177,1,300
270,140,47754,2,0,P|280:-8|351:122,1,400
120,320,48163,1,0,0:0:0:0:
39,127,48299,6,0,P|153:38|296:67,1,300
349,124,48572,2,0,L|338:323,1,200
27,37,48845,2,0,P|172:32|270:140,1,300
271,238,49118,2,0,P|218:322|129:364,1,200
484,367,49391,6,0,B|498:331|498:331|476:70,1,300
346,17,49663,2,0,P|334:113|394:191,1,200
255,346,49936,2,0,B|7:356|7:356|57:370,1,300
205,238,50208,2,0,P|217:142|157:64,1,200
57,370,50481,6,0,L|255:346,1,200
448,119,50754,2,0,B|383:111|383:111|356:120|356:120|181:99|181:99|154:110,1,300
122,206,51026,2,0,P|56:136|79:43,1,200
348,23,51299,2,0,L|361:223,1,200
57,369,51572,6,0,P|136:249|280:243,1,300
313,317,51845,2,0,L|513:304,1,200
153,110,52118,2,0,L|353:97,1,200
0,262,52391,2,0,L|200:249,1,200
495,227,52663,5,0,0:0:0:0:
495,227,52936,1,0,0:0:0:0:
495,227,53209,6,0,P|388:159|512:184,1,360
478,267,53788,1,0,0:0:0:0:
452,233,53924,1,0,0:0:0:0:
426,199,54061,1,0,0:0:0:0:
410,239,54197,1,0,0:0:0:0:
394,279,54334,6,0,B|388:338|321:366|266:329|266:329|190:351|134:285|163:218,1,360
233,256,54879,1,0,0:0:0:0:
259,222,55015,1,0,0:0:0:0:
285,188,55152,1,0,0:0:0:0:
302,228,55288,1,0,0:0:0:0:
318,268,55424,6,0,B|311:104|311:104|332:68|321:30,1,240
244,54,55834,1,0,0:0:0:0:
218,88,55970,1,0,0:0:0:0:
192,122,56107,1,0,0:0:0:0:
164,155,56242,6,0,P|83:119|136:191,1,240
152,230,56652,2,0,P|119:312|110:225,1,240
194,235,57027,6,0,P|266:185|179:195,1,240
16,40,57436,1,0,0:0:0:0:
96,32,57572,2,0,B|96:40|96:40|104:32|104:32|104:40|104:40|112:32|112:32|112:40|112:40|120:32|120:32|120:40|120:40|128:32|128:32|128:40|128:40|136:32|136:32|136:40|136:40|144:32|144:32|144:40|144:40|152:32|152:32|152:40|152:40|160:32|160:32|160:40|160:40|168:32|168:32|168:40|168:40|176:32|176:32|176:40|176:40|184:32|184:32|184:40|184:40|192:32|192:32|192:40,1,240
272,40,57981,1,0,0:0:0:0:
448,128,58118,5,0,0:0:0:0:
416,104,58253,1,0,0:0:0:0:
376,112,58391,1,0,0:0:0:0:
304,200,58526,1,0,0:0:0:0:
272,176,58663,2,0,B|272:184|272:184|264:176|264:176|264:184|264:184|256:176|256:176|256:184|256:184|248:176|248:176|248:184|248:184|240:176|240:176|240:184|240:184|232:176|232:176|232:184|232:184|224:176|224:176|224:184|224:184|216:176|216:176|216:184|216:184|208:176|208:176|208:184|208:184|200:176|200:176|200:184|200:184|192:176|192:176|192:184|192:184|184:176|184:176|184:184|184:184|176:176|176:176|176:184,1,240
304,288,59072,1,0,0:0:0:0:
320,328,59209,5,0,0:0:0:0:
336,368,59345,1,0,0:0:0:0:
368,336,59481,1,0,0:0:0:0:
400,304,59618,1,0,0:0:0:0:
368,216,59754,2,0,B|368:224|368:224|376:216|376:216|376:224|376:224|384:216|384:216|384:224|384:224|392:216|392:216|392:224|392:224|400:216|400:216|400:224|400:224|408:216|408:216|408:224|408:224|416:216|416:216|416:224|416:224|424:216|424:216|424:224|424:224|432:216|432:216|432:224|432:224|440:216|440:216|440:224|440:224|448:216|448:216|448:224|448:224|456:216|456:216|456:224|456:224|464:216|464:216|464:224,2,240
272,200,60436,1,0,0:0:0:0:
232,288,60572,1,8,0:0:0:0:
184,296,60709,1,0,0:0:0:0:
144,272,60845,1,8,0:0:0:0:
144,272,61118,1,0,0:0:0:0:
343,320,61391,5,4,0:0:0:0:
277,353,61526,2,0,P|349:312|290:371,1,240
496,323,61799,2,0,B|391:288|384:165|384:165|329:239|250:213,1,360
251,214,62072,2,0,B|278:135|239:66|239:66|260:113|294:135,1,240
498,10,62345,2,0,P|495:69|468:122,1,120
345,68,62481,6,0,P|383:-4|363:75,1,240
391,368,62754,2,0,P|274:347|154:354,1,240
142,158,63026,2,0,B|186:275|99:354|99:354|36:302|55:225,1,360
55,225,63299,2,0,P|172:252|270:320,1,240
353,340,63572,6,0,B|343:267|343:267|433:288|433:288|394:351,1,240
114,345,63845,2,0,B|92:302|92:302|106:243|106:243|243:288,1,240
462,137,64118,2,0,B|227:174|227:174|274:207|274:207|330:175,1,360
331,174,64391,2,0,B|328:27|328:27|256:86,1,240
256,85,64663,5,0,0:0:0:0:
63,199,64799,2,0,B|22:190|22:190|13:140|13:140|62:116|62:116|96:155|96:155|78:192,1,240
201,266,65072,2,0,B|169:302|169:302|151:382|151:382|204:286,2,240
212,217,65481,2,0,B|166:202|166:202|208:240|208:240|357:220|357:220|252:220,1,360
240,148,65754,5,2,0:0:0:0:
176,52,65890,2,0,P|206:131|210:38,1,240
341,85,66163,2,0,P|327:142|290:188,1,120
122,190,66299,2,0,B|243:214|260:334|260:334|290:263|370:253,1,360
480,264,66572,2,0,P|385:243|460:183,1,240
505,13,66845,6,0,P|429:97|322:61,1,240
73,136,67118,2,0,P|128:72|95:150,1,240
225,7,67390,2,0,B|272:125|198:220|198:220|266:236|289:308,1,360
289,308,67663,2,0,P|170:295|51:295,1,240
316,315,67936,6,0,B|340:332|340:332|384:319|384:319|400:276|400:276|362:251|362:251|319:263|319:263|309:288,1,240
281,336,68209,2,0,B|266:383|266:383|224:256|224:256|266:292,1,240
425,138,68481,2,0,B|441:95|441:95|285:177|285:177|204:135|204:135|249:137,1,360
251,137,68754,2,0,B|205:251|205:251|116:174,1,240
116,174,69026,5,0,0:0:0:0:
407,227,69163,2,0,B|444:237|444:237|498:173|498:173|428:216|428:216|428:250,2,240
215,66,69572,2,2,B|53:44|53:44|175:105|175:105|388:26|388:26|454:96|454:96|238:68,1,840.0001
328,182,70118,6,0,B|289:153|289:153|452:174|452:174|345:185,3,320
256,240,70663,1,8,0:0:0:0:
427,292,71481,6,0,B|459:327|459:327|394:366|394:366|344:316|344:316|382:247|382:247|415:280,1,320
478,228,71754,1,8,0:0:0:0:
153,252,72299,6,0,B|137:278|137:278|168:288|168:288|140:147|140:147|193:178|193:178|169:224,3,320
66,185,72845,2,0,B|39:343|39:343|263:386|263:386|250:295,1,480
250,295,73118,2,0,B|296:80|296:80|441:100|441:100|488:268|488:268|390:281,1,640
56,61,73664,6,0,B|9:95|9:95|44:-2|44:-2|133:48|133:48|76:53,1,320
57,87,73936,2,0,B|24:135|24:135|95:200|96:294|96:294|175:307|175:307|223:245|223:245|152:175|155:81|155:81|96:72,1,640
349,75,74481,6,0,P|277:155|334:64,3,320
439,38,75026,1,8,0:0:0:0:
197,251,75845,6,0,B|142:206|142:206|174:122|174:122|240:182|240:182|212:246,1,320
225,323,76118,1,8,0:0:0:0:
53,32,76663,6,0,B|190:62|190:62|99:11|99:11|25:26,3,320
80,115,77209,2,0,B|452:68|452:68|382:147,1,480
382,147,77481,2,0,B|208:118|208:118|326:279|326:279|486:166|486:166|419:153,1,640
119,319,78026,6,0,B|111:372|111:372|68:215|68:215|127:256|127:256|124:288,1,320
155,325,78299,2,0,B|195:371|195:371|281:348|406:372|406:372|439:336|439:336|412:296|412:296|286:297|210:259|210:259|159:292,1,640
76,300,78709,1,0,0:0:0:0:
0,384,78845,6,0,L|512:384,1,512
0,0,79390,2,0,L|512:0,1,512
0,288,79936,6,0,L|256:288,1,256
512,96,80209,2,0,L|256:96,1,256
0,192,80481,6,0,L|512:192,1,512
512,384,80890,1,0,0:0:0:0:
256,384,81026,6,0,L|0:384,1,256
256,288,81299,2,0,L|0:288,1,256
0,0,81572,2,0,L|384:0,1,384
384,96,81845,2,0,L|128:96,1,256
128,288,82118,5,0,0:0:0:0:
128,192,82254,1,0,0:0:0:0:
384,192,82390,1,8,0:0:0:0:
384,288,82526,1,0,0:0:0:0:
0,288,82663,6,0,L|512:288,1,512
512,384,83072,1,0,0:0:0:0:
256,384,83209,6,0,L|0:384,1,256
128,96,83482,2,0,L|384:96,1,256
128,288,83754,6,0,L|384:288,1,256
256,0,84026,2,0,L|0:0,1,256
0,192,84299,6,0,L|384:192,1,384
512,288,84572,2,0,L|256:288,2,256
256,384,84982,1,0,0:0:0:0:
256,288,85118,2,0,L|0:288,1,256
128,0,85390,6,0,L|384:0,1,256
512,192,85663,2,0,L|256:192,1,256
0,96,85936,2,0,L|256:96,1,256
512,96,86209,1,0,0:0:0:0:
512,192,86345,1,0,0:0:0:0:
128,192,86482,5,0,0:0:0:0:
128,96,86618,1,0,0:0:0:0:
384,96,86754,1,8,0:0:0:0:
384,192,86890,1,0,0:0:0:0:
0,192,87026,5,8,0:0:0:0:
0,96,87163,1,0,0:0:0:0:
256,96,87299,1,0,0:0:0:0:
256,192,87436,1,0,0:0:0:0:
256,288,87572,6,0,L|256:384,1,96
384,192,87845,2,0,L|384:288,1,96
80,48,88118,2,0,L|80:144,1,96
96,176,88322,1,0,0:0:0:0:
128,192,88390,2,0,L|128:96,1,96
352,0,88663,6,0,L|352:96,1,96
416,144,88936,1,0,0:0:0:0:
448,224,89072,2,0,L|448:320,1,96
368,352,89345,1,0,0:0:0:0:
160,320,89482,2,0,L|160:224,1,96
192,96,89754,6,0,L|192:192,1,96
416,64,90026,2,0,L|416:160,1,96
80,16,90299,2,0,L|80:112,1,96
496,32,90572,2,0,L|496:128,1,96
480,208,90845,5,0,0:0:0:0:
400,240,90982,1,0,0:0:0:0:
240,256,91118,1,8,0:0:0:0:
320,288,91254,2,0,L|320:384,2,96
160,144,91663,2,0,L|160:48,1,96
176,16,91868,1,0,0:0:0:0:
208,0,91936,6,0,L|208:96,1,96
48,352,92209,2,0,L|48:256,1,96
240,384,92482,2,0,L|240:288,1,96
448,240,92754,2,0,L|448:336,1,96
432,368,92958,1,0,0:0:0:0:
400,384,93027,6,0,L|400:288,2,96
336,224,93436,1,0,0:0:0:0:
304,144,93572,2,0,L|304:48,1,96
160,256,93845,2,0,L|160:352,1,96
208,112,94118,5,0,0:0:0:0:
224,192,94254,1,0,0:0:0:0:
80,272,94390,1,0,0:0:0:0:
288,256,94526,1,0,0:0:0:0:
384,288,94663,2,0,L|384:384,1,96
488,264,94936,2,0,L|488:360,1,96
512,240,95209,6,0,L|512:336,1,96
400,272,95482,2,0,L|400:368,1,96
240,256,95754,2,0,L|240:352,1,96
80,160,96027,2,0,L|80:256,1,96
32,0,96299,5,0,0:0:0:0:
32,0,96572,1,0,0:0:0:0:
89,55,96845,2,0,L|129:60,1,40
227,315,97322,1,0,0:0:0:0:
233,357,97408,6,0,L|236:376,1,20
218,259,97680,2,0,L|221:278,1,20
304,304,97936,1,8,0:0:0:0:
352,8,98209,1,0,0:0:0:0:
333,224,98413,1,0,0:0:0:0:
385,287,98498,6,0,P|402:295|422:296,1,40
495,254,98908,1,0,0:0:0:0:
179,272,99026,2,0,L|159:273,1,20
421,213,99299,2,0,L|425:193,1,20
247,343,99572,6,0,L|250:362,1,20
267,294,99845,2,0,L|263:313,1,20
246,245,100118,2,0,L|249:264,1,20
266,196,100391,2,0,L|262:215,1,20
247,0,100663,5,4,0:0:0:0:
160,16,100799,1,0,0:0:0:0:
176,272,100936,2,0,L|177:291,1,20
417,355,101209,2,0,P|436:354|456:349,1,40
338,335,101618,1,0,0:0:0:0:
446,58,101754,6,0,L|426:55,1,20
347,41,102026,2,0,L|327:38,1,20
78,120,102299,1,8,0:0:0:0:
291,112,102436,1,0,0:0:0:0:
25,188,102572,2,0,L|21:207,1,20
87,257,102845,6,0,L|83:276,1,20
141,51,103118,2,0,L|122:54,1,20
354,40,103390,2,0,L|345:22,1,20
430,238,103663,2,0,L|445:224,1,20
265,372,103936,5,0,0:0:0:0:
354,40,104209,2,0,L|345:22,1,20
87,257,104482,2,0,L|83:276,1,20
430,238,104754,2,0,L|445:224,1,20
141,51,105026,6,0,B|76:63|41:107|41:107|225:171|395:52|395:52|343:196|208:267|208:267|223:240|244:223,1,840.0001
0,288,106118,6,0,B|106:162|273:96|457:126|457:126|381:284|227:356,1,840.0001
96,201,107242,6,0,P|87:260|61:313,1,120
184,155,107515,2,0,P|239:258|347:307,1,240
348,307,108026,2,0,B|399:310|447:298|447:298|415:272|394:237,1,180
254,68,108334,2,0,P|297:109|325:162,1,120
414,84,108606,2,0,P|469:105|512:147,1,120
280,372,108879,6,0,P|260:315|264:256,1,120
279,224,109050,2,0,P|207:277|171:359,1,180
33,380,109390,6,0,P|6:264|37:149,1,240
146,66,109799,1,0,0:0:0:0:
287,47,109936,2,0,P|371:77|439:134,1,180
455,169,110209,2,0,P|397:156|346:125,1,120
27,255,110482,6,0,P|105:211|194:206,1,180
78,321,110754,2,0,P|137:315|191:288,1,120
277,62,111027,2,0,P|183:91|260:151,1,240
494,102,111436,1,0,0:0:0:0:
470,324,111572,6,0,P|383:369|395:272,1,240
477,232,111982,1,0,0:0:0:0:
380,90,112117,2,0,P|284:19|166:0,1,240
293,255,112527,1,0,0:0:0:0:
189,85,112663,6,0,P|247:96|297:129,1,120
41,234,112936,2,0,P|96:212|156:205,1,120
436,305,113209,1,8,0:0:0:0:
436,305,113482,1,0,0:0:0:0:
359,344,113754,5,4,0:0:0:0:
115,212,117027,6,0,B|80:196|80:196|203:204|314:149|314:149|286:177,1,320
212,270,117845,2,0,P|218:309|208:347,2,80
208,82,121390,6,0,B|187:42|187:42|258:77|283:171|239:238|239:238|237:192,1,320
340,111,122209,2,0,P|379:104|419:110,1,80
488,165,122482,6,0,B|409:153|340:112|340:112|264:210|139:191|139:191|111:227|65:247,1,480
138,82,123027,2,0,P|211:98|256:37,1,160
394,317,123299,2,0,P|283:276|165:293,1,240
64,322,123572,6,0,P|289:259|494:372,1,480
492,263,124117,2,0,P|420:249|395:319,1,160
493,371,124390,2,0,P|456:258|451:138,1,240
477,20,124663,6,0,P|335:204|103:209,1,480
79,44,125209,2,0,P|89:123|73:201,1,160
338,249,125482,2,0,P|308:133|323:15,1,240
176,37,125754,6,0,B|272:143|414:132|414:132|298:143|221:211,1,480
0,104,126299,2,0,P|79:110|155:135,1,160
0,384,126572,2,0,P|105:329|223:308,1,240
224,308,126845,6,0,B|46:321|46:321|-25:205|104:107|191:204,1,480
286,68,127390,2,0,P|310:143|294:220,1,160
481,306,127663,2,0,P|405:365|408:269,1,240
484,184,127936,6,0,B|395:155|296:209|290:319|290:319|252:256|179:229|113:245,1,480
18,151,128481,2,0,P|38:226|102:271,1,160
261,117,128754,2,0,P|186:30|71:43,1,240
20,238,129027,6,0,L|499:210,1,480
480,341,129572,2,0,P|413:301|335:311,1,160
272,174,129845,2,0,P|163:216|117:324,1,240
421,280,130117,6,0,B|326:333|228:271|274:158|167:51|27:127,1,480
85,26,130663,2,0,L|101:185,1,160
261,86,130936,2,0,L|285:324,1,240
422,10,131209,6,0,L|446:248,1,240
371,224,131481,2,0,B|445:248|445:248|117:274|117:274|183:244,1,480
184,244,132163,1,0,0:0:0:0:
184,244,132299,6,0,P|249:341|363:369,1,240
237,62,132572,1,0,0:0:0:0:
504,149,132709,2,0,P|438:51|324:23,1,240
447,320,132981,1,0,0:0:0:0:
23,219,133117,6,0,L|502:240,2,480
256,312,133799,1,0,0:0:0:0:
62,302,133936,2,0,B|48:111|48:111|79:73,1,240
440,382,134209,2,0,B|471:344|471:344|457:153,1,240
144,125,134481,6,0,L|384:113,2,240
279,373,134890,2,0,L|39:360,1,240
256,344,135163,1,0,0:0:0:0:
471,298,135299,2,0,L|232:319,1,240
38,110,135572,6,0,P|118:25|235:9,1,240
200,184,135845,1,0,0:0:0:0:
362,258,135981,2,0,P|281:343|164:359,1,240
200,184,136254,1,0,0:0:0:0:
274,31,136390,2,0,L|512:56,1,240
388,367,136663,6,0,P|156:355|33:159,2,480
462,94,137345,1,0,0:0:0:0:
149,32,137481,2,0,L|173:270,1,240
385,366,137754,6,0,L|348:7,1,360
348,8,138027,2,0,P|233:22|175:122,1,240
173,271,138299,2,0,P|114:370|0:384,1,240
16,80,138572,6,0,L|494:46,2,480
352,128,139254,1,0,0:0:0:0:
110,340,139390,2,0,B|86:297|86:297|99:106,1,240
423,294,139663,2,0,B|436:102|436:102|412:60,1,240
24,384,139936,6,0,L|500:329,1,480
423,294,140072,1,0,0:0:0:0:
110,340,140209,1,0,0:0:0:0:
358,365,140345,1,0,0:0:0:0:
191,384,140481,1,8,0:0:0:0:
272,340,140617,1,0,0:0:0:0:
7,122,141027,6,0,P|199:159|60:298,1,480
71,75,141163,1,0,0:0:0:0:
164,82,141300,1,0,0:0:0:0:
229,156,141436,1,0,0:0:0:0:
231,257,141572,1,8,0:0:0:0:
151,319,141709,1,0,0:0:0:0:
94,192,142117,6,0,P|256:44|418:192,1,480
256,192,142254,1,0,0:0:0:0:
180,65,142390,1,0,0:0:0:0:
256,192,142527,1,0,0:0:0:0:
334,66,142663,1,8,0:0:0:0:
256,192,142800,1,0,0:0:0:0:
256,192,143072,1,0,0:0:0:0:
491,282,143209,6,0,P|255:319|19:281,1,480
420,329,143345,1,0,0:0:0:0:
332,294,143481,1,8,0:0:0:0:
256,328,143617,1,0,0:0:0:0:
180,294,143754,1,8,0:0:0:0:
92,329,143890,1,0,0:0:0:0:
328,384,144300,6,0,P|255:773|184:383,1,1120
256,200,144436,1,0,0:0:0:0:
256,328,144572,1,0,0:0:0:0:
192,264,144708,1,0,0:0:0:0:
320,264,144844,1,8,0:0:0:0:
192,264,144981,1,0,0:0:0:0:
320,264,145117,1,0,0:0:0:0:
0,120,145390,6,0,P|-390:191|0:264,1,1120
184,192,145527,1,0,0:0:0:0:
120,128,145662,1,0,0:0:0:0:
56,192,145799,1,0,0:0:0:0:
120,256,145935,1,8,0:0:0:0:
184,192,146072,1,0,0:0:0:0:
56,192,146208,1,0,0:0:0:0:
185,1,146481,6,0,P|252:-388|328:0,1,1120
320,80,146617,1,0,0:0:0:0:
192,80,146753,1,0,0:0:0:0:
320,80,146889,1,0,0:0:0:0:
192,80,147026,1,0,0:0:0:0:
320,80,147162,1,0,0:0:0:0:
192,80,147299,1,0,0:0:0:0:
512,264,147572,6,0,P|902:188|512:120,1,1120
424,256,147708,1,0,0:0:0:0:
344,288,147844,1,0,0:0:0:0:
264,320,147981,1,0,0:0:0:0:
34,174,148117,2,0,L|510:120,1,480
240,32,148254,1,0,0:0:0:0:
376,72,148390,1,0,0:0:0:0:
496,352,148663,6,0,L|496:32,1,320
416,112,149072,1,0,0:0:0:0:
416,32,149208,2,0,B|256:32|256:32|256:192,1,320
96,192,149686,1,0,0:0:0:0:
96,192,149771,6,0,B|96:112|96:112|176:112,1,160
416,192,150043,2,0,B|416:112|416:112|336:112,1,160
176,272,150316,2,0,B|176:352|176:352|336:352|336:352|336:272,1,320
96,272,150776,1,0,0:0:0:0:
96,272,150861,6,0,B|96:352|96:352|16:352,1,160
16,272,151134,2,0,B|16:192|16:192|96:192,1,160
96,192,151407,2,0,B|176:192|176:192|176:272|176:272|16:272,1,320
96,112,151816,1,0,0:0:0:0:
176,112,151935,6,0,L|336:112,1,160
336,192,152208,2,0,L|176:192,1,160
176,272,152481,2,0,B|256:272|256:272|256:352,1,160
336,352,152754,2,0,B|256:352|256:352|256:272,1,160
336,272,153027,6,0,L|456:272,1,120
456,352,153162,2,0,L|336:352,1,120
176,272,153299,2,0,L|56:272,1,120
56,352,153435,2,0,L|176:352,1,120
256,352,153572,6,0,B|256:192|256:192|336:192,1,240
336,32,153844,2,0,L|456:32,1,120
456,112,153981,2,0,B|336:112,1,120
96,112,154117,6,0,B|256:112|256:112|256:31,1,240
96,192,154390,2,0,B|176:192|176:192|176:32,1,240
16,272,154662,2,0,L|256:272,3,240
16,192,155208,6,0,L|136:192,1,120
136,112,155344,2,0,L|256:112,1,120
256,192,155481,2,0,L|136:192,1,120
136,112,155617,2,0,L|16:112,1,120
16,32,155754,6,0,B|136:31|136:31|256:32,1,240
496,112,156026,2,0,L|256:112,1,240
136,192,156299,2,0,L|256:192,1,120
376,272,156435,2,0,L|256:272,1,120
256,352,156572,6,0,L|256:112,1,240
176,112,156844,2,0,B|176:192|176:192|16:192,1,240
336,192,157117,2,0,B|336:112|336:112|496:112,1,240
496,192,157390,6,0,L|336:192,1,160
176,192,157799,2,0,L|16:192,1,160
256,192,158208,1,0,0:0:0:0:
336,192,158413,1,0,0:0:0:0:
336,192,158515,6,0,L|336:352,1,160
176,192,158924,2,0,L|176:32,1,160
256,192,159299,1,0,0:0:0:0:
176,112,159526,1,0,0:0:0:0:
176,112,159623,6,0,B|96:112|96:112|96:192,1,160
336,112,160169,2,0,B|416:112|416:112|416:192,1,160
176,192,160572,1,0,0:0:0:0:
176,272,160708,2,0,B|256:272,1,80
256,352,160981,2,0,B|256:272,1,80
336,272,161253,2,0,B|256:272,1,80
256,192,161526,2,0,B|256:272,1,80
256,352,161754,6,0,L|96:352,1,160
336,192,162027,2,0,L|336:352,1,160
176,112,162298,2,0,L|336:112,1,160
96,272,162572,2,0,L|96:112,1,160
176,32,162844,6,0,L|176:112,1,80
16,112,162981,2,0,L|16:32,1,80
256,32,163117,2,0,L|256:112,1,80
96,112,163254,2,0,L|96:32,1,80
336,32,163390,2,0,L|336:192,1,160
176,352,163662,2,0,L|176:192,1,160
336,192,163935,6,0,L|256:192,1,80
96,272,164072,2,0,L|176:272,1,80
336,272,164208,2,0,L|256:272,1,80
96,352,164344,2,0,L|176:352,1,80
336,352,164481,2,0,L|496:352,1,160
176,32,164754,2,0,L|16:32,1,160
96,112,165027,6,0,L|96:192,1,80
256,192,165162,2,0,L|256:112,1,80
176,32,165299,2,0,L|176:192,1,160
336,352,165572,2,0,L|336:192,1,160
256,192,165844,1,0,0:0:0:0:
256,192,166117,6,0,L|416:192,1,160
504,192,166652,1,0,0:0:0:0:
504,192,167152,1,0,0:0:0:0:
416,192,167305,2,0,L|256:192,1,160
176,192,167763,2,0,L|16:192,1,160
16,272,168402,6,0,L|16:192,1,80
96,222,168803,6,0,L|96:288,1,60
176,272,169036,2,0,L|176:352,1,80
256,384,169297,2,0,L|256:280,1,100
256,192,169616,1,0,0:0:0:0:
256,192,169925,1,0,0:0:0:0:
256,192,170235,2,0,L|256:264,1,70
256,192,170507,2,0,L|256:120,1,70
256,192,171172,5,0,0:0:0:0:
256,192,171444,1,0,0:0:0:0:
336,168,171717,1,0,0:0:0:0:
256,192,171870,12,0,174402,0:0:0:0:
273,247,174947,6,0,P|105:283|0:149,1,360
51,73,175219,2,0,P|159:30|264:82,1,240
475,296,175492,6,0,P|483:236|475:177,1,120
391,275,175629,2,0,P|368:219|332:172,1,120
307,298,175765,2,0,P|259:261|204:238,1,120
245,359,175902,2,0,P|185:350|126:358,1,120
36,236,176038,6,0,P|27:176|35:117,1,120
120,215,176174,2,0,P|142:159|178:112,1,120
204,237,176311,2,0,P|306:177|425:174,1,240
0,339,176583,6,0,P|75:178|230:92,1,360
319,29,176856,2,0,B|326:134|260:213|260:213|256:192|262:170,1,240
375,265,177129,6,0,B|359:249|339:242|339:242|374:338|469:385,1,240
512,188,177402,2,0,P|332:186|176:270,1,360
35,384,177674,6,0,P|153:380|255:319,1,240
512,281,177946,2,0,P|401:235|282:238,1,240
0,94,178219,6,0,P|96:163|214:177,1,240
484,0,178492,2,0,P|374:45|292:132,1,240
438,384,178765,5,8,0:0:0:0:
339,242,178902,1,0,0:0:0:0:
440,245,179038,1,0,0:0:0:0:
230,267,179174,1,0,0:0:0:0:
32,292,179311,1,2,0:0:0:0:
300,322,179446,1,0,0:0:0:0:
22,105,179583,6,0,P|259:83|489:148,1,480
34,24,180129,5,0,0:0:0:0:
258,115,180265,1,0,0:0:0:0:
490,71,180402,1,0,0:0:0:0:
96,74,180674,5,0,0:0:0:0:
333,76,180811,1,0,0:0:0:0:
86,156,180946,1,8,0:0:0:0:
12,198,181219,5,0,0:0:0:0:
338,187,181356,1,0,0:0:0:0:
163,128,181492,5,0,0:0:0:0:
409,144,181629,1,0,0:0:0:0:
256,192,181765,1,0,0:0:0:0:
501,260,181902,1,0,0:0:0:0:
186,375,182038,1,8,0:0:0:0:
145,302,182311,5,0,0:0:0:0:
157,222,182583,5,0,0:0:0:0:
421,300,182719,1,0,0:0:0:0:
224,272,182856,1,8,0:0:0:0:
356,360,182992,1,0,0:0:0:0:
65,338,183129,1,8,0:0:0:0:
0,283,183402,5,0,0:0:0:0:
270,344,183538,1,0,0:0:0:0:
78,254,183674,1,4,0:0:0:0:
