osu file format v14

[General]
AudioFilename: audio.mp3
AudioLeadIn: 0
PreviewTime: 102752
Countdown: 0
SampleSet: Normal
StackLeniency: 0.7
Mode: 3
LetterboxInBreaks: 0
SpecialStyle: 0
WidescreenStoryboard: 0

[Editor]
Bookmarks: 283621,287099,290578,294056,297534
DistanceSpacing: 2
BeatDivisor: 3
GridSize: 16
TimelineZoom: 1.1

[Metadata]
Title:Free Tibet (Vini Vici Remix)
TitleUnicode:Free Tibet (Vini Vici Remix)
Artist:Hilight Tribe
ArtistUnicode:Hilight Tribe
Creator:Jole
Version:Enter the GOA
Source:
Tags:4 key dump jacks psytrance goa jolo
BeatmapID:1045287
BeatmapSetID:490402

[Difficulty]
HPDrainRate:8
CircleSize:4
OverallDifficulty:8
ApproachRate:5
SliderMultiplier:1.4
SliderTickRate:1

[Events]
//Background and Video events
0,0,"2minutesinphotoshop.jpg",0,0
//Break Periods
2,81973,87639
//Storyboard Layer 0 (Background)
//Storyboard Layer 1 (Fail)
//Storyboard Layer 2 (Pass)
//Storyboard Layer 3 (Foreground)
//Storyboard Sound Samples

[TimingPoints]
4926,434.782608695652,4,1,0,0,1,0
11882,-13.3333333333333,4,1,0,0,0,0
11982,-100,4,1,0,0,0,0

[HitObjects]
448,192,5360,128,0,11882:0:0:0:0:
320,192,8476,128,0,11882:0:0:0:0:
192,192,11882,1,0,0:0:0:0:
64,192,11882,1,0,0:0:0:0:
320,192,12317,1,0,0:0:0:0:
448,192,12317,1,0,0:0:0:0:
64,192,12425,1,0,0:0:0:0:
320,192,12534,1,0,0:0:0:0:
192,192,12643,1,0,0:0:0:0:
64,192,12752,1,0,0:0:0:0:
448,192,12752,1,0,0:0:0:0:
320,192,12860,1,0,0:0:0:0:
192,192,12969,1,0,0:0:0:0:
64,192,12969,1,0,0:0:0:0:
320,192,13078,1,0,0:0:0:0:
448,192,13078,1,0,0:0:0:0:
64,192,13186,1,0,0:0:0:0:
320,192,13295,1,0,0:0:0:0:
192,192,13404,1,0,0:0:0:0:
448,192,13512,1,0,0:0:0:0:
64,192,13621,1,0,0:0:0:0:
192,192,13621,1,0,0:0:0:0:
320,192,13730,1,0,0:0:0:0:
448,192,13839,1,0,0:0:0:0:
192,192,13839,1,0,0:0:0:0:
64,192,13947,1,0,0:0:0:0:
320,192,13947,1,0,0:0:0:0:
192,192,14056,1,0,0:0:0:0:
448,192,14165,1,0,0:0:0:0:
64,192,14273,1,0,0:0:0:0:
320,192,14382,1,0,0:0:0:0:
192,192,14491,1,0,0:0:0:0:
64,192,14491,1,0,0:0:0:0:
448,192,14599,1,0,0:0:0:0:
192,192,14708,1,0,0:0:0:0:
64,192,14708,1,0,0:0:0:0:
320,192,14817,1,0,0:0:0:0:
448,192,14817,1,0,0:0:0:0:
192,192,14925,1,0,0:0:0:0:
64,192,15034,1,0,0:0:0:0:
448,192,15143,1,0,0:0:0:0:
320,192,15252,1,0,0:0:0:0:
64,192,15360,1,0,0:0:0:0:
192,192,15360,1,0,0:0:0:0:
448,192,15360,1,0,0:0:0:0:
320,192,15469,1,0,0:0:0:0:
64,192,15578,1,0,0:0:0:0:
192,192,15578,1,0,0:0:0:0:
320,192,15686,1,0,0:0:0:0:
448,192,15686,1,0,0:0:0:0:
64,192,15795,1,0,0:0:0:0:
192,192,15904,1,0,0:0:0:0:
448,192,16012,1,0,0:0:0:0:
64,192,16121,1,0,0:0:0:0:
192,192,16230,1,0,0:0:0:0:
320,192,16230,1,0,0:0:0:0:
64,192,16339,1,0,0:0:0:0:
320,192,16447,1,0,0:0:0:0:
448,192,16447,1,0,0:0:0:0:
192,192,16556,1,0,0:0:0:0:
64,192,16556,1,0,0:0:0:0:
448,192,16665,1,0,0:0:0:0:
320,192,16773,1,0,0:0:0:0:
192,192,16882,1,0,0:0:0:0:
64,192,16991,1,0,0:0:0:0:
192,192,17099,1,0,0:0:0:0:
448,192,17099,1,0,0:0:0:0:
320,192,17208,1,0,0:0:0:0:
192,192,17317,1,0,0:0:0:0:
64,192,17317,1,0,0:0:0:0:
320,192,17425,1,0,0:0:0:0:
448,192,17425,1,0,0:0:0:0:
64,192,17534,1,0,0:0:0:0:
448,192,17643,1,0,0:0:0:0:
64,192,17752,1,0,0:0:0:0:
192,192,17752,1,0,0:0:0:0:
320,192,17860,1,0,0:0:0:0:
64,192,17969,1,0,0:0:0:0:
192,192,17969,1,0,0:0:0:0:
448,192,18078,1,0,0:0:0:0:
64,192,18186,1,0,0:0:0:0:
192,192,18186,1,0,0:0:0:0:
320,192,18295,1,0,0:0:0:0:
448,192,18295,1,0,0:0:0:0:
64,192,18404,1,0,0:0:0:0:
192,192,18512,1,0,0:0:0:0:
320,192,18621,1,0,0:0:0:0:
448,192,18621,1,0,0:0:0:0:
64,192,18730,1,0,0:0:0:0:
320,192,18839,1,0,0:0:0:0:
448,192,18839,1,0,0:0:0:0:
192,192,18947,1,0,0:0:0:0:
320,192,19056,1,0,0:0:0:0:
448,192,19056,1,0,0:0:0:0:
192,192,19165,1,0,0:0:0:0:
64,192,19165,1,0,0:0:0:0:
320,192,19273,1,0,0:0:0:0:
64,192,19382,1,0,0:0:0:0:
448,192,19491,1,0,0:0:0:0:
320,192,19599,1,0,0:0:0:0:
192,192,19708,1,0,0:0:0:0:
64,192,19708,1,0,0:0:0:0:
448,192,19817,1,0,0:0:0:0:
320,192,19925,1,0,0:0:0:0:
64,192,19925,1,0,0:0:0:0:
192,192,20034,1,0,0:0:0:0:
448,192,20034,1,0,0:0:0:0:
64,192,20143,1,0,0:0:0:0:
320,192,20252,1,0,0:0:0:0:
448,192,20360,1,0,0:0:0:0:
192,192,20469,1,0,0:0:0:0:
64,192,20578,1,0,0:0:0:0:
320,192,20578,1,0,0:0:0:0:
448,192,20686,1,0,0:0:0:0:
192,192,20795,1,0,0:0:0:0:
64,192,20795,1,0,0:0:0:0:
320,192,20904,1,0,0:0:0:0:
448,192,20904,1,0,0:0:0:0:
64,192,21012,1,0,0:0:0:0:
192,192,21121,1,0,0:0:0:0:
448,192,21230,1,0,0:0:0:0:
64,192,21339,1,0,0:0:0:0:
192,192,21447,1,0,0:0:0:0:
320,192,21447,1,0,0:0:0:0:
448,192,21556,1,0,0:0:0:0:
64,192,21665,1,0,0:0:0:0:
192,192,21665,1,0,0:0:0:0:
320,192,21773,1,0,0:0:0:0:
448,192,21773,1,0,0:0:0:0:
192,192,21882,1,0,0:0:0:0:
64,192,21991,1,0,0:0:0:0:
448,192,22099,1,0,0:0:0:0:
64,192,22208,1,0,0:0:0:0:
192,192,22317,1,0,0:0:0:0:
320,192,22317,1,0,0:0:0:0:
448,192,22317,1,0,0:0:0:0:
64,192,22425,1,0,0:0:0:0:
320,192,22534,1,0,0:0:0:0:
448,192,22534,1,0,0:0:0:0:
192,192,22643,1,0,0:0:0:0:
64,192,22643,1,0,0:0:0:0:
320,192,22752,1,0,0:0:0:0:
448,192,22860,1,0,0:0:0:0:
192,192,22969,1,0,0:0:0:0:
448,192,23078,1,0,0:0:0:0:
64,192,23186,1,0,0:0:0:0:
192,192,23186,1,0,0:0:0:0:
320,192,23295,1,0,0:0:0:0:
192,192,23404,1,0,0:0:0:0:
448,192,23404,1,0,0:0:0:0:
64,192,23512,1,0,0:0:0:0:
320,192,23512,1,0,0:0:0:0:
192,192,23621,1,0,0:0:0:0:
448,192,23730,1,0,0:0:0:0:
64,192,23839,1,0,0:0:0:0:
320,192,23947,1,0,0:0:0:0:
192,192,24056,1,0,0:0:0:0:
64,192,24056,1,0,0:0:0:0:
448,192,24165,1,0,0:0:0:0:
192,192,24273,1,0,0:0:0:0:
320,192,24273,1,0,0:0:0:0:
64,192,24382,1,0,0:0:0:0:
448,192,24382,1,0,0:0:0:0:
192,192,24491,1,0,0:0:0:0:
320,192,24599,1,0,0:0:0:0:
448,192,24708,1,0,0:0:0:0:
192,192,24817,1,0,0:0:0:0:
320,192,24925,1,0,0:0:0:0:
448,192,24925,1,0,0:0:0:0:
64,192,25034,1,0,0:0:0:0:
192,192,25143,1,0,0:0:0:0:
448,192,25143,1,0,0:0:0:0:
320,192,25252,1,0,0:0:0:0:
64,192,25252,1,0,0:0:0:0:
192,192,25360,1,0,0:0:0:0:
448,192,25469,1,0,0:0:0:0:
320,192,25578,1,0,0:0:0:0:
192,192,25686,1,0,0:0:0:0:
64,192,25795,1,0,0:0:0:0:
320,192,25795,1,0,0:0:0:0:
448,192,25795,1,0,0:0:0:0:
320,192,26230,1,0,0:0:0:0:
448,192,26230,1,0,0:0:0:0:
192,192,26339,1,0,0:0:0:0:
64,192,26447,1,0,0:0:0:0:
320,192,26556,1,0,0:0:0:0:
192,192,26665,1,0,0:0:0:0:
64,192,26665,1,0,0:0:0:0:
448,192,26665,1,0,0:0:0:0:
320,192,26773,1,0,0:0:0:0:
192,192,26882,1,0,0:0:0:0:
64,192,26882,1,0,0:0:0:0:
320,192,26991,1,0,0:0:0:0:
448,192,26991,1,0,0:0:0:0:
64,192,27099,1,0,0:0:0:0:
192,192,27208,1,0,0:0:0:0:
448,192,27317,1,0,0:0:0:0:
64,192,27425,1,0,0:0:0:0:
192,192,27534,1,0,0:0:0:0:
320,192,27534,1,0,0:0:0:0:
448,192,27534,1,0,0:0:0:0:
64,192,27643,1,0,0:0:0:0:
320,192,27752,1,0,0:0:0:0:
448,192,27752,1,0,0:0:0:0:
192,192,27860,1,0,0:0:0:0:
64,192,27860,1,0,0:0:0:0:
448,192,27969,1,0,0:0:0:0:
64,192,28078,1,0,0:0:0:0:
320,192,28186,1,0,0:0:0:0:
192,192,28295,1,0,0:0:0:0:
64,192,28404,1,0,0:0:0:0:
448,192,28404,1,0,0:0:0:0:
320,192,28404,1,0,0:0:0:0:
192,192,28512,1,0,0:0:0:0:
320,192,28621,1,0,0:0:0:0:
448,192,28621,1,0,0:0:0:0:
192,192,28730,1,0,0:0:0:0:
64,192,28730,1,0,0:0:0:0:
448,192,28839,1,0,0:0:0:0:
192,192,28947,1,0,0:0:0:0:
64,192,28947,1,0,0:0:0:0:
320,192,29056,1,0,0:0:0:0:
192,192,29165,1,0,0:0:0:0:
64,192,29273,1,0,0:0:0:0:
448,192,29273,1,0,0:0:0:0:
320,192,29382,1,0,0:0:0:0:
192,192,29491,1,0,0:0:0:0:
448,192,29491,1,0,0:0:0:0:
64,192,29599,1,0,0:0:0:0:
320,192,29599,1,0,0:0:0:0:
192,192,29708,1,0,0:0:0:0:
448,192,29817,1,0,0:0:0:0:
64,192,29925,1,0,0:0:0:0:
192,192,30034,1,0,0:0:0:0:
64,192,30143,1,0,0:0:0:0:
320,192,30143,1,0,0:0:0:0:
448,192,30143,1,0,0:0:0:0:
192,192,30252,1,0,0:0:0:0:
448,192,30360,1,0,0:0:0:0:
320,192,30360,1,0,0:0:0:0:
192,192,30469,1,0,0:0:0:0:
64,192,30469,1,0,0:0:0:0:
448,192,30578,1,0,0:0:0:0:
192,192,30686,1,0,0:0:0:0:
320,192,30795,1,0,0:0:0:0:
64,192,30904,1,0,0:0:0:0:
192,192,31012,1,0,0:0:0:0:
320,192,31012,1,0,0:0:0:0:
448,192,31012,1,0,0:0:0:0:
64,192,31121,1,0,0:0:0:0:
192,192,31230,1,0,0:0:0:0:
448,192,31230,1,0,0:0:0:0:
64,192,31339,1,0,0:0:0:0:
320,192,31339,1,0,0:0:0:0:
448,192,31447,1,0,0:0:0:0:
192,192,31556,1,0,0:0:0:0:
64,192,31556,1,0,0:0:0:0:
64,192,31665,1,0,0:0:0:0:
192,192,31665,1,0,0:0:0:0:
320,192,31773,1,0,0:0:0:0:
192,192,31882,1,0,0:0:0:0:
64,192,31882,1,0,0:0:0:0:
448,192,31991,1,0,0:0:0:0:
64,192,32099,1,0,0:0:0:0:
192,192,32099,1,0,0:0:0:0:
320,192,32208,1,0,0:0:0:0:
448,192,32317,1,0,0:0:0:0:
192,192,32425,1,0,0:0:0:0:
320,192,32534,1,0,0:0:0:0:
448,192,32534,1,0,0:0:0:0:
64,192,32643,1,0,0:0:0:0:
320,192,32752,1,0,0:0:0:0:
448,192,32752,1,0,0:0:0:0:
192,192,32860,1,0,0:0:0:0:
448,192,32969,1,0,0:0:0:0:
320,192,32969,1,0,0:0:0:0:
192,192,33078,1,0,0:0:0:0:
64,192,33078,1,0,0:0:0:0:
320,192,33186,1,0,0:0:0:0:
448,192,33186,1,0,0:0:0:0:
64,192,33295,1,0,0:0:0:0:
320,192,33404,1,0,0:0:0:0:
192,192,33512,1,0,0:0:0:0:
64,192,33621,1,0,0:0:0:0:
320,192,33621,1,0,0:0:0:0:
448,192,33621,1,0,0:0:0:0:
192,192,33730,1,0,0:0:0:0:
320,192,33839,1,0,0:0:0:0:
448,192,33839,1,0,0:0:0:0:
192,192,33947,1,0,0:0:0:0:
64,192,33947,1,0,0:0:0:0:
448,192,34056,1,0,0:0:0:0:
192,192,34165,1,0,0:0:0:0:
64,192,34273,1,0,0:0:0:0:
320,192,34382,1,0,0:0:0:0:
192,192,34491,1,0,0:0:0:0:
64,192,34491,1,0,0:0:0:0:
448,192,34491,1,0,0:0:0:0:
320,192,34599,1,0,0:0:0:0:
192,192,34708,1,0,0:0:0:0:
448,192,34708,1,0,0:0:0:0:
64,192,34817,1,0,0:0:0:0:
320,192,34817,1,0,0:0:0:0:
192,192,34925,1,0,0:0:0:0:
448,192,35034,1,0,0:0:0:0:
192,192,35143,1,0,0:0:0:0:
448,192,35252,1,0,0:0:0:0:
64,192,35360,1,0,0:0:0:0:
192,192,35360,1,0,0:0:0:0:
320,192,35360,1,0,0:0:0:0:
448,192,35469,1,0,0:0:0:0:
64,192,35578,1,0,0:0:0:0:
320,192,35686,1,0,0:0:0:0:
192,192,35795,1,0,0:0:0:0:
64,192,35904,1,0,0:0:0:0:
320,192,36012,1,0,0:0:0:0:
64,192,36121,1,0,0:0:0:0:
448,192,36230,1,0,0:0:0:0:
320,192,36230,1,0,0:0:0:0:
64,192,36339,1,0,0:0:0:0:
192,192,36447,1,0,0:0:0:0:
64,192,36556,1,0,0:0:0:0:
320,192,36665,1,0,0:0:0:0:
320,192,36773,1,0,0:0:0:0:
448,192,36882,1,0,0:0:0:0:
448,192,36991,1,0,0:0:0:0:
192,192,37099,1,0,0:0:0:0:
320,192,37208,1,0,0:0:0:0:
64,192,37534,1,0,0:0:0:0:
448,192,37643,1,0,0:0:0:0:
192,192,37752,1,0,0:0:0:0:
192,192,37860,1,0,0:0:0:0:
320,192,37969,1,0,0:0:0:0:
448,192,38186,1,0,0:0:0:0:
192,192,38404,1,0,0:0:0:0:
192,192,38512,1,0,0:0:0:0:
320,192,38621,1,0,0:0:0:0:
320,192,38730,1,0,0:0:0:0:
64,192,38839,1,0,0:0:0:0:
448,192,38947,1,0,0:0:0:0:
192,192,39273,1,0,0:0:0:0:
192,192,39382,1,0,0:0:0:0:
64,192,39491,1,0,0:0:0:0:
448,192,39599,1,0,0:0:0:0:
192,192,39708,1,0,0:0:0:0:
320,192,39708,1,0,0:0:0:0:
64,192,39708,1,0,0:0:0:0:
320,192,39925,1,0,0:0:0:0:
192,192,40143,1,0,0:0:0:0:
448,192,40143,1,0,0:0:0:0:
448,192,40252,1,0,0:0:0:0:
64,192,40360,1,0,0:0:0:0:
192,192,40360,1,0,0:0:0:0:
64,192,40469,1,0,0:0:0:0:
192,192,40578,1,0,0:0:0:0:
320,192,40578,1,0,0:0:0:0:
448,192,40578,1,0,0:0:0:0:
448,192,40686,1,0,0:0:0:0:
64,192,40795,1,0,0:0:0:0:
320,192,40904,1,0,0:0:0:0:
448,192,41012,1,0,0:0:0:0:
192,192,41012,1,0,0:0:0:0:
192,192,41121,1,0,0:0:0:0:
64,192,41230,1,0,0:0:0:0:
448,192,41230,1,0,0:0:0:0:
320,192,41339,1,0,0:0:0:0:
192,192,41339,1,0,0:0:0:0:
64,192,41447,1,0,0:0:0:0:
320,192,41447,1,0,0:0:0:0:
448,192,41447,1,0,0:0:0:0:
192,192,41556,1,0,0:0:0:0:
64,192,41665,1,0,0:0:0:0:
448,192,41665,1,0,0:0:0:0:
192,192,41665,1,0,0:0:0:0:
320,192,41665,1,0,0:0:0:0:
320,192,41773,1,0,0:0:0:0:
64,192,41882,1,0,0:0:0:0:
448,192,41882,1,0,0:0:0:0:
64,192,41991,1,0,0:0:0:0:
192,192,42099,1,0,0:0:0:0:
320,192,42099,1,0,0:0:0:0:
320,192,42208,1,0,0:0:0:0:
64,192,42317,1,0,0:0:0:0:
192,192,42317,1,0,0:0:0:0:
448,192,42317,1,0,0:0:0:0:
64,192,42425,1,0,0:0:0:0:
448,192,42534,1,0,0:0:0:0:
192,192,42643,1,0,0:0:0:0:
320,192,42752,1,0,0:0:0:0:
448,192,42752,1,0,0:0:0:0:
448,192,42860,1,0,0:0:0:0:
64,192,42969,1,0,0:0:0:0:
192,192,42969,1,0,0:0:0:0:
320,192,43078,1,0,0:0:0:0:
448,192,43078,1,0,0:0:0:0:
64,192,43186,1,0,0:0:0:0:
192,192,43186,1,0,0:0:0:0:
448,192,43186,1,0,0:0:0:0:
320,192,43295,1,0,0:0:0:0:
448,192,43404,1,0,0:0:0:0:
320,192,43404,1,0,0:0:0:0:
192,192,43404,1,0,0:0:0:0:
64,192,43404,1,0,0:0:0:0:
64,192,43512,1,0,0:0:0:0:
192,192,43621,1,0,0:0:0:0:
448,192,43621,1,0,0:0:0:0:
192,192,43730,1,0,0:0:0:0:
320,192,43839,1,0,0:0:0:0:
448,192,43839,1,0,0:0:0:0:
448,192,43947,1,0,0:0:0:0:
64,192,44056,1,0,0:0:0:0:
192,192,44056,1,0,0:0:0:0:
320,192,44056,1,0,0:0:0:0:
64,192,44165,1,0,0:0:0:0:
448,192,44273,1,0,0:0:0:0:
320,192,44382,1,0,0:0:0:0:
64,192,44491,1,0,0:0:0:0:
192,192,44491,1,0,0:0:0:0:
192,192,44599,1,0,0:0:0:0:
448,192,44708,1,0,0:0:0:0:
64,192,44708,1,0,0:0:0:0:
192,192,44817,1,0,0:0:0:0:
320,192,44817,1,0,0:0:0:0:
320,192,44925,1,0,0:0:0:0:
448,192,44925,1,0,0:0:0:0:
64,192,44925,1,0,0:0:0:0:
192,192,45034,1,0,0:0:0:0:
448,192,45143,1,0,0:0:0:0:
320,192,45143,1,0,0:0:0:0:
192,192,45143,1,0,0:0:0:0:
64,192,45143,1,0,0:0:0:0:
320,192,45252,1,0,0:0:0:0:
448,192,45360,128,0,45795:0:0:0:0:
192,192,45360,1,0,0:0:0:0:
64,192,45469,1,0,0:0:0:0:
320,192,45578,1,0,0:0:0:0:
192,192,45686,1,0,0:0:0:0:
320,192,45795,1,0,0:0:0:0:
64,192,45795,1,0,0:0:0:0:
192,192,45904,1,0,0:0:0:0:
192,192,46012,1,0,0:0:0:0:
192,192,46121,1,0,0:0:0:0:
192,192,46230,1,0,0:0:0:0:
448,192,46230,1,0,0:0:0:0:
448,192,46339,1,0,0:0:0:0:
64,192,46447,1,0,0:0:0:0:
320,192,46447,1,0,0:0:0:0:
192,192,46556,1,0,0:0:0:0:
64,192,46556,1,0,0:0:0:0:
320,192,46665,1,0,0:0:0:0:
192,192,46665,1,0,0:0:0:0:
320,192,46773,1,0,0:0:0:0:
448,192,46882,1,0,0:0:0:0:
64,192,46882,1,0,0:0:0:0:
192,192,46991,1,0,0:0:0:0:
448,192,46991,1,0,0:0:0:0:
64,192,47099,1,0,0:0:0:0:
320,192,47099,1,0,0:0:0:0:
448,192,47099,1,0,0:0:0:0:
192,192,47208,1,0,0:0:0:0:
64,192,47317,1,0,0:0:0:0:
448,192,47317,1,0,0:0:0:0:
448,192,47425,1,0,0:0:0:0:
192,192,47534,1,0,0:0:0:0:
320,192,47534,1,0,0:0:0:0:
64,192,47534,1,0,0:0:0:0:
64,192,47643,1,0,0:0:0:0:
448,192,47752,1,0,0:0:0:0:
192,192,47860,1,0,0:0:0:0:
320,192,47969,1,0,0:0:0:0:
64,192,47969,1,0,0:0:0:0:
320,192,48078,1,0,0:0:0:0:
64,192,48186,1,0,0:0:0:0:
448,192,48186,1,0,0:0:0:0:
192,192,48295,1,0,0:0:0:0:
320,192,48295,1,0,0:0:0:0:
64,192,48404,1,0,0:0:0:0:
448,192,48404,1,0,0:0:0:0:
320,192,48404,1,0,0:0:0:0:
192,192,48512,1,0,0:0:0:0:
64,192,48621,1,0,0:0:0:0:
320,192,48621,1,0,0:0:0:0:
448,192,48621,1,0,0:0:0:0:
192,192,48621,1,0,0:0:0:0:
448,192,48730,1,0,0:0:0:0:
64,192,48839,1,0,0:0:0:0:
192,192,48839,1,0,0:0:0:0:
192,192,48947,1,0,0:0:0:0:
64,192,49056,1,0,0:0:0:0:
320,192,49056,1,0,0:0:0:0:
320,192,49165,1,0,0:0:0:0:
192,192,49273,1,0,0:0:0:0:
64,192,49273,1,0,0:0:0:0:
448,192,49273,1,0,0:0:0:0:
64,192,49382,1,0,0:0:0:0:
320,192,49491,1,0,0:0:0:0:
192,192,49599,1,0,0:0:0:0:
320,192,49708,1,0,0:0:0:0:
448,192,49708,1,0,0:0:0:0:
448,192,49817,1,0,0:0:0:0:
64,192,49925,1,0,0:0:0:0:
320,192,49925,1,0,0:0:0:0:
192,192,50034,1,0,0:0:0:0:
320,192,50034,1,0,0:0:0:0:
64,192,50143,1,0,0:0:0:0:
448,192,50143,1,0,0:0:0:0:
192,192,50143,1,0,0:0:0:0:
320,192,50252,1,0,0:0:0:0:
192,192,50360,1,0,0:0:0:0:
448,192,50360,1,0,0:0:0:0:
320,192,50360,1,0,0:0:0:0:
64,192,50360,1,0,0:0:0:0:
64,192,50469,1,0,0:0:0:0:
192,192,50578,1,0,0:0:0:0:
448,192,50578,1,0,0:0:0:0:
448,192,50686,1,0,0:0:0:0:
192,192,50795,1,0,0:0:0:0:
320,192,50795,1,0,0:0:0:0:
192,192,50904,1,0,0:0:0:0:
64,192,51012,1,0,0:0:0:0:
320,192,51012,1,0,0:0:0:0:
448,192,51012,1,0,0:0:0:0:
448,192,51121,1,0,0:0:0:0:
192,192,51230,1,0,0:0:0:0:
64,192,51339,1,0,0:0:0:0:
192,192,51447,1,0,0:0:0:0:
448,192,51447,1,0,0:0:0:0:
192,192,51556,1,0,0:0:0:0:
64,192,51665,1,0,0:0:0:0:
448,192,51665,1,0,0:0:0:0:
320,192,51773,1,0,0:0:0:0:
192,192,51773,1,0,0:0:0:0:
64,192,51882,1,0,0:0:0:0:
320,192,51882,1,0,0:0:0:0:
448,192,51882,1,0,0:0:0:0:
192,192,51991,1,0,0:0:0:0:
320,192,52099,1,0,0:0:0:0:
320,192,52208,1,0,0:0:0:0:
320,192,52317,1,0,0:0:0:0:
320,192,52425,128,0,52752:0:0:0:0:
448,192,52752,1,0,0:0:0:0:
64,192,52860,1,0,0:0:0:0:
192,192,52969,1,0,0:0:0:0:
320,192,52969,1,0,0:0:0:0:
192,192,53078,1,0,0:0:0:0:
320,192,53078,1,0,0:0:0:0:
192,192,53186,1,0,0:0:0:0:
320,192,53186,1,0,0:0:0:0:
448,192,53295,1,0,0:0:0:0:
192,192,53295,1,0,0:0:0:0:
64,192,53404,1,0,0:0:0:0:
448,192,53512,1,0,0:0:0:0:
320,192,53512,1,0,0:0:0:0:
192,192,53621,1,0,0:0:0:0:
64,192,53621,1,0,0:0:0:0:
448,192,53621,1,0,0:0:0:0:
320,192,53621,1,0,0:0:0:0:
64,192,53839,1,0,0:0:0:0:
192,192,53839,1,0,0:0:0:0:
448,192,53839,1,0,0:0:0:0:
320,192,53839,1,0,0:0:0:0:
192,192,54056,1,0,0:0:0:0:
448,192,54056,1,0,0:0:0:0:
192,192,54165,1,0,0:0:0:0:
320,192,54273,1,0,0:0:0:0:
448,192,54273,1,0,0:0:0:0:
448,192,54382,1,0,0:0:0:0:
64,192,54491,1,0,0:0:0:0:
192,192,54491,1,0,0:0:0:0:
320,192,54491,1,0,0:0:0:0:
64,192,54599,1,0,0:0:0:0:
448,192,54708,1,0,0:0:0:0:
192,192,54817,1,0,0:0:0:0:
64,192,54925,1,0,0:0:0:0:
320,192,54925,1,0,0:0:0:0:
320,192,55034,1,0,0:0:0:0:
64,192,55143,1,0,0:0:0:0:
192,192,55143,1,0,0:0:0:0:
448,192,55252,1,0,0:0:0:0:
320,192,55252,1,0,0:0:0:0:
64,192,55360,1,0,0:0:0:0:
192,192,55360,1,0,0:0:0:0:
448,192,55360,1,0,0:0:0:0:
320,192,55469,1,0,0:0:0:0:
64,192,55578,1,0,0:0:0:0:
320,192,55578,1,0,0:0:0:0:
192,192,55578,1,0,0:0:0:0:
448,192,55578,1,0,0:0:0:0:
192,192,55686,1,0,0:0:0:0:
320,192,55795,1,0,0:0:0:0:
448,192,55795,1,0,0:0:0:0:
448,192,55904,1,0,0:0:0:0:
64,192,56012,1,0,0:0:0:0:
320,192,56012,1,0,0:0:0:0:
64,192,56121,1,0,0:0:0:0:
192,192,56230,1,0,0:0:0:0:
320,192,56230,1,0,0:0:0:0:
448,192,56230,1,0,0:0:0:0:
192,192,56339,1,0,0:0:0:0:
448,192,56447,1,0,0:0:0:0:
64,192,56556,1,0,0:0:0:0:
192,192,56665,1,0,0:0:0:0:
320,192,56665,1,0,0:0:0:0:
320,192,56773,1,0,0:0:0:0:
64,192,56882,1,0,0:0:0:0:
448,192,56882,1,0,0:0:0:0:
192,192,56991,1,0,0:0:0:0:
320,192,56991,1,0,0:0:0:0:
64,192,57099,1,0,0:0:0:0:
192,192,57099,1,0,0:0:0:0:
320,192,57099,1,0,0:0:0:0:
448,192,57208,1,0,0:0:0:0:
64,192,57317,1,0,0:0:0:0:
192,192,57317,1,0,0:0:0:0:
320,192,57317,1,0,0:0:0:0:
448,192,57317,1,0,0:0:0:0:
192,192,57425,1,0,0:0:0:0:
320,192,57534,1,0,0:0:0:0:
448,192,57534,1,0,0:0:0:0:
448,192,57643,1,0,0:0:0:0:
64,192,57752,1,0,0:0:0:0:
320,192,57752,1,0,0:0:0:0:
64,192,57860,1,0,0:0:0:0:
192,192,57969,1,0,0:0:0:0:
320,192,57969,1,0,0:0:0:0:
448,192,57969,1,0,0:0:0:0:
192,192,58078,1,0,0:0:0:0:
448,192,58186,1,0,0:0:0:0:
320,192,58295,1,0,0:0:0:0:
64,192,58404,1,0,0:0:0:0:
448,192,58404,1,0,0:0:0:0:
64,192,58512,1,0,0:0:0:0:
448,192,58621,1,0,0:0:0:0:
192,192,58621,1,0,0:0:0:0:
64,192,58730,1,0,0:0:0:0:
320,192,58730,1,0,0:0:0:0:
64,192,58839,1,0,0:0:0:0:
192,192,58839,1,0,0:0:0:0:
448,192,58839,1,0,0:0:0:0:
320,192,58947,1,0,0:0:0:0:
64,192,59056,1,0,0:0:0:0:
192,192,59056,1,0,0:0:0:0:
448,192,59056,1,0,0:0:0:0:
320,192,59056,1,0,0:0:0:0:
64,192,59165,1,0,0:0:0:0:
320,192,59273,1,0,0:0:0:0:
448,192,59273,1,0,0:0:0:0:
448,192,59382,1,0,0:0:0:0:
64,192,59491,1,0,0:0:0:0:
320,192,59491,1,0,0:0:0:0:
320,192,59599,1,0,0:0:0:0:
192,192,59708,1,0,0:0:0:0:
448,192,59708,1,0,0:0:0:0:
64,192,59817,1,0,0:0:0:0:
64,192,59925,1,0,0:0:0:0:
64,192,60034,1,0,0:0:0:0:
64,192,60143,1,0,0:0:0:0:
192,192,60143,1,0,0:0:0:0:
320,192,60252,1,0,0:0:0:0:
448,192,60252,1,0,0:0:0:0:
192,192,60360,1,0,0:0:0:0:
64,192,60469,1,0,0:0:0:0:
448,192,60469,1,0,0:0:0:0:
64,192,60578,1,0,0:0:0:0:
320,192,60578,1,0,0:0:0:0:
192,192,60578,1,0,0:0:0:0:
448,192,60686,1,0,0:0:0:0:
64,192,60795,1,0,0:0:0:0:
192,192,60795,1,0,0:0:0:0:
320,192,60795,1,0,0:0:0:0:
448,192,60795,1,0,0:0:0:0:
192,192,60904,1,0,0:0:0:0:
320,192,61012,1,0,0:0:0:0:
448,192,61012,1,0,0:0:0:0:
448,192,61121,1,0,0:0:0:0:
64,192,61230,1,0,0:0:0:0:
320,192,61230,1,0,0:0:0:0:
320,192,61339,1,0,0:0:0:0:
64,192,61447,1,0,0:0:0:0:
192,192,61447,1,0,0:0:0:0:
448,192,61447,1,0,0:0:0:0:
192,192,61556,1,0,0:0:0:0:
448,192,61665,1,0,0:0:0:0:
64,192,61773,1,0,0:0:0:0:
192,192,61882,1,0,0:0:0:0:
448,192,61882,1,0,0:0:0:0:
192,192,61991,1,0,0:0:0:0:
64,192,62099,1,0,0:0:0:0:
448,192,62099,1,0,0:0:0:0:
320,192,62208,1,0,0:0:0:0:
192,192,62208,1,0,0:0:0:0:
64,192,62317,1,0,0:0:0:0:
320,192,62317,1,0,0:0:0:0:
448,192,62317,1,0,0:0:0:0:
192,192,62425,1,0,0:0:0:0:
64,192,62534,1,0,0:0:0:0:
192,192,62534,1,0,0:0:0:0:
448,192,62534,1,0,0:0:0:0:
320,192,62534,1,0,0:0:0:0:
448,192,62643,1,0,0:0:0:0:
320,192,62752,1,0,0:0:0:0:
192,192,62752,1,0,0:0:0:0:
192,192,62860,1,0,0:0:0:0:
64,192,62969,1,0,0:0:0:0:
448,192,62969,1,0,0:0:0:0:
448,192,63078,1,0,0:0:0:0:
64,192,63186,1,0,0:0:0:0:
192,192,63186,1,0,0:0:0:0:
320,192,63186,1,0,0:0:0:0:
320,192,63295,1,0,0:0:0:0:
64,192,63404,1,0,0:0:0:0:
192,192,63512,1,0,0:0:0:0:
448,192,63621,1,0,0:0:0:0:
64,192,63621,1,0,0:0:0:0:
448,192,63730,1,0,0:0:0:0:
192,192,63839,1,0,0:0:0:0:
64,192,63839,1,0,0:0:0:0:
320,192,63947,1,0,0:0:0:0:
448,192,63947,1,0,0:0:0:0:
192,192,64056,1,0,0:0:0:0:
64,192,64056,1,0,0:0:0:0:
448,192,64056,1,0,0:0:0:0:
320,192,64165,1,0,0:0:0:0:
64,192,64273,1,0,0:0:0:0:
192,192,64273,1,0,0:0:0:0:
320,192,64273,1,0,0:0:0:0:
448,192,64273,1,0,0:0:0:0:
64,192,64382,1,0,0:0:0:0:
192,192,64491,1,0,0:0:0:0:
448,192,64491,1,0,0:0:0:0:
192,192,64599,1,0,0:0:0:0:
64,192,64708,1,0,0:0:0:0:
320,192,64708,1,0,0:0:0:0:
320,192,64817,1,0,0:0:0:0:
64,192,64925,1,0,0:0:0:0:
192,192,64925,1,0,0:0:0:0:
448,192,64925,1,0,0:0:0:0:
192,192,65034,1,0,0:0:0:0:
448,192,65143,1,0,0:0:0:0:
320,192,65252,1,0,0:0:0:0:
64,192,65360,1,0,0:0:0:0:
192,192,65360,1,0,0:0:0:0:
64,192,65469,1,0,0:0:0:0:
192,192,65578,1,0,0:0:0:0:
448,192,65578,1,0,0:0:0:0:
320,192,65686,1,0,0:0:0:0:
64,192,65686,1,0,0:0:0:0:
64,192,65795,1,0,0:0:0:0:
192,192,65795,1,0,0:0:0:0:
448,192,65795,1,0,0:0:0:0:
320,192,65904,1,0,0:0:0:0:
192,192,66012,1,0,0:0:0:0:
64,192,66012,1,0,0:0:0:0:
448,192,66012,1,0,0:0:0:0:
192,192,66121,1,0,0:0:0:0:
192,192,66230,1,0,0:0:0:0:
192,192,66339,128,0,66665:0:0:0:0:
448,192,66665,1,0,0:0:0:0:
64,192,66665,1,0,0:0:0:0:
320,192,66773,1,0,0:0:0:0:
320,192,66882,1,0,0:0:0:0:
320,192,66991,1,0,0:0:0:0:
320,192,67099,1,0,0:0:0:0:
64,192,67099,1,0,0:0:0:0:
64,192,67208,1,0,0:0:0:0:
192,192,67208,1,0,0:0:0:0:
320,192,67317,1,0,0:0:0:0:
448,192,67317,1,0,0:0:0:0:
64,192,67425,1,0,0:0:0:0:
192,192,67425,1,0,0:0:0:0:
64,192,67534,1,0,0:0:0:0:
320,192,67534,1,0,0:0:0:0:
448,192,67534,1,0,0:0:0:0:
192,192,67643,1,0,0:0:0:0:
64,192,67752,1,0,0:0:0:0:
448,192,67752,1,0,0:0:0:0:
320,192,67969,1,0,0:0:0:0:
192,192,68078,1,0,0:0:0:0:
192,192,68186,1,0,0:0:0:0:
64,192,68295,1,0,0:0:0:0:
64,192,68404,1,0,0:0:0:0:
448,192,68512,1,0,0:0:0:0:
192,192,68839,1,0,0:0:0:0:
320,192,68947,1,0,0:0:0:0:
320,192,69056,1,0,0:0:0:0:
64,192,69165,1,0,0:0:0:0:
64,192,69273,1,0,0:0:0:0:
448,192,69382,1,0,0:0:0:0:
448,192,69491,1,0,0:0:0:0:
64,192,69708,1,0,0:0:0:0:
320,192,69817,1,0,0:0:0:0:
320,192,69925,1,0,0:0:0:0:
192,192,70034,1,0,0:0:0:0:
192,192,70143,1,0,0:0:0:0:
448,192,70252,1,0,0:0:0:0:
320,192,70578,1,0,0:0:0:0:
192,192,70686,1,0,0:0:0:0:
192,192,70795,1,0,0:0:0:0:
320,192,70904,1,0,0:0:0:0:
320,192,71012,1,0,0:0:0:0:
448,192,71121,1,0,0:0:0:0:
448,192,71230,1,0,0:0:0:0:
192,192,71447,1,0,0:0:0:0:
320,192,71556,1,0,0:0:0:0:
320,192,71665,1,0,0:0:0:0:
448,192,71773,1,0,0:0:0:0:
448,192,71882,1,0,0:0:0:0:
448,192,71991,1,0,0:0:0:0:
64,192,72317,128,0,81773:0:0:0:0:
320,192,72425,1,0,0:0:0:0:
320,192,72534,1,0,0:0:0:0:
448,192,72643,1,0,0:0:0:0:
192,192,72752,128,0,81773:0:0:0:0:
448,192,72752,1,0,0:0:0:0:
448,192,72860,1,0,0:0:0:0:
448,192,72969,1,0,0:0:0:0:
320,192,73295,1,0,0:0:0:0:
320,192,73404,1,0,0:0:0:0:
448,192,73621,1,0,0:0:0:0:
448,192,73730,1,0,0:0:0:0:
448,192,73839,1,0,0:0:0:0:
320,192,74056,1,0,0:0:0:0:
320,192,74165,1,0,0:0:0:0:
320,192,74273,1,0,0:0:0:0:
320,192,74382,1,0,0:0:0:0:
448,192,74491,1,0,0:0:0:0:
448,192,74599,1,0,0:0:0:0:
448,192,74708,1,0,0:0:0:0:
448,192,74817,1,0,0:0:0:0:
320,192,74925,128,0,81773:0:0:0:0:
448,192,75360,1,0,0:0:0:0:
448,192,75795,1,0,0:0:0:0:
448,192,76230,1,0,0:0:0:0:
448,192,76665,1,0,0:0:0:0:
448,192,77099,1,0,0:0:0:0:
448,192,77534,1,0,0:0:0:0:
448,192,77969,1,0,0:0:0:0:
448,192,78404,128,0,81773:0:0:0:0:
64,192,88839,5,0,0:0:0:0:
320,192,88839,1,0,0:0:0:0:
192,192,88983,1,0,0:0:0:0:
320,192,88983,1,0,0:0:0:0:
192,192,89128,1,0,0:0:0:0:
448,192,89128,1,0,0:0:0:0:
320,192,89273,1,0,0:0:0:0:
448,192,89273,1,0,0:0:0:0:
64,192,89273,1,0,0:0:0:0:
192,192,89418,1,0,0:0:0:0:
320,192,89418,1,0,0:0:0:0:
64,192,89563,1,0,0:0:0:0:
192,192,89563,1,0,0:0:0:0:
64,192,89708,1,0,0:0:0:0:
320,192,89708,1,0,0:0:0:0:
320,192,89853,1,0,0:0:0:0:
192,192,89853,1,0,0:0:0:0:
192,192,89998,1,0,0:0:0:0:
448,192,89998,1,0,0:0:0:0:
448,192,90143,1,0,0:0:0:0:
320,192,90143,1,0,0:0:0:0:
64,192,90143,1,0,0:0:0:0:
192,192,90288,1,0,0:0:0:0:
320,192,90288,1,0,0:0:0:0:
192,192,90433,1,0,0:0:0:0:
64,192,90433,1,0,0:0:0:0:
64,192,90578,5,0,0:0:0:0:
320,192,90578,1,0,0:0:0:0:
320,192,90723,1,0,0:0:0:0:
192,192,90723,1,0,0:0:0:0:
448,192,90868,1,0,0:0:0:0:
192,192,90868,1,0,0:0:0:0:
64,192,91012,1,0,0:0:0:0:
320,192,91012,1,0,0:0:0:0:
448,192,91012,1,0,0:0:0:0:
320,192,91157,1,0,0:0:0:0:
192,192,91157,1,0,0:0:0:0:
192,192,91302,1,0,0:0:0:0:
64,192,91302,1,0,0:0:0:0:
64,192,92317,1,0,0:0:0:0:
448,192,92317,1,0,0:0:0:0:
320,192,92462,1,0,0:0:0:0:
64,192,92462,1,0,0:0:0:0:
448,192,92607,1,0,0:0:0:0:
192,192,92607,1,0,0:0:0:0:
64,192,92752,1,0,0:0:0:0:
320,192,92752,1,0,0:0:0:0:
448,192,92752,1,0,0:0:0:0:
192,192,92897,1,0,0:0:0:0:
320,192,92897,1,0,0:0:0:0:
64,192,93041,1,0,0:0:0:0:
192,192,93041,1,0,0:0:0:0:
64,192,93186,1,0,0:0:0:0:
448,192,93186,1,0,0:0:0:0:
320,192,93331,1,0,0:0:0:0:
64,192,93331,1,0,0:0:0:0:
192,192,93476,1,0,0:0:0:0:
448,192,93476,1,0,0:0:0:0:
448,192,93621,1,0,0:0:0:0:
64,192,93621,1,0,0:0:0:0:
320,192,93621,1,0,0:0:0:0:
320,192,93766,1,0,0:0:0:0:
192,192,93766,1,0,0:0:0:0:
64,192,93911,1,0,0:0:0:0:
192,192,93911,1,0,0:0:0:0:
64,192,94056,1,0,0:0:0:0:
448,192,94056,1,0,0:0:0:0:
320,192,94201,1,0,0:0:0:0:
64,192,94201,1,0,0:0:0:0:
192,192,94346,1,0,0:0:0:0:
448,192,94346,1,0,0:0:0:0:
448,192,94491,1,0,0:0:0:0:
64,192,94491,1,0,0:0:0:0:
320,192,94491,1,0,0:0:0:0:
320,192,94636,1,0,0:0:0:0:
192,192,94636,1,0,0:0:0:0:
64,192,94781,1,0,0:0:0:0:
192,192,94781,1,0,0:0:0:0:
64,192,94925,1,0,0:0:0:0:
448,192,94925,1,0,0:0:0:0:
64,192,95070,1,0,0:0:0:0:
320,192,95070,1,0,0:0:0:0:
448,192,95215,1,0,0:0:0:0:
192,192,95215,1,0,0:0:0:0:
320,192,95360,1,0,0:0:0:0:
64,192,95360,1,0,0:0:0:0:
448,192,95360,1,0,0:0:0:0:
192,192,95505,1,0,0:0:0:0:
320,192,95505,1,0,0:0:0:0:
192,192,95650,1,0,0:0:0:0:
64,192,95650,1,0,0:0:0:0:
448,192,95795,1,0,0:0:0:0:
192,192,95795,1,0,0:0:0:0:
320,192,95795,1,0,0:0:0:0:
64,192,95940,1,0,0:0:0:0:
448,192,95940,1,0,0:0:0:0:
320,192,96085,1,0,0:0:0:0:
448,192,96085,1,0,0:0:0:0:
64,192,96230,1,0,0:0:0:0:
320,192,96230,1,0,0:0:0:0:
192,192,96375,1,0,0:0:0:0:
64,192,96375,1,0,0:0:0:0:
448,192,96520,1,0,0:0:0:0:
64,192,96520,1,0,0:0:0:0:
192,192,96665,1,0,0:0:0:0:
320,192,96665,1,0,0:0:0:0:
448,192,96665,1,0,0:0:0:0:
448,192,96810,1,0,0:0:0:0:
64,192,96810,1,0,0:0:0:0:
320,192,96954,1,0,0:0:0:0:
448,192,96954,1,0,0:0:0:0:
320,192,97099,1,0,0:0:0:0:
64,192,97099,1,0,0:0:0:0:
64,192,97244,1,0,0:0:0:0:
192,192,97244,1,0,0:0:0:0:
64,192,97389,1,0,0:0:0:0:
448,192,97389,1,0,0:0:0:0:
320,192,97534,1,0,0:0:0:0:
192,192,97534,1,0,0:0:0:0:
448,192,97534,1,0,0:0:0:0:
64,192,97679,1,0,0:0:0:0:
448,192,97679,1,0,0:0:0:0:
448,192,97824,1,0,0:0:0:0:
320,192,97824,1,0,0:0:0:0:
64,192,97969,1,0,0:0:0:0:
320,192,97969,1,0,0:0:0:0:
192,192,98114,1,0,0:0:0:0:
64,192,98114,1,0,0:0:0:0:
448,192,98259,1,0,0:0:0:0:
64,192,98259,1,0,0:0:0:0:
64,192,99273,1,0,0:0:0:0:
448,192,99273,1,0,0:0:0:0:
320,192,99273,1,0,0:0:0:0:
64,192,99418,1,0,0:0:0:0:
448,192,99418,1,0,0:0:0:0:
192,192,99563,1,0,0:0:0:0:
448,192,99563,1,0,0:0:0:0:
320,192,99563,1,0,0:0:0:0:
64,192,99708,1,0,0:0:0:0:
320,192,99708,1,0,0:0:0:0:
448,192,99853,1,0,0:0:0:0:
64,192,99853,1,0,0:0:0:0:
192,192,99853,1,0,0:0:0:0:
192,192,99998,1,0,0:0:0:0:
320,192,99998,1,0,0:0:0:0:
64,192,100143,1,0,0:0:0:0:
448,192,100143,1,0,0:0:0:0:
320,192,100143,1,0,0:0:0:0:
64,192,100288,1,0,0:0:0:0:
448,192,100288,1,0,0:0:0:0:
192,192,100433,1,0,0:0:0:0:
320,192,100433,1,0,0:0:0:0:
448,192,100433,1,0,0:0:0:0:
64,192,100578,1,0,0:0:0:0:
192,192,100578,1,0,0:0:0:0:
320,192,100578,1,0,0:0:0:0:
192,192,100723,1,0,0:0:0:0:
320,192,100723,1,0,0:0:0:0:
448,192,100723,1,0,0:0:0:0:
64,192,100868,1,0,0:0:0:0:
448,192,100868,1,0,0:0:0:0:
192,192,101012,1,0,0:0:0:0:
320,192,101012,1,0,0:0:0:0:
448,192,101012,1,0,0:0:0:0:
320,192,101157,1,0,0:0:0:0:
448,192,101157,1,0,0:0:0:0:
192,192,101302,1,0,0:0:0:0:
320,192,101302,1,0,0:0:0:0:
448,192,101302,1,0,0:0:0:0:
320,192,101447,1,0,0:0:0:0:
192,192,101447,1,0,0:0:0:0:
448,192,101447,1,0,0:0:0:0:
64,192,101592,1,0,0:0:0:0:
448,192,101592,1,0,0:0:0:0:
192,192,101737,1,0,0:0:0:0:
320,192,101737,1,0,0:0:0:0:
448,192,101737,1,0,0:0:0:0:
448,192,101882,1,0,0:0:0:0:
320,192,101882,1,0,0:0:0:0:
192,192,101882,1,0,0:0:0:0:
192,192,102027,1,0,0:0:0:0:
320,192,102027,1,0,0:0:0:0:
448,192,102027,1,0,0:0:0:0:
448,192,102172,1,0,0:0:0:0:
320,192,102172,1,0,0:0:0:0:
192,192,102172,1,0,0:0:0:0:
64,192,102317,1,0,0:0:0:0:
320,192,102317,1,0,0:0:0:0:
448,192,102317,1,0,0:0:0:0:
192,192,102317,1,0,0:0:0:0:
64,192,102752,1,0,0:0:0:0:
448,192,102752,1,0,0:0:0:0:
320,192,102752,1,0,0:0:0:0:
192,192,102897,1,0,0:0:0:0:
320,192,102897,1,0,0:0:0:0:
448,192,102897,1,0,0:0:0:0:
192,192,103041,1,0,0:0:0:0:
320,192,103041,1,0,0:0:0:0:
64,192,103041,1,0,0:0:0:0:
64,192,103186,1,0,0:0:0:0:
320,192,103186,1,0,0:0:0:0:
448,192,103186,1,0,0:0:0:0:
448,192,103331,1,0,0:0:0:0:
192,192,103331,1,0,0:0:0:0:
320,192,103331,1,0,0:0:0:0:
192,192,103476,1,0,0:0:0:0:
320,192,103476,1,0,0:0:0:0:
64,192,103476,1,0,0:0:0:0:
448,192,103621,1,0,0:0:0:0:
64,192,103621,1,0,0:0:0:0:
320,192,103621,1,0,0:0:0:0:
448,192,103766,1,0,0:0:0:0:
192,192,103766,1,0,0:0:0:0:
320,192,103766,1,0,0:0:0:0:
448,192,103911,1,0,0:0:0:0:
64,192,103911,1,0,0:0:0:0:
192,192,103911,1,0,0:0:0:0:
448,192,104056,1,0,0:0:0:0:
320,192,104056,1,0,0:0:0:0:
64,192,104056,1,0,0:0:0:0:
320,192,104201,1,0,0:0:0:0:
192,192,104201,1,0,0:0:0:0:
448,192,104201,1,0,0:0:0:0:
64,192,104346,1,0,0:0:0:0:
320,192,104346,1,0,0:0:0:0:
192,192,104346,1,0,0:0:0:0:
320,192,104491,1,0,0:0:0:0:
64,192,104491,1,0,0:0:0:0:
448,192,104491,1,0,0:0:0:0:
320,192,104636,1,0,0:0:0:0:
192,192,104636,1,0,0:0:0:0:
448,192,104636,1,0,0:0:0:0:
192,192,104781,1,0,0:0:0:0:
64,192,104781,1,0,0:0:0:0:
448,192,104781,1,0,0:0:0:0:
320,192,104925,1,0,0:0:0:0:
64,192,104925,1,0,0:0:0:0:
448,192,104925,1,0,0:0:0:0:
320,192,105070,1,0,0:0:0:0:
192,192,105070,1,0,0:0:0:0:
448,192,105070,1,0,0:0:0:0:
64,192,105215,1,0,0:0:0:0:
192,192,105215,1,0,0:0:0:0:
320,192,105215,1,0,0:0:0:0:
192,192,105360,1,0,0:0:0:0:
448,192,105360,1,0,0:0:0:0:
320,192,105360,1,0,0:0:0:0:
448,192,105505,1,0,0:0:0:0:
448,192,105650,1,0,0:0:0:0:
64,192,105650,1,0,0:0:0:0:
192,192,105650,1,0,0:0:0:0:
192,192,105795,1,0,0:0:0:0:
448,192,105940,1,0,0:0:0:0:
192,192,105940,1,0,0:0:0:0:
320,192,105940,1,0,0:0:0:0:
448,192,106085,1,0,0:0:0:0:
448,192,106230,1,0,0:0:0:0:
192,192,106230,1,0,0:0:0:0:
320,192,106230,1,0,0:0:0:0:
64,192,106375,1,0,0:0:0:0:
448,192,106375,1,0,0:0:0:0:
192,192,106375,1,0,0:0:0:0:
320,192,106520,1,0,0:0:0:0:
448,192,106520,1,0,0:0:0:0:
64,192,106520,1,0,0:0:0:0:
64,192,106665,1,0,0:0:0:0:
320,192,106665,1,0,0:0:0:0:
448,192,106665,1,0,0:0:0:0:
192,192,106665,1,0,0:0:0:0:
192,192,106810,1,0,0:0:0:0:
64,192,106810,1,0,0:0:0:0:
448,192,106810,1,0,0:0:0:0:
64,192,106954,1,0,0:0:0:0:
192,192,106954,1,0,0:0:0:0:
320,192,106954,1,0,0:0:0:0:
192,192,107099,1,0,0:0:0:0:
320,192,107099,1,0,0:0:0:0:
448,192,107099,1,0,0:0:0:0:
448,192,107244,1,0,0:0:0:0:
64,192,107244,1,0,0:0:0:0:
192,192,107244,1,0,0:0:0:0:
448,192,107389,1,0,0:0:0:0:
64,192,107389,1,0,0:0:0:0:
320,192,107389,1,0,0:0:0:0:
320,192,107534,1,0,0:0:0:0:
64,192,107534,1,0,0:0:0:0:
192,192,107534,1,0,0:0:0:0:
64,192,107679,1,0,0:0:0:0:
192,192,107679,1,0,0:0:0:0:
448,192,107679,1,0,0:0:0:0:
64,192,107824,1,0,0:0:0:0:
192,192,107824,1,0,0:0:0:0:
320,192,107824,1,0,0:0:0:0:
320,192,107969,1,0,0:0:0:0:
192,192,107969,1,0,0:0:0:0:
448,192,107969,1,0,0:0:0:0:
64,192,108114,1,0,0:0:0:0:
448,192,108114,1,0,0:0:0:0:
192,192,108114,1,0,0:0:0:0:
448,192,108259,1,0,0:0:0:0:
320,192,108259,1,0,0:0:0:0:
64,192,108259,1,0,0:0:0:0:
64,192,108404,1,0,0:0:0:0:
320,192,108404,1,0,0:0:0:0:
192,192,108404,1,0,0:0:0:0:
192,192,108549,1,0,0:0:0:0:
64,192,108549,1,0,0:0:0:0:
448,192,108549,1,0,0:0:0:0:
64,192,108694,1,0,0:0:0:0:
320,192,108694,1,0,0:0:0:0:
192,192,108694,1,0,0:0:0:0:
192,192,108839,1,0,0:0:0:0:
320,192,108839,1,0,0:0:0:0:
448,192,108839,1,0,0:0:0:0:
64,192,108983,1,0,0:0:0:0:
192,192,108983,1,0,0:0:0:0:
448,192,108983,1,0,0:0:0:0:
320,192,109128,1,0,0:0:0:0:
64,192,109128,1,0,0:0:0:0:
448,192,109128,1,0,0:0:0:0:
320,192,109273,1,0,0:0:0:0:
192,192,109273,1,0,0:0:0:0:
64,192,109273,1,0,0:0:0:0:
64,192,109418,1,0,0:0:0:0:
192,192,109418,1,0,0:0:0:0:
448,192,109418,1,0,0:0:0:0:
320,192,109418,1,0,0:0:0:0:
448,192,109563,1,0,0:0:0:0:
64,192,109563,1,0,0:0:0:0:
192,192,109563,1,0,0:0:0:0:
320,192,109563,1,0,0:0:0:0:
320,192,109708,1,0,0:0:0:0:
192,192,109708,1,0,0:0:0:0:
448,192,109708,1,0,0:0:0:0:
448,192,109853,1,0,0:0:0:0:
64,192,109853,1,0,0:0:0:0:
192,192,109853,1,0,0:0:0:0:
448,192,109998,1,0,0:0:0:0:
320,192,109998,1,0,0:0:0:0:
64,192,109998,1,0,0:0:0:0:
320,192,110143,1,0,0:0:0:0:
64,192,110143,1,0,0:0:0:0:
192,192,110143,1,0,0:0:0:0:
448,192,110288,1,0,0:0:0:0:
320,192,110288,1,0,0:0:0:0:
192,192,110288,1,0,0:0:0:0:
64,192,110433,1,0,0:0:0:0:
448,192,110433,1,0,0:0:0:0:
192,192,110433,1,0,0:0:0:0:
448,192,110578,1,0,0:0:0:0:
320,192,110578,1,0,0:0:0:0:
192,192,110578,1,0,0:0:0:0:
64,192,110723,1,0,0:0:0:0:
448,192,110723,1,0,0:0:0:0:
320,192,110723,1,0,0:0:0:0:
448,192,110868,1,0,0:0:0:0:
320,192,110868,1,0,0:0:0:0:
192,192,110868,1,0,0:0:0:0:
64,192,111012,1,0,0:0:0:0:
448,192,111012,1,0,0:0:0:0:
192,192,111012,1,0,0:0:0:0:
192,192,111157,1,0,0:0:0:0:
64,192,111157,1,0,0:0:0:0:
320,192,111157,1,0,0:0:0:0:
448,192,111302,1,0,0:0:0:0:
64,192,111302,1,0,0:0:0:0:
192,192,111302,1,0,0:0:0:0:
448,192,111447,1,0,0:0:0:0:
192,192,111447,1,0,0:0:0:0:
320,192,111447,1,0,0:0:0:0:
64,192,111592,1,0,0:0:0:0:
320,192,111592,1,0,0:0:0:0:
448,192,111592,1,0,0:0:0:0:
448,192,111737,1,0,0:0:0:0:
320,192,111737,1,0,0:0:0:0:
192,192,111737,1,0,0:0:0:0:
448,192,111882,1,0,0:0:0:0:
192,192,111882,1,0,0:0:0:0:
64,192,111882,1,0,0:0:0:0:
64,192,112027,1,0,0:0:0:0:
320,192,112027,1,0,0:0:0:0:
192,192,112027,1,0,0:0:0:0:
64,192,112172,1,0,0:0:0:0:
320,192,112172,1,0,0:0:0:0:
448,192,112172,1,0,0:0:0:0:
320,192,112317,1,0,0:0:0:0:
448,192,112317,1,0,0:0:0:0:
192,192,112317,1,0,0:0:0:0:
192,192,112462,1,0,0:0:0:0:
64,192,112607,1,0,0:0:0:0:
192,192,112607,1,0,0:0:0:0:
448,192,112607,1,0,0:0:0:0:
448,192,112752,1,0,0:0:0:0:
64,192,112897,1,0,0:0:0:0:
192,192,112897,1,0,0:0:0:0:
448,192,112897,1,0,0:0:0:0:
64,192,113041,1,0,0:0:0:0:
64,192,113186,1,0,0:0:0:0:
320,192,113186,1,0,0:0:0:0:
448,192,113186,1,0,0:0:0:0:
64,192,113331,1,0,0:0:0:0:
448,192,113331,1,0,0:0:0:0:
192,192,113331,1,0,0:0:0:0:
192,192,113476,1,0,0:0:0:0:
448,192,113476,1,0,0:0:0:0:
320,192,113476,1,0,0:0:0:0:
64,192,113621,1,0,0:0:0:0:
320,192,113621,1,0,0:0:0:0:
192,192,113621,1,0,0:0:0:0:
64,192,113766,1,0,0:0:0:0:
448,192,113766,1,0,0:0:0:0:
192,192,113766,1,0,0:0:0:0:
192,192,113911,1,0,0:0:0:0:
320,192,113911,1,0,0:0:0:0:
64,192,113911,1,0,0:0:0:0:
320,192,114056,1,0,0:0:0:0:
448,192,114056,1,0,0:0:0:0:
64,192,114056,1,0,0:0:0:0:
448,192,114201,1,0,0:0:0:0:
64,192,114201,1,0,0:0:0:0:
192,192,114201,1,0,0:0:0:0:
192,192,114346,1,0,0:0:0:0:
448,192,114346,1,0,0:0:0:0:
320,192,114346,1,0,0:0:0:0:
64,192,114491,1,0,0:0:0:0:
320,192,114491,1,0,0:0:0:0:
192,192,114491,1,0,0:0:0:0:
448,192,114636,1,0,0:0:0:0:
64,192,114636,1,0,0:0:0:0:
192,192,114636,1,0,0:0:0:0:
192,192,114781,1,0,0:0:0:0:
320,192,114781,1,0,0:0:0:0:
64,192,114781,1,0,0:0:0:0:
64,192,114925,1,0,0:0:0:0:
448,192,114925,1,0,0:0:0:0:
320,192,114925,1,0,0:0:0:0:
192,192,114925,1,0,0:0:0:0:
64,192,115070,1,0,0:0:0:0:
448,192,115070,1,0,0:0:0:0:
192,192,115070,1,0,0:0:0:0:
448,192,115215,1,0,0:0:0:0:
192,192,115215,1,0,0:0:0:0:
320,192,115215,1,0,0:0:0:0:
320,192,115360,1,0,0:0:0:0:
64,192,115360,1,0,0:0:0:0:
192,192,115360,1,0,0:0:0:0:
448,192,115360,1,0,0:0:0:0:
64,192,115505,1,0,0:0:0:0:
448,192,115505,1,0,0:0:0:0:
192,192,115505,1,0,0:0:0:0:
320,192,115650,1,0,0:0:0:0:
192,192,115650,1,0,0:0:0:0:
64,192,115650,1,0,0:0:0:0:
448,192,115795,1,0,0:0:0:0:
64,192,115795,1,0,0:0:0:0:
320,192,115795,1,0,0:0:0:0:
192,192,115795,1,0,0:0:0:0:
448,192,115940,1,0,0:0:0:0:
64,192,115940,1,0,0:0:0:0:
192,192,115940,1,0,0:0:0:0:
192,192,116085,1,0,0:0:0:0:
448,192,116085,1,0,0:0:0:0:
320,192,116085,1,0,0:0:0:0:
64,192,116230,1,0,0:0:0:0:
320,192,116230,1,0,0:0:0:0:
448,192,116230,1,0,0:0:0:0:
192,192,116230,1,0,0:0:0:0:
320,192,116375,1,0,0:0:0:0:
320,192,116520,1,0,0:0:0:0:
64,192,116665,1,0,0:0:0:0:
448,192,116665,1,0,0:0:0:0:
320,192,116665,1,0,0:0:0:0:
192,192,116810,1,0,0:0:0:0:
320,192,116810,1,0,0:0:0:0:
448,192,116810,1,0,0:0:0:0:
192,192,116954,1,0,0:0:0:0:
320,192,116954,1,0,0:0:0:0:
64,192,116954,1,0,0:0:0:0:
64,192,117099,1,0,0:0:0:0:
320,192,117099,1,0,0:0:0:0:
448,192,117099,1,0,0:0:0:0:
448,192,117244,1,0,0:0:0:0:
192,192,117244,1,0,0:0:0:0:
320,192,117244,1,0,0:0:0:0:
192,192,117389,1,0,0:0:0:0:
320,192,117389,1,0,0:0:0:0:
64,192,117389,1,0,0:0:0:0:
448,192,117534,1,0,0:0:0:0:
64,192,117534,1,0,0:0:0:0:
320,192,117534,1,0,0:0:0:0:
448,192,117679,1,0,0:0:0:0:
192,192,117679,1,0,0:0:0:0:
320,192,117679,1,0,0:0:0:0:
448,192,117824,1,0,0:0:0:0:
64,192,117824,1,0,0:0:0:0:
192,192,117824,1,0,0:0:0:0:
448,192,117969,1,0,0:0:0:0:
320,192,117969,1,0,0:0:0:0:
64,192,117969,1,0,0:0:0:0:
320,192,118114,1,0,0:0:0:0:
192,192,118114,1,0,0:0:0:0:
448,192,118114,1,0,0:0:0:0:
64,192,118259,1,0,0:0:0:0:
320,192,118259,1,0,0:0:0:0:
192,192,118259,1,0,0:0:0:0:
320,192,118404,1,0,0:0:0:0:
64,192,118404,1,0,0:0:0:0:
448,192,118404,1,0,0:0:0:0:
320,192,118549,1,0,0:0:0:0:
192,192,118549,1,0,0:0:0:0:
448,192,118549,1,0,0:0:0:0:
192,192,118694,1,0,0:0:0:0:
64,192,118694,1,0,0:0:0:0:
448,192,118694,1,0,0:0:0:0:
320,192,118839,1,0,0:0:0:0:
64,192,118839,1,0,0:0:0:0:
448,192,118839,1,0,0:0:0:0:
320,192,118983,1,0,0:0:0:0:
192,192,118983,1,0,0:0:0:0:
448,192,118983,1,0,0:0:0:0:
64,192,119128,1,0,0:0:0:0:
192,192,119128,1,0,0:0:0:0:
320,192,119128,1,0,0:0:0:0:
192,192,119273,1,0,0:0:0:0:
448,192,119273,1,0,0:0:0:0:
320,192,119273,1,0,0:0:0:0:
192,192,119418,1,0,0:0:0:0:
448,192,119563,1,0,0:0:0:0:
320,192,119563,1,0,0:0:0:0:
192,192,119563,1,0,0:0:0:0:
448,192,119708,1,0,0:0:0:0:
448,192,119853,1,0,0:0:0:0:
64,192,119853,1,0,0:0:0:0:
192,192,119853,1,0,0:0:0:0:
448,192,119998,1,0,0:0:0:0:
448,192,120143,1,0,0:0:0:0:
192,192,120143,1,0,0:0:0:0:
320,192,120143,1,0,0:0:0:0:
64,192,120288,1,0,0:0:0:0:
448,192,120288,1,0,0:0:0:0:
192,192,120288,1,0,0:0:0:0:
320,192,120433,1,0,0:0:0:0:
448,192,120433,1,0,0:0:0:0:
64,192,120433,1,0,0:0:0:0:
64,192,120578,1,0,0:0:0:0:
320,192,120578,1,0,0:0:0:0:
448,192,120578,1,0,0:0:0:0:
192,192,120578,1,0,0:0:0:0:
192,192,120723,1,0,0:0:0:0:
64,192,120723,1,0,0:0:0:0:
448,192,120723,1,0,0:0:0:0:
64,192,120868,1,0,0:0:0:0:
192,192,120868,1,0,0:0:0:0:
320,192,120868,1,0,0:0:0:0:
192,192,121012,1,0,0:0:0:0:
320,192,121012,1,0,0:0:0:0:
448,192,121012,1,0,0:0:0:0:
448,192,121157,1,0,0:0:0:0:
64,192,121157,1,0,0:0:0:0:
192,192,121157,1,0,0:0:0:0:
448,192,121302,1,0,0:0:0:0:
64,192,121302,1,0,0:0:0:0:
320,192,121302,1,0,0:0:0:0:
320,192,121447,1,0,0:0:0:0:
64,192,121447,1,0,0:0:0:0:
192,192,121447,1,0,0:0:0:0:
64,192,121592,1,0,0:0:0:0:
192,192,121592,1,0,0:0:0:0:
448,192,121592,1,0,0:0:0:0:
64,192,121737,1,0,0:0:0:0:
192,192,121737,1,0,0:0:0:0:
320,192,121737,1,0,0:0:0:0:
320,192,121882,1,0,0:0:0:0:
192,192,121882,1,0,0:0:0:0:
448,192,121882,1,0,0:0:0:0:
64,192,122027,1,0,0:0:0:0:
448,192,122027,1,0,0:0:0:0:
192,192,122027,1,0,0:0:0:0:
448,192,122172,1,0,0:0:0:0:
320,192,122172,1,0,0:0:0:0:
64,192,122172,1,0,0:0:0:0:
64,192,122317,1,0,0:0:0:0:
320,192,122317,1,0,0:0:0:0:
192,192,122317,1,0,0:0:0:0:
192,192,122462,1,0,0:0:0:0:
64,192,122462,1,0,0:0:0:0:
448,192,122462,1,0,0:0:0:0:
64,192,122607,1,0,0:0:0:0:
320,192,122607,1,0,0:0:0:0:
192,192,122607,1,0,0:0:0:0:
192,192,122752,1,0,0:0:0:0:
320,192,122752,1,0,0:0:0:0:
448,192,122752,1,0,0:0:0:0:
64,192,122752,1,0,0:0:0:0:
64,192,122897,1,0,0:0:0:0:
192,192,122897,1,0,0:0:0:0:
448,192,122897,1,0,0:0:0:0:
320,192,123041,1,0,0:0:0:0:
64,192,123041,1,0,0:0:0:0:
448,192,123041,1,0,0:0:0:0:
192,192,123041,1,0,0:0:0:0:
320,192,123186,1,0,0:0:0:0:
192,192,123186,1,0,0:0:0:0:
64,192,123186,1,0,0:0:0:0:
64,192,123331,1,0,0:0:0:0:
192,192,123331,1,0,0:0:0:0:
448,192,123331,1,0,0:0:0:0:
320,192,123331,1,0,0:0:0:0:
448,192,123476,1,0,0:0:0:0:
64,192,123476,1,0,0:0:0:0:
192,192,123476,1,0,0:0:0:0:
320,192,123476,1,0,0:0:0:0:
320,192,123621,1,0,0:0:0:0:
192,192,123621,1,0,0:0:0:0:
448,192,123621,1,0,0:0:0:0:
448,192,123766,1,0,0:0:0:0:
64,192,123766,1,0,0:0:0:0:
192,192,123766,1,0,0:0:0:0:
448,192,123911,1,0,0:0:0:0:
320,192,123911,1,0,0:0:0:0:
64,192,123911,1,0,0:0:0:0:
320,192,124056,1,0,0:0:0:0:
64,192,124056,1,0,0:0:0:0:
192,192,124056,1,0,0:0:0:0:
448,192,124201,1,0,0:0:0:0:
320,192,124201,1,0,0:0:0:0:
192,192,124201,1,0,0:0:0:0:
64,192,124346,1,0,0:0:0:0:
448,192,124346,1,0,0:0:0:0:
192,192,124346,1,0,0:0:0:0:
448,192,124491,1,0,0:0:0:0:
320,192,124491,1,0,0:0:0:0:
192,192,124491,1,0,0:0:0:0:
64,192,124636,1,0,0:0:0:0:
448,192,124636,1,0,0:0:0:0:
320,192,124636,1,0,0:0:0:0:
448,192,124781,1,0,0:0:0:0:
320,192,124781,1,0,0:0:0:0:
192,192,124781,1,0,0:0:0:0:
64,192,124925,1,0,0:0:0:0:
448,192,124925,1,0,0:0:0:0:
192,192,124925,1,0,0:0:0:0:
192,192,125070,1,0,0:0:0:0:
64,192,125070,1,0,0:0:0:0:
320,192,125070,1,0,0:0:0:0:
448,192,125215,1,0,0:0:0:0:
64,192,125215,1,0,0:0:0:0:
192,192,125215,1,0,0:0:0:0:
448,192,125360,1,0,0:0:0:0:
192,192,125360,1,0,0:0:0:0:
320,192,125360,1,0,0:0:0:0:
64,192,125505,1,0,0:0:0:0:
320,192,125505,1,0,0:0:0:0:
448,192,125505,1,0,0:0:0:0:
448,192,125650,1,0,0:0:0:0:
320,192,125650,1,0,0:0:0:0:
192,192,125650,1,0,0:0:0:0:
448,192,125795,1,0,0:0:0:0:
192,192,125795,1,0,0:0:0:0:
64,192,125795,1,0,0:0:0:0:
64,192,125940,1,0,0:0:0:0:
320,192,125940,1,0,0:0:0:0:
192,192,125940,1,0,0:0:0:0:
64,192,126085,1,0,0:0:0:0:
320,192,126085,1,0,0:0:0:0:
448,192,126085,1,0,0:0:0:0:
320,192,126230,1,0,0:0:0:0:
448,192,126230,1,0,0:0:0:0:
192,192,126230,1,0,0:0:0:0:
448,192,126375,1,0,0:0:0:0:
320,192,126520,1,0,0:0:0:0:
192,192,126520,1,0,0:0:0:0:
448,192,126520,1,0,0:0:0:0:
192,192,126665,1,0,0:0:0:0:
64,192,126810,1,0,0:0:0:0:
192,192,126810,1,0,0:0:0:0:
448,192,126810,1,0,0:0:0:0:
64,192,126954,1,0,0:0:0:0:
64,192,127099,1,0,0:0:0:0:
320,192,127099,1,0,0:0:0:0:
448,192,127099,1,0,0:0:0:0:
64,192,127244,1,0,0:0:0:0:
448,192,127244,1,0,0:0:0:0:
192,192,127244,1,0,0:0:0:0:
192,192,127389,1,0,0:0:0:0:
448,192,127389,1,0,0:0:0:0:
320,192,127389,1,0,0:0:0:0:
64,192,127534,1,0,0:0:0:0:
320,192,127534,1,0,0:0:0:0:
192,192,127534,1,0,0:0:0:0:
64,192,127679,1,0,0:0:0:0:
448,192,127679,1,0,0:0:0:0:
192,192,127679,1,0,0:0:0:0:
192,192,127824,1,0,0:0:0:0:
320,192,127824,1,0,0:0:0:0:
64,192,127824,1,0,0:0:0:0:
320,192,127969,1,0,0:0:0:0:
448,192,127969,1,0,0:0:0:0:
64,192,127969,1,0,0:0:0:0:
448,192,128114,1,0,0:0:0:0:
64,192,128114,1,0,0:0:0:0:
192,192,128114,1,0,0:0:0:0:
192,192,128259,1,0,0:0:0:0:
448,192,128259,1,0,0:0:0:0:
320,192,128259,1,0,0:0:0:0:
64,192,128404,1,0,0:0:0:0:
320,192,128404,1,0,0:0:0:0:
192,192,128404,1,0,0:0:0:0:
448,192,128549,1,0,0:0:0:0:
64,192,128549,1,0,0:0:0:0:
192,192,128549,1,0,0:0:0:0:
192,192,128694,1,0,0:0:0:0:
320,192,128694,1,0,0:0:0:0:
64,192,128694,1,0,0:0:0:0:
64,192,128839,1,0,0:0:0:0:
448,192,128839,1,0,0:0:0:0:
320,192,128839,1,0,0:0:0:0:
192,192,128839,1,0,0:0:0:0:
320,192,128983,1,0,0:0:0:0:
320,192,129128,1,0,0:0:0:0:
64,192,129273,1,0,0:0:0:0:
448,192,129273,1,0,0:0:0:0:
320,192,129418,1,0,0:0:0:0:
320,192,129563,1,0,0:0:0:0:
64,192,129708,1,0,0:0:0:0:
448,192,129708,1,0,0:0:0:0:
192,192,129708,1,0,0:0:0:0:
320,192,129853,1,0,0:0:0:0:
192,192,129998,1,0,0:0:0:0:
64,192,129998,1,0,0:0:0:0:
448,192,129998,1,0,0:0:0:0:
64,192,130143,1,0,0:0:0:0:
192,192,130143,1,0,0:0:0:0:
320,192,130143,1,0,0:0:0:0:
448,192,130143,1,0,0:0:0:0:
64,192,130288,1,0,0:0:0:0:
192,192,130288,1,0,0:0:0:0:
448,192,130288,1,0,0:0:0:0:
448,192,130433,1,0,0:0:0:0:
192,192,130433,1,0,0:0:0:0:
64,192,130433,1,0,0:0:0:0:
64,192,130578,1,0,0:0:0:0:
448,192,130578,1,0,0:0:0:0:
320,192,130578,1,0,0:0:0:0:
192,192,130723,1,0,0:0:0:0:
320,192,130723,1,0,0:0:0:0:
448,192,130723,1,0,0:0:0:0:
192,192,130868,1,0,0:0:0:0:
320,192,130868,1,0,0:0:0:0:
64,192,130868,1,0,0:0:0:0:
64,192,131012,1,0,0:0:0:0:
320,192,131012,1,0,0:0:0:0:
448,192,131012,1,0,0:0:0:0:
448,192,131157,1,0,0:0:0:0:
192,192,131157,1,0,0:0:0:0:
320,192,131157,1,0,0:0:0:0:
192,192,131302,1,0,0:0:0:0:
320,192,131302,1,0,0:0:0:0:
64,192,131302,1,0,0:0:0:0:
448,192,131447,1,0,0:0:0:0:
64,192,131447,1,0,0:0:0:0:
320,192,131447,1,0,0:0:0:0:
448,192,131592,1,0,0:0:0:0:
192,192,131592,1,0,0:0:0:0:
320,192,131592,1,0,0:0:0:0:
448,192,131737,1,0,0:0:0:0:
64,192,131737,1,0,0:0:0:0:
192,192,131737,1,0,0:0:0:0:
448,192,131882,1,0,0:0:0:0:
320,192,131882,1,0,0:0:0:0:
64,192,131882,1,0,0:0:0:0:
320,192,132027,1,0,0:0:0:0:
192,192,132027,1,0,0:0:0:0:
448,192,132027,1,0,0:0:0:0:
64,192,132172,1,0,0:0:0:0:
320,192,132172,1,0,0:0:0:0:
192,192,132172,1,0,0:0:0:0:
320,192,132317,1,0,0:0:0:0:
64,192,132317,1,0,0:0:0:0:
448,192,132317,1,0,0:0:0:0:
64,192,132462,1,0,0:0:0:0:
192,192,132462,1,0,0:0:0:0:
192,192,132607,1,0,0:0:0:0:
448,192,132607,1,0,0:0:0:0:
320,192,132752,1,0,0:0:0:0:
64,192,132752,1,0,0:0:0:0:
448,192,132752,1,0,0:0:0:0:
192,192,132897,1,0,0:0:0:0:
448,192,132897,1,0,0:0:0:0:
64,192,133041,1,0,0:0:0:0:
320,192,133041,1,0,0:0:0:0:
64,192,133186,1,0,0:0:0:0:
448,192,133186,1,0,0:0:0:0:
192,192,133186,1,0,0:0:0:0:
64,192,133331,1,0,0:0:0:0:
448,192,133331,1,0,0:0:0:0:
192,192,133476,1,0,0:0:0:0:
320,192,133476,1,0,0:0:0:0:
448,192,133621,1,0,0:0:0:0:
64,192,133621,1,0,0:0:0:0:
320,192,133621,1,0,0:0:0:0:
448,192,133766,1,0,0:0:0:0:
192,192,133766,1,0,0:0:0:0:
320,192,133911,1,0,0:0:0:0:
64,192,133911,1,0,0:0:0:0:
448,192,134056,1,0,0:0:0:0:
320,192,134056,1,0,0:0:0:0:
64,192,134056,1,0,0:0:0:0:
448,192,134201,1,0,0:0:0:0:
64,192,134201,1,0,0:0:0:0:
192,192,134346,1,0,0:0:0:0:
320,192,134346,1,0,0:0:0:0:
320,192,134491,1,0,0:0:0:0:
64,192,134491,1,0,0:0:0:0:
448,192,134491,1,0,0:0:0:0:
192,192,134636,1,0,0:0:0:0:
448,192,134636,1,0,0:0:0:0:
64,192,134781,1,0,0:0:0:0:
320,192,134781,1,0,0:0:0:0:
64,192,134925,1,0,0:0:0:0:
320,192,134925,1,0,0:0:0:0:
448,192,134925,1,0,0:0:0:0:
448,192,135070,1,0,0:0:0:0:
64,192,135070,1,0,0:0:0:0:
320,192,135215,1,0,0:0:0:0:
192,192,135215,1,0,0:0:0:0:
448,192,135360,1,0,0:0:0:0:
64,192,135360,1,0,0:0:0:0:
320,192,135360,1,0,0:0:0:0:
448,192,135505,1,0,0:0:0:0:
192,192,135505,1,0,0:0:0:0:
320,192,135650,1,0,0:0:0:0:
64,192,135650,1,0,0:0:0:0:
448,192,135795,1,0,0:0:0:0:
320,192,135795,1,0,0:0:0:0:
64,192,135795,1,0,0:0:0:0:
448,192,135940,1,0,0:0:0:0:
64,192,135940,1,0,0:0:0:0:
192,192,136085,1,0,0:0:0:0:
320,192,136085,1,0,0:0:0:0:
320,192,136230,1,0,0:0:0:0:
64,192,136230,1,0,0:0:0:0:
448,192,136230,1,0,0:0:0:0:
192,192,136375,1,0,0:0:0:0:
448,192,136375,1,0,0:0:0:0:
64,192,136520,1,0,0:0:0:0:
320,192,136520,1,0,0:0:0:0:
64,192,136665,1,0,0:0:0:0:
320,192,136665,1,0,0:0:0:0:
448,192,136665,1,0,0:0:0:0:
448,192,136810,1,0,0:0:0:0:
64,192,136810,1,0,0:0:0:0:
192,192,136954,1,0,0:0:0:0:
320,192,136954,1,0,0:0:0:0:
448,192,137099,1,0,0:0:0:0:
64,192,137099,1,0,0:0:0:0:
320,192,137099,1,0,0:0:0:0:
448,192,137244,1,0,0:0:0:0:
192,192,137244,1,0,0:0:0:0:
320,192,137389,1,0,0:0:0:0:
64,192,137389,1,0,0:0:0:0:
192,192,137534,1,0,0:0:0:0:
64,192,137534,1,0,0:0:0:0:
448,192,137679,1,0,0:0:0:0:
64,192,137679,1,0,0:0:0:0:
192,192,137824,1,0,0:0:0:0:
320,192,137824,1,0,0:0:0:0:
320,192,137969,1,0,0:0:0:0:
448,192,137969,1,0,0:0:0:0:
192,192,138114,1,0,0:0:0:0:
448,192,138114,1,0,0:0:0:0:
320,192,138259,1,0,0:0:0:0:
64,192,138259,1,0,0:0:0:0:
64,192,138404,1,0,0:0:0:0:
192,192,138404,1,0,0:0:0:0:
448,192,138549,1,0,0:0:0:0:
64,192,138549,1,0,0:0:0:0:
192,192,138694,1,0,0:0:0:0:
320,192,138694,1,0,0:0:0:0:
448,192,138839,1,0,0:0:0:0:
320,192,138839,1,0,0:0:0:0:
192,192,138983,1,0,0:0:0:0:
448,192,138983,1,0,0:0:0:0:
320,192,139128,1,0,0:0:0:0:
64,192,139128,1,0,0:0:0:0:
192,192,139273,1,0,0:0:0:0:
64,192,139273,1,0,0:0:0:0:
320,192,139418,1,0,0:0:0:0:
320,192,139563,1,0,0:0:0:0:
192,192,139708,1,0,0:0:0:0:
448,192,139708,1,0,0:0:0:0:
320,192,139853,1,0,0:0:0:0:
320,192,139998,1,0,0:0:0:0:
64,192,140143,1,0,0:0:0:0:
448,192,140143,1,0,0:0:0:0:
320,192,140288,1,0,0:0:0:0:
320,192,140433,1,0,0:0:0:0:
192,192,140578,1,0,0:0:0:0:
448,192,140578,1,0,0:0:0:0:
64,192,140723,1,0,0:0:0:0:
64,192,140868,1,0,0:0:0:0:
320,192,141302,128,0,141447:0:0:0:0:
320,192,141592,128,0,141737:0:0:0:0:
320,192,141882,128,0,142027:0:0:0:0:
448,192,142172,1,0,0:0:0:0:
64,192,142172,1,0,0:0:0:0:
448,192,142317,1,0,0:0:0:0:
64,192,142317,1,0,0:0:0:0:
448,192,142462,1,0,0:0:0:0:
64,192,142462,1,0,0:0:0:0:
448,192,142607,1,0,0:0:0:0:
64,192,142607,1,0,0:0:0:0:
192,192,142752,1,0,0:0:0:0:
64,192,142752,1,0,0:0:0:0:
448,192,142752,1,0,0:0:0:0:
192,192,142897,1,0,0:0:0:0:
320,192,142897,1,0,0:0:0:0:
192,192,143041,1,0,0:0:0:0:
448,192,143041,1,0,0:0:0:0:
64,192,143186,1,0,0:0:0:0:
192,192,143186,1,0,0:0:0:0:
320,192,143186,1,0,0:0:0:0:
64,192,143331,1,0,0:0:0:0:
448,192,143331,1,0,0:0:0:0:
320,192,143349,1,0,0:0:0:0:
192,192,143476,1,0,0:0:0:0:
448,192,143476,1,0,0:0:0:0:
64,192,143621,1,0,0:0:0:0:
320,192,143621,1,0,0:0:0:0:
64,192,143766,1,0,0:0:0:0:
192,192,143766,1,0,0:0:0:0:
320,192,143911,1,0,0:0:0:0:
448,192,143911,1,0,0:0:0:0:
192,192,144056,1,0,0:0:0:0:
448,192,144056,1,0,0:0:0:0:
320,192,144128,1,0,0:0:0:0:
192,192,144201,1,0,0:0:0:0:
64,192,144273,1,0,0:0:0:0:
448,192,144346,1,0,0:0:0:0:
192,192,144418,1,0,0:0:0:0:
320,192,144491,1,0,0:0:0:0:
64,192,144491,1,0,0:0:0:0:
448,192,144491,1,0,0:0:0:0:
192,192,144636,1,0,0:0:0:0:
448,192,144636,1,0,0:0:0:0:
64,192,144781,1,0,0:0:0:0:
448,192,144781,1,0,0:0:0:0:
192,192,144781,1,0,0:0:0:0:
192,192,144925,1,0,0:0:0:0:
320,192,144925,1,0,0:0:0:0:
448,192,144925,1,0,0:0:0:0:
64,192,145070,1,0,0:0:0:0:
192,192,145070,1,0,0:0:0:0:
448,192,145070,1,0,0:0:0:0:
64,192,145215,1,0,0:0:0:0:
320,192,145215,1,0,0:0:0:0:
448,192,145215,1,0,0:0:0:0:
64,192,145360,1,0,0:0:0:0:
192,192,145360,1,0,0:0:0:0:
448,192,145360,1,0,0:0:0:0:
192,192,145505,1,0,0:0:0:0:
64,192,145505,1,0,0:0:0:0:
320,192,145505,1,0,0:0:0:0:
64,192,145650,1,0,0:0:0:0:
192,192,145650,1,0,0:0:0:0:
320,192,145650,1,0,0:0:0:0:
448,192,145650,1,0,0:0:0:0:
448,192,145795,1,0,0:0:0:0:
320,192,145795,1,0,0:0:0:0:
192,192,145795,1,0,0:0:0:0:
64,192,145795,1,0,0:0:0:0:
64,192,145940,1,0,0:0:0:0:
192,192,145940,1,0,0:0:0:0:
448,192,145940,1,0,0:0:0:0:
320,192,145940,1,0,0:0:0:0:
64,192,146085,1,0,0:0:0:0:
192,192,146085,1,0,0:0:0:0:
448,192,146085,1,0,0:0:0:0:
320,192,146085,1,0,0:0:0:0:
64,192,146230,1,0,0:0:0:0:
320,192,146230,1,0,0:0:0:0:
448,192,146230,1,0,0:0:0:0:
192,192,146375,1,0,0:0:0:0:
320,192,146375,1,0,0:0:0:0:
448,192,146375,1,0,0:0:0:0:
64,192,146520,1,0,0:0:0:0:
192,192,146520,1,0,0:0:0:0:
448,192,146520,1,0,0:0:0:0:
192,192,146665,1,0,0:0:0:0:
320,192,146665,1,0,0:0:0:0:
448,192,146665,1,0,0:0:0:0:
64,192,146810,1,0,0:0:0:0:
192,192,146810,1,0,0:0:0:0:
448,192,146810,1,0,0:0:0:0:
64,192,146954,1,0,0:0:0:0:
192,192,146954,1,0,0:0:0:0:
320,192,146954,1,0,0:0:0:0:
448,192,147099,1,0,0:0:0:0:
192,192,147099,1,0,0:0:0:0:
64,192,147099,1,0,0:0:0:0:
192,192,147244,1,0,0:0:0:0:
320,192,147244,1,0,0:0:0:0:
448,192,147244,1,0,0:0:0:0:
448,192,147389,1,0,0:0:0:0:
64,192,147389,1,0,0:0:0:0:
320,192,147398,1,0,0:0:0:0:
64,192,147534,1,0,0:0:0:0:
192,192,147534,1,0,0:0:0:0:
320,192,147607,1,0,0:0:0:0:
448,192,147679,1,0,0:0:0:0:
192,192,147752,1,0,0:0:0:0:
64,192,147824,1,0,0:0:0:0:
320,192,147824,1,0,0:0:0:0:
192,192,147969,1,0,0:0:0:0:
320,192,147969,1,0,0:0:0:0:
448,192,147969,1,0,0:0:0:0:
64,192,148114,1,0,0:0:0:0:
320,192,148114,1,0,0:0:0:0:
448,192,148114,1,0,0:0:0:0:
64,192,148259,1,0,0:0:0:0:
192,192,148259,1,0,0:0:0:0:
448,192,148259,1,0,0:0:0:0:
192,192,148404,1,0,0:0:0:0:
320,192,148404,1,0,0:0:0:0:
448,192,148404,1,0,0:0:0:0:
64,192,148549,1,0,0:0:0:0:
192,192,148549,1,0,0:0:0:0:
448,192,148549,1,0,0:0:0:0:
64,192,148694,1,0,0:0:0:0:
192,192,148694,1,0,0:0:0:0:
320,192,148694,1,0,0:0:0:0:
64,192,148839,1,0,0:0:0:0:
192,192,148839,1,0,0:0:0:0:
448,192,148839,1,0,0:0:0:0:
192,192,148983,1,0,0:0:0:0:
320,192,148983,1,0,0:0:0:0:
448,192,148983,1,0,0:0:0:0:
64,192,149128,1,0,0:0:0:0:
192,192,149128,1,0,0:0:0:0:
320,192,149128,1,0,0:0:0:0:
448,192,149128,1,0,0:0:0:0:
448,192,149273,1,0,0:0:0:0:
320,192,149273,1,0,0:0:0:0:
192,192,149273,1,0,0:0:0:0:
64,192,149273,1,0,0:0:0:0:
64,192,149418,1,0,0:0:0:0:
192,192,149418,1,0,0:0:0:0:
320,192,149418,1,0,0:0:0:0:
448,192,149418,1,0,0:0:0:0:
448,192,149563,1,0,0:0:0:0:
320,192,149563,1,0,0:0:0:0:
192,192,149563,1,0,0:0:0:0:
64,192,149563,1,0,0:0:0:0:
448,192,149708,1,0,0:0:0:0:
64,192,149708,1,0,0:0:0:0:
320,192,149708,1,0,0:0:0:0:
192,192,149853,1,0,0:0:0:0:
64,192,149853,1,0,0:0:0:0:
320,192,149853,1,0,0:0:0:0:
192,192,149998,1,0,0:0:0:0:
64,192,149998,1,0,0:0:0:0:
448,192,149998,1,0,0:0:0:0:
192,192,150143,1,0,0:0:0:0:
320,192,150143,1,0,0:0:0:0:
448,192,150143,1,0,0:0:0:0:
64,192,150288,1,0,0:0:0:0:
192,192,150288,1,0,0:0:0:0:
448,192,150288,1,0,0:0:0:0:
320,192,150306,1,0,0:0:0:0:
64,192,150433,1,0,0:0:0:0:
192,192,150433,1,0,0:0:0:0:
320,192,150433,1,0,0:0:0:0:
64,192,150578,1,0,0:0:0:0:
320,192,150578,1,0,0:0:0:0:
448,192,150578,1,0,0:0:0:0:
192,192,150723,1,0,0:0:0:0:
448,192,150723,1,0,0:0:0:0:
320,192,150723,1,0,0:0:0:0:
64,192,150868,1,0,0:0:0:0:
192,192,150868,1,0,0:0:0:0:
448,192,150868,1,0,0:0:0:0:
64,192,151012,1,0,0:0:0:0:
448,192,151012,1,0,0:0:0:0:
192,192,151085,1,0,0:0:0:0:
320,192,151157,1,0,0:0:0:0:
448,192,151230,1,0,0:0:0:0:
320,192,151302,1,0,0:0:0:0:
448,192,151375,1,0,0:0:0:0:
320,192,151447,1,0,0:0:0:0:
448,192,151520,1,0,0:0:0:0:
320,192,151592,1,0,0:0:0:0:
192,192,151665,1,0,0:0:0:0:
64,192,151737,1,0,0:0:0:0:
192,192,151810,1,0,0:0:0:0:
320,192,151882,1,0,0:0:0:0:
64,192,151882,1,0,0:0:0:0:
448,192,151882,1,0,0:0:0:0:
64,192,152027,1,0,0:0:0:0:
192,192,152027,1,0,0:0:0:0:
448,192,152027,1,0,0:0:0:0:
192,192,152172,1,0,0:0:0:0:
320,192,152172,1,0,0:0:0:0:
448,192,152172,1,0,0:0:0:0:
192,192,152317,1,0,0:0:0:0:
64,192,152317,1,0,0:0:0:0:
448,192,152317,1,0,0:0:0:0:
192,192,152462,1,0,0:0:0:0:
320,192,152462,1,0,0:0:0:0:
448,192,152462,1,0,0:0:0:0:
64,192,152607,1,0,0:0:0:0:
192,192,152607,1,0,0:0:0:0:
320,192,152607,1,0,0:0:0:0:
448,192,152607,1,0,0:0:0:0:
448,192,152752,1,0,0:0:0:0:
320,192,152752,1,0,0:0:0:0:
192,192,152752,1,0,0:0:0:0:
64,192,152752,1,0,0:0:0:0:
64,192,152897,1,0,0:0:0:0:
192,192,152897,1,0,0:0:0:0:
320,192,152897,1,0,0:0:0:0:
448,192,152897,1,0,0:0:0:0:
448,192,153041,1,0,0:0:0:0:
320,192,153041,1,0,0:0:0:0:
192,192,153041,1,0,0:0:0:0:
64,192,153041,1,0,0:0:0:0:
64,192,153186,1,0,0:0:0:0:
320,192,153186,1,0,0:0:0:0:
448,192,153186,1,0,0:0:0:0:
64,192,153331,1,0,0:0:0:0:
192,192,153331,1,0,0:0:0:0:
320,192,153331,1,0,0:0:0:0:
64,192,153476,1,0,0:0:0:0:
192,192,153476,1,0,0:0:0:0:
448,192,153476,1,0,0:0:0:0:
192,192,153621,1,0,0:0:0:0:
320,192,153621,1,0,0:0:0:0:
448,192,153621,1,0,0:0:0:0:
64,192,153766,1,0,0:0:0:0:
192,192,153766,1,0,0:0:0:0:
448,192,153766,1,0,0:0:0:0:
192,192,153911,1,0,0:0:0:0:
64,192,153911,1,0,0:0:0:0:
320,192,153911,1,0,0:0:0:0:
64,192,154056,1,0,0:0:0:0:
192,192,154056,1,0,0:0:0:0:
448,192,154056,1,0,0:0:0:0:
192,192,154201,1,0,0:0:0:0:
320,192,154201,1,0,0:0:0:0:
448,192,154201,1,0,0:0:0:0:
64,192,154346,1,0,0:0:0:0:
320,192,154346,1,0,0:0:0:0:
448,192,154346,1,0,0:0:0:0:
192,192,154355,1,0,0:0:0:0:
320,192,154491,1,0,0:0:0:0:
448,192,154491,1,0,0:0:0:0:
64,192,154563,1,0,0:0:0:0:
192,192,154636,1,0,0:0:0:0:
320,192,154708,1,0,0:0:0:0:
64,192,154781,1,0,0:0:0:0:
448,192,154853,1,0,0:0:0:0:
64,192,154925,1,0,0:0:0:0:
192,192,154925,1,0,0:0:0:0:
320,192,154925,1,0,0:0:0:0:
192,192,155070,1,0,0:0:0:0:
320,192,155070,1,0,0:0:0:0:
448,192,155070,1,0,0:0:0:0:
64,192,155215,1,0,0:0:0:0:
192,192,155215,1,0,0:0:0:0:
448,192,155215,1,0,0:0:0:0:
64,192,155360,1,0,0:0:0:0:
320,192,155360,1,0,0:0:0:0:
192,192,155360,1,0,0:0:0:0:
64,192,155505,1,0,0:0:0:0:
192,192,155505,1,0,0:0:0:0:
448,192,155505,1,0,0:0:0:0:
320,192,155650,1,0,0:0:0:0:
448,192,155650,1,0,0:0:0:0:
192,192,155650,1,0,0:0:0:0:
64,192,155795,1,0,0:0:0:0:
192,192,155795,1,0,0:0:0:0:
448,192,155795,1,0,0:0:0:0:
64,192,155940,1,0,0:0:0:0:
320,192,155940,1,0,0:0:0:0:
448,192,155940,1,0,0:0:0:0:
64,192,156085,1,0,0:0:0:0:
192,192,156085,1,0,0:0:0:0:
320,192,156085,1,0,0:0:0:0:
448,192,156085,1,0,0:0:0:0:
448,192,156230,1,0,0:0:0:0:
320,192,156230,1,0,0:0:0:0:
192,192,156230,1,0,0:0:0:0:
64,192,156230,1,0,0:0:0:0:
64,192,156375,1,0,0:0:0:0:
192,192,156375,1,0,0:0:0:0:
320,192,156375,1,0,0:0:0:0:
448,192,156375,1,0,0:0:0:0:
448,192,156520,1,0,0:0:0:0:
192,192,156520,1,0,0:0:0:0:
64,192,156520,1,0,0:0:0:0:
320,192,156520,1,0,0:0:0:0:
64,192,156665,1,0,0:0:0:0:
320,192,156665,1,0,0:0:0:0:
448,192,156665,1,0,0:0:0:0:
64,192,156810,1,0,0:0:0:0:
320,192,156810,1,0,0:0:0:0:
192,192,156954,1,0,0:0:0:0:
448,192,156954,1,0,0:0:0:0:
320,192,156954,1,0,0:0:0:0:
192,192,157099,1,0,0:0:0:0:
320,192,157099,1,0,0:0:0:0:
64,192,157099,1,0,0:0:0:0:
192,192,157244,1,0,0:0:0:0:
448,192,157244,1,0,0:0:0:0:
320,192,157262,1,0,0:0:0:0:
64,192,157389,1,0,0:0:0:0:
192,192,157389,1,0,0:0:0:0:
448,192,157389,1,0,0:0:0:0:
64,192,157534,1,0,0:0:0:0:
320,192,157534,1,0,0:0:0:0:
448,192,157534,1,0,0:0:0:0:
64,192,157679,1,0,0:0:0:0:
192,192,157679,1,0,0:0:0:0:
320,192,157679,1,0,0:0:0:0:
64,192,157824,1,0,0:0:0:0:
448,192,157824,1,0,0:0:0:0:
64,192,157969,1,0,0:0:0:0:
192,192,157969,1,0,0:0:0:0:
320,192,158041,1,0,0:0:0:0:
448,192,158114,1,0,0:0:0:0:
64,192,158186,1,0,0:0:0:0:
320,192,158259,1,0,0:0:0:0:
192,192,158331,1,0,0:0:0:0:
64,192,158404,1,0,0:0:0:0:
320,192,158404,1,0,0:0:0:0:
448,192,158404,1,0,0:0:0:0:
64,192,158549,1,0,0:0:0:0:
192,192,158549,1,0,0:0:0:0:
320,192,158549,1,0,0:0:0:0:
64,192,158694,1,0,0:0:0:0:
192,192,158694,1,0,0:0:0:0:
448,192,158694,1,0,0:0:0:0:
192,192,158839,1,0,0:0:0:0:
320,192,158839,1,0,0:0:0:0:
448,192,158839,1,0,0:0:0:0:
64,192,158983,1,0,0:0:0:0:
192,192,158983,1,0,0:0:0:0:
448,192,158983,1,0,0:0:0:0:
64,192,159128,1,0,0:0:0:0:
320,192,159128,1,0,0:0:0:0:
448,192,159128,1,0,0:0:0:0:
64,192,159273,1,0,0:0:0:0:
448,192,159273,1,0,0:0:0:0:
192,192,159273,1,0,0:0:0:0:
320,192,159418,1,0,0:0:0:0:
192,192,159418,1,0,0:0:0:0:
64,192,159418,1,0,0:0:0:0:
64,192,159563,1,0,0:0:0:0:
192,192,159563,1,0,0:0:0:0:
320,192,159563,1,0,0:0:0:0:
448,192,159563,1,0,0:0:0:0:
448,192,159708,1,0,0:0:0:0:
320,192,159708,1,0,0:0:0:0:
192,192,159708,1,0,0:0:0:0:
64,192,159708,1,0,0:0:0:0:
64,192,159853,1,0,0:0:0:0:
320,192,159853,1,0,0:0:0:0:
448,192,159853,1,0,0:0:0:0:
192,192,159853,1,0,0:0:0:0:
448,192,159998,1,0,0:0:0:0:
192,192,159998,1,0,0:0:0:0:
64,192,159998,1,0,0:0:0:0:
320,192,159998,1,0,0:0:0:0:
192,192,160143,1,0,0:0:0:0:
320,192,160143,1,0,0:0:0:0:
448,192,160143,1,0,0:0:0:0:
64,192,160288,1,0,0:0:0:0:
192,192,160288,1,0,0:0:0:0:
320,192,160288,1,0,0:0:0:0:
64,192,160433,1,0,0:0:0:0:
192,192,160433,1,0,0:0:0:0:
448,192,160433,1,0,0:0:0:0:
192,192,160578,1,0,0:0:0:0:
320,192,160578,1,0,0:0:0:0:
448,192,160578,1,0,0:0:0:0:
64,192,160723,1,0,0:0:0:0:
192,192,160723,1,0,0:0:0:0:
448,192,160723,1,0,0:0:0:0:
64,192,160868,1,0,0:0:0:0:
320,192,160868,1,0,0:0:0:0:
448,192,160868,1,0,0:0:0:0:
64,192,161012,1,0,0:0:0:0:
192,192,161012,1,0,0:0:0:0:
448,192,161012,1,0,0:0:0:0:
192,192,161157,1,0,0:0:0:0:
320,192,161157,1,0,0:0:0:0:
64,192,161157,1,0,0:0:0:0:
320,192,161302,1,0,0:0:0:0:
448,192,161302,1,0,0:0:0:0:
192,192,161311,1,0,0:0:0:0:
64,192,161447,1,0,0:0:0:0:
192,192,161447,1,0,0:0:0:0:
320,192,161520,1,0,0:0:0:0:
448,192,161592,1,0,0:0:0:0:
64,192,161665,1,0,0:0:0:0:
320,192,161737,1,0,0:0:0:0:
448,192,161810,1,0,0:0:0:0:
64,192,161882,1,0,0:0:0:0:
192,192,161882,1,0,0:0:0:0:
320,192,161882,1,0,0:0:0:0:
192,192,162027,1,0,0:0:0:0:
320,192,162027,1,0,0:0:0:0:
448,192,162027,1,0,0:0:0:0:
64,192,162172,1,0,0:0:0:0:
192,192,162172,1,0,0:0:0:0:
448,192,162172,1,0,0:0:0:0:
64,192,162317,1,0,0:0:0:0:
320,192,162317,1,0,0:0:0:0:
448,192,162317,1,0,0:0:0:0:
64,192,162462,1,0,0:0:0:0:
192,192,162462,1,0,0:0:0:0:
448,192,162462,1,0,0:0:0:0:
320,192,162607,1,0,0:0:0:0:
192,192,162607,1,0,0:0:0:0:
64,192,162607,1,0,0:0:0:0:
64,192,162752,1,0,0:0:0:0:
192,192,162752,1,0,0:0:0:0:
448,192,162752,1,0,0:0:0:0:
192,192,162897,1,0,0:0:0:0:
320,192,162897,1,0,0:0:0:0:
448,192,162897,1,0,0:0:0:0:
64,192,163041,1,0,0:0:0:0:
192,192,163041,1,0,0:0:0:0:
320,192,163041,1,0,0:0:0:0:
448,192,163041,1,0,0:0:0:0:
448,192,163186,1,0,0:0:0:0:
320,192,163186,1,0,0:0:0:0:
192,192,163186,1,0,0:0:0:0:
64,192,163186,1,0,0:0:0:0:
64,192,163331,1,0,0:0:0:0:
192,192,163331,1,0,0:0:0:0:
320,192,163331,1,0,0:0:0:0:
448,192,163331,1,0,0:0:0:0:
448,192,163476,1,0,0:0:0:0:
320,192,163476,1,0,0:0:0:0:
192,192,163476,1,0,0:0:0:0:
64,192,163476,1,0,0:0:0:0:
64,192,163621,1,0,0:0:0:0:
192,192,163621,1,0,0:0:0:0:
448,192,163621,1,0,0:0:0:0:
192,192,163766,1,0,0:0:0:0:
320,192,163766,1,0,0:0:0:0:
448,192,163766,1,0,0:0:0:0:
64,192,163911,1,0,0:0:0:0:
192,192,163911,1,0,0:0:0:0:
320,192,163911,1,0,0:0:0:0:
64,192,164056,1,0,0:0:0:0:
320,192,164056,1,0,0:0:0:0:
448,192,164056,1,0,0:0:0:0:
64,192,164201,1,0,0:0:0:0:
320,192,164201,1,0,0:0:0:0:
192,192,164219,1,0,0:0:0:0:
192,192,164346,1,0,0:0:0:0:
320,192,164346,1,0,0:0:0:0:
448,192,164346,1,0,0:0:0:0:
64,192,164491,1,0,0:0:0:0:
192,192,164491,1,0,0:0:0:0:
448,192,164491,1,0,0:0:0:0:
64,192,164636,1,0,0:0:0:0:
192,192,164636,1,0,0:0:0:0:
320,192,164636,1,0,0:0:0:0:
64,192,164781,1,0,0:0:0:0:
320,192,164781,1,0,0:0:0:0:
448,192,164781,1,0,0:0:0:0:
64,192,164925,1,0,0:0:0:0:
192,192,164925,1,0,0:0:0:0:
320,192,164998,1,0,0:0:0:0:
448,192,165070,1,0,0:0:0:0:
320,192,165143,1,0,0:0:0:0:
192,192,165215,1,0,0:0:0:0:
320,192,165288,1,0,0:0:0:0:
192,192,165360,1,0,0:0:0:0:
320,192,165433,1,0,0:0:0:0:
192,192,165505,1,0,0:0:0:0:
320,192,165578,1,0,0:0:0:0:
192,192,165650,1,0,0:0:0:0:
64,192,165723,1,0,0:0:0:0:
192,192,165795,1,0,0:0:0:0:
320,192,165795,1,0,0:0:0:0:
448,192,165795,1,0,0:0:0:0:
64,192,165940,1,0,0:0:0:0:
192,192,165940,1,0,0:0:0:0:
448,192,165940,1,0,0:0:0:0:
64,192,166085,1,0,0:0:0:0:
192,192,166085,1,0,0:0:0:0:
320,192,166085,1,0,0:0:0:0:
64,192,166230,1,0,0:0:0:0:
192,192,166230,1,0,0:0:0:0:
448,192,166230,1,0,0:0:0:0:
64,192,166375,1,0,0:0:0:0:
320,192,166375,1,0,0:0:0:0:
448,192,166375,1,0,0:0:0:0:
64,192,166520,1,0,0:0:0:0:
192,192,166520,1,0,0:0:0:0:
320,192,166520,1,0,0:0:0:0:
448,192,166520,1,0,0:0:0:0:
448,192,166665,1,0,0:0:0:0:
320,192,166665,1,0,0:0:0:0:
192,192,166665,1,0,0:0:0:0:
64,192,166665,1,0,0:0:0:0:
64,192,166810,1,0,0:0:0:0:
192,192,166810,1,0,0:0:0:0:
320,192,166810,1,0,0:0:0:0:
448,192,166810,1,0,0:0:0:0:
448,192,166954,1,0,0:0:0:0:
320,192,166954,1,0,0:0:0:0:
192,192,166954,1,0,0:0:0:0:
64,192,166954,1,0,0:0:0:0:
64,192,167099,1,0,0:0:0:0:
448,192,167099,1,0,0:0:0:0:
64,192,167244,1,0,0:0:0:0:
192,192,167244,1,0,0:0:0:0:
320,192,167389,1,0,0:0:0:0:
64,192,167389,1,0,0:0:0:0:
192,192,167534,1,0,0:0:0:0:
320,192,167534,1,0,0:0:0:0:
64,192,167679,1,0,0:0:0:0:
320,192,167679,1,0,0:0:0:0:
320,192,167824,1,0,0:0:0:0:
448,192,167824,1,0,0:0:0:0:
64,192,167969,1,0,0:0:0:0:
320,192,167969,1,0,0:0:0:0:
192,192,168114,1,0,0:0:0:0:
448,192,168114,1,0,0:0:0:0:
64,192,168259,1,0,0:0:0:0:
320,192,168268,1,0,0:0:0:0:
320,192,168404,1,0,0:0:0:0:
448,192,168404,1,0,0:0:0:0:
192,192,168476,1,0,0:0:0:0:
64,192,168549,1,0,0:0:0:0:
448,192,168621,1,0,0:0:0:0:
320,192,168694,1,0,0:0:0:0:
192,192,168766,1,0,0:0:0:0:
64,192,168839,128,0,170578:0:0:0:0:
192,192,170578,1,0,0:0:0:0:
320,192,170578,1,0,0:0:0:0:
448,192,170578,1,0,0:0:0:0:
64,192,170723,1,0,0:0:0:0:
448,192,170723,1,0,0:0:0:0:
448,192,170868,1,0,0:0:0:0:
64,192,170868,1,0,0:0:0:0:
64,192,171012,1,0,0:0:0:0:
448,192,171012,1,0,0:0:0:0:
192,192,171012,1,0,0:0:0:0:
320,192,171012,1,0,0:0:0:0:
64,192,171157,1,0,0:0:0:0:
448,192,171157,1,0,0:0:0:0:
448,192,171302,1,0,0:0:0:0:
64,192,171302,1,0,0:0:0:0:
192,192,171447,1,0,0:0:0:0:
320,192,171447,1,0,0:0:0:0:
64,192,171882,1,0,0:0:0:0:
192,192,171882,1,0,0:0:0:0:
448,192,171882,1,0,0:0:0:0:
320,192,171909,1,0,0:0:0:0:
64,192,172317,128,0,172462:0:0:0:0:
192,192,172317,128,0,172462:0:0:0:0:
448,192,172317,128,0,172462:0:0:0:0:
320,192,172317,128,0,172462:0:0:0:0:
320,192,172607,1,0,0:0:0:0:
448,192,172607,1,0,0:0:0:0:
64,192,172752,1,0,0:0:0:0:
192,192,172752,1,0,0:0:0:0:
448,192,172752,1,0,0:0:0:0:
320,192,172897,1,0,0:0:0:0:
192,192,172897,1,0,0:0:0:0:
320,192,173041,1,0,0:0:0:0:
192,192,173041,1,0,0:0:0:0:
192,192,173186,1,0,0:0:0:0:
64,192,173186,1,0,0:0:0:0:
448,192,173186,1,0,0:0:0:0:
320,192,173331,1,0,0:0:0:0:
192,192,173331,1,0,0:0:0:0:
320,192,173476,1,0,0:0:0:0:
192,192,173476,1,0,0:0:0:0:
64,192,173621,1,0,0:0:0:0:
192,192,173621,1,0,0:0:0:0:
448,192,173621,1,0,0:0:0:0:
320,192,173766,1,0,0:0:0:0:
192,192,173766,1,0,0:0:0:0:
192,192,173911,1,0,0:0:0:0:
320,192,173911,1,0,0:0:0:0:
64,192,174056,1,0,0:0:0:0:
192,192,174056,1,0,0:0:0:0:
448,192,174056,1,0,0:0:0:0:
192,192,174201,1,0,0:0:0:0:
320,192,174201,1,0,0:0:0:0:
320,192,174346,1,0,0:0:0:0:
192,192,174346,1,0,0:0:0:0:
64,192,174491,1,0,0:0:0:0:
192,192,174491,1,0,0:0:0:0:
448,192,174491,1,0,0:0:0:0:
320,192,174636,1,0,0:0:0:0:
192,192,174636,1,0,0:0:0:0:
192,192,174781,1,0,0:0:0:0:
320,192,174781,1,0,0:0:0:0:
64,192,174925,1,0,0:0:0:0:
192,192,174925,1,0,0:0:0:0:
448,192,174925,1,0,0:0:0:0:
192,192,175070,1,0,0:0:0:0:
320,192,175070,1,0,0:0:0:0:
320,192,175215,1,0,0:0:0:0:
192,192,175215,1,0,0:0:0:0:
64,192,175360,128,0,175433:0:0:0:0:
448,192,175360,128,0,175433:0:0:0:0:
320,192,175650,1,0,0:0:0:0:
448,192,175650,1,0,0:0:0:0:
64,192,175795,128,0,175940:0:0:0:0:
192,192,175795,128,0,175940:0:0:0:0:
320,192,175795,128,0,175940:0:0:0:0:
448,192,175795,128,0,175940:0:0:0:0:
64,192,176085,1,0,0:0:0:0:
448,192,176085,1,0,0:0:0:0:
64,192,176230,1,0,0:0:0:0:
192,192,176230,1,0,0:0:0:0:
320,192,176230,1,0,0:0:0:0:
320,192,176375,1,0,0:0:0:0:
448,192,176375,1,0,0:0:0:0:
448,192,176520,1,0,0:0:0:0:
320,192,176520,1,0,0:0:0:0:
64,192,176665,1,0,0:0:0:0:
192,192,176665,1,0,0:0:0:0:
320,192,176665,1,0,0:0:0:0:
320,192,176810,1,0,0:0:0:0:
448,192,176810,1,0,0:0:0:0:
448,192,176954,1,0,0:0:0:0:
320,192,176954,1,0,0:0:0:0:
64,192,177099,1,0,0:0:0:0:
192,192,177099,1,0,0:0:0:0:
320,192,177099,1,0,0:0:0:0:
320,192,177244,1,0,0:0:0:0:
448,192,177244,1,0,0:0:0:0:
320,192,177389,1,0,0:0:0:0:
448,192,177389,1,0,0:0:0:0:
320,192,177534,1,0,0:0:0:0:
192,192,177534,1,0,0:0:0:0:
64,192,177534,1,0,0:0:0:0:
320,192,177679,1,0,0:0:0:0:
448,192,177679,1,0,0:0:0:0:
448,192,177824,1,0,0:0:0:0:
320,192,177824,1,0,0:0:0:0:
192,192,177969,1,0,0:0:0:0:
64,192,177969,1,0,0:0:0:0:
320,192,177969,1,0,0:0:0:0:
320,192,178114,1,0,0:0:0:0:
448,192,178114,1,0,0:0:0:0:
448,192,178259,1,0,0:0:0:0:
320,192,178259,1,0,0:0:0:0:
64,192,178404,1,0,0:0:0:0:
192,192,178404,1,0,0:0:0:0:
320,192,178404,1,0,0:0:0:0:
320,192,178549,1,0,0:0:0:0:
448,192,178549,1,0,0:0:0:0:
448,192,178694,1,0,0:0:0:0:
320,192,178694,1,0,0:0:0:0:
64,192,178839,128,0,178911:0:0:0:0:
192,192,178839,128,0,178911:0:0:0:0:
320,192,178839,128,0,178911:0:0:0:0:
448,192,178839,128,0,178911:0:0:0:0:
448,192,178983,128,0,179056:0:0:0:0:
320,192,178983,128,0,179056:0:0:0:0:
192,192,178983,128,0,179056:0:0:0:0:
64,192,178983,128,0,179056:0:0:0:0:
64,192,179128,128,0,179201:0:0:0:0:
192,192,179128,128,0,179201:0:0:0:0:
320,192,179128,128,0,179201:0:0:0:0:
448,192,179128,128,0,179201:0:0:0:0:
64,192,179273,128,0,179418:0:0:0:0:
192,192,179273,128,0,179418:0:0:0:0:
320,192,179273,128,0,179418:0:0:0:0:
448,192,179273,128,0,179418:0:0:0:0:
64,192,179563,1,0,0:0:0:0:
192,192,179563,1,0,0:0:0:0:
64,192,179708,1,0,0:0:0:0:
320,192,179708,1,0,0:0:0:0:
448,192,179708,1,0,0:0:0:0:
192,192,179853,1,0,0:0:0:0:
448,192,179853,1,0,0:0:0:0:
192,192,179998,1,0,0:0:0:0:
448,192,179998,1,0,0:0:0:0:
64,192,180143,1,0,0:0:0:0:
320,192,180143,1,0,0:0:0:0:
448,192,180143,1,0,0:0:0:0:
448,192,180288,1,0,0:0:0:0:
192,192,180288,1,0,0:0:0:0:
192,192,180433,1,0,0:0:0:0:
448,192,180433,1,0,0:0:0:0:
64,192,180578,1,0,0:0:0:0:
320,192,180578,1,0,0:0:0:0:
448,192,180578,1,0,0:0:0:0:
448,192,180723,1,0,0:0:0:0:
192,192,180723,1,0,0:0:0:0:
192,192,180868,1,0,0:0:0:0:
448,192,180868,1,0,0:0:0:0:
448,192,181012,1,0,0:0:0:0:
320,192,181012,1,0,0:0:0:0:
64,192,181012,1,0,0:0:0:0:
192,192,181157,1,0,0:0:0:0:
448,192,181157,1,0,0:0:0:0:
448,192,181302,1,0,0:0:0:0:
192,192,181302,1,0,0:0:0:0:
64,192,181447,1,0,0:0:0:0:
320,192,181447,1,0,0:0:0:0:
448,192,181447,1,0,0:0:0:0:
192,192,181592,1,0,0:0:0:0:
448,192,181592,1,0,0:0:0:0:
448,192,181737,1,0,0:0:0:0:
192,192,181737,1,0,0:0:0:0:
320,192,181882,1,0,0:0:0:0:
448,192,181882,1,0,0:0:0:0:
64,192,181882,128,0,181954:0:0:0:0:
448,192,182027,1,0,0:0:0:0:
192,192,182027,1,0,0:0:0:0:
192,192,182172,1,0,0:0:0:0:
448,192,182172,1,0,0:0:0:0:
64,192,182317,128,0,182389:0:0:0:0:
448,192,182317,128,0,182389:0:0:0:0:
192,192,182607,1,0,0:0:0:0:
320,192,182607,1,0,0:0:0:0:
64,192,182752,128,0,182897:0:0:0:0:
192,192,182752,128,0,182897:0:0:0:0:
320,192,182752,128,0,182897:0:0:0:0:
448,192,182752,128,0,182897:0:0:0:0:
320,192,183041,1,0,0:0:0:0:
448,192,183041,1,0,0:0:0:0:
448,192,183186,1,0,0:0:0:0:
320,192,183186,1,0,0:0:0:0:
192,192,183186,1,0,0:0:0:0:
64,192,183331,1,0,0:0:0:0:
192,192,183331,1,0,0:0:0:0:
192,192,183476,1,0,0:0:0:0:
64,192,183476,1,0,0:0:0:0:
192,192,183621,1,0,0:0:0:0:
448,192,183621,1,0,0:0:0:0:
320,192,183621,1,0,0:0:0:0:
64,192,183766,1,0,0:0:0:0:
192,192,183766,1,0,0:0:0:0:
192,192,183911,1,0,0:0:0:0:
64,192,183911,1,0,0:0:0:0:
192,192,184056,1,0,0:0:0:0:
320,192,184056,1,0,0:0:0:0:
448,192,184056,1,0,0:0:0:0:
64,192,184201,1,0,0:0:0:0:
192,192,184201,1,0,0:0:0:0:
192,192,184346,1,0,0:0:0:0:
64,192,184346,1,0,0:0:0:0:
192,192,184491,1,0,0:0:0:0:
320,192,184491,1,0,0:0:0:0:
448,192,184491,1,0,0:0:0:0:
64,192,184636,1,0,0:0:0:0:
192,192,184636,1,0,0:0:0:0:
192,192,184781,1,0,0:0:0:0:
64,192,184781,1,0,0:0:0:0:
192,192,184925,1,0,0:0:0:0:
320,192,184925,1,0,0:0:0:0:
448,192,184925,1,0,0:0:0:0:
64,192,185070,1,0,0:0:0:0:
192,192,185070,1,0,0:0:0:0:
64,192,185215,1,0,0:0:0:0:
192,192,185215,1,0,0:0:0:0:
192,192,185360,1,0,0:0:0:0:
320,192,185360,1,0,0:0:0:0:
448,192,185360,1,0,0:0:0:0:
64,192,185505,1,0,0:0:0:0:
192,192,185505,1,0,0:0:0:0:
64,192,185650,1,0,0:0:0:0:
192,192,185650,1,0,0:0:0:0:
320,192,185795,128,0,185868:0:0:0:0:
320,192,185940,128,0,186012:0:0:0:0:
320,192,186085,128,0,186157:0:0:0:0:
64,192,186230,128,0,186375:0:0:0:0:
192,192,186230,128,0,186375:0:0:0:0:
320,192,186230,128,0,186375:0:0:0:0:
448,192,186230,128,0,186375:0:0:0:0:
64,192,186520,1,0,0:0:0:0:
192,192,186520,1,0,0:0:0:0:
64,192,186665,1,0,0:0:0:0:
448,192,186665,1,0,0:0:0:0:
320,192,186665,1,0,0:0:0:0:
64,192,186810,1,0,0:0:0:0:
448,192,186810,1,0,0:0:0:0:
448,192,186954,1,0,0:0:0:0:
64,192,186954,1,0,0:0:0:0:
64,192,187099,1,0,0:0:0:0:
448,192,187099,1,0,0:0:0:0:
320,192,187099,1,0,0:0:0:0:
64,192,187244,1,0,0:0:0:0:
448,192,187244,1,0,0:0:0:0:
448,192,187389,1,0,0:0:0:0:
64,192,187389,1,0,0:0:0:0:
64,192,187534,1,0,0:0:0:0:
448,192,187534,1,0,0:0:0:0:
320,192,187534,1,0,0:0:0:0:
448,192,187679,1,0,0:0:0:0:
64,192,187679,1,0,0:0:0:0:
448,192,187824,1,0,0:0:0:0:
64,192,187824,1,0,0:0:0:0:
64,192,187969,1,0,0:0:0:0:
320,192,187969,1,0,0:0:0:0:
448,192,187969,1,0,0:0:0:0:
64,192,188114,1,0,0:0:0:0:
448,192,188114,1,0,0:0:0:0:
64,192,188259,1,0,0:0:0:0:
448,192,188259,1,0,0:0:0:0:
448,192,188404,1,0,0:0:0:0:
320,192,188404,1,0,0:0:0:0:
64,192,188404,1,0,0:0:0:0:
64,192,188549,1,0,0:0:0:0:
448,192,188549,1,0,0:0:0:0:
64,192,188694,1,0,0:0:0:0:
448,192,188694,1,0,0:0:0:0:
448,192,188839,1,0,0:0:0:0:
320,192,188839,1,0,0:0:0:0:
64,192,188839,1,0,0:0:0:0:
64,192,188983,1,0,0:0:0:0:
448,192,188983,1,0,0:0:0:0:
64,192,189128,1,0,0:0:0:0:
448,192,189128,1,0,0:0:0:0:
448,192,189273,1,0,0:0:0:0:
64,192,189273,1,0,0:0:0:0:
320,192,189273,1,0,0:0:0:0:
320,192,189563,1,0,0:0:0:0:
448,192,189563,1,0,0:0:0:0:
64,192,189708,128,0,189853:0:0:0:0:
192,192,189708,128,0,189853:0:0:0:0:
320,192,189708,128,0,189853:0:0:0:0:
448,192,189708,128,0,189853:0:0:0:0:
64,192,189998,1,0,0:0:0:0:
320,192,189998,1,0,0:0:0:0:
192,192,190143,1,0,0:0:0:0:
320,192,190143,1,0,0:0:0:0:
448,192,190143,1,0,0:0:0:0:
448,192,190288,1,0,0:0:0:0:
64,192,190288,1,0,0:0:0:0:
320,192,190288,1,0,0:0:0:0:
448,192,190433,1,0,0:0:0:0:
192,192,190433,1,0,0:0:0:0:
64,192,190578,1,0,0:0:0:0:
320,192,190578,1,0,0:0:0:0:
448,192,190578,1,0,0:0:0:0:
192,192,190723,1,0,0:0:0:0:
448,192,190723,1,0,0:0:0:0:
448,192,190868,1,0,0:0:0:0:
192,192,190868,1,0,0:0:0:0:
192,192,191012,1,0,0:0:0:0:
320,192,191012,1,0,0:0:0:0:
448,192,191012,1,0,0:0:0:0:
64,192,191157,1,0,0:0:0:0:
320,192,191157,1,0,0:0:0:0:
448,192,191157,1,0,0:0:0:0:
192,192,191302,1,0,0:0:0:0:
448,192,191302,1,0,0:0:0:0:
448,192,191447,1,0,0:0:0:0:
320,192,191447,1,0,0:0:0:0:
64,192,191447,1,0,0:0:0:0:
192,192,191592,1,0,0:0:0:0:
448,192,191592,1,0,0:0:0:0:
64,192,191737,1,0,0:0:0:0:
320,192,191737,1,0,0:0:0:0:
448,192,191737,1,0,0:0:0:0:
192,192,191882,1,0,0:0:0:0:
320,192,191882,1,0,0:0:0:0:
448,192,191882,1,0,0:0:0:0:
448,192,192027,1,0,0:0:0:0:
320,192,192027,1,0,0:0:0:0:
64,192,192027,1,0,0:0:0:0:
192,192,192172,1,0,0:0:0:0:
448,192,192172,1,0,0:0:0:0:
64,192,192317,1,0,0:0:0:0:
320,192,192317,1,0,0:0:0:0:
448,192,192317,1,0,0:0:0:0:
192,192,192462,1,0,0:0:0:0:
448,192,192462,1,0,0:0:0:0:
448,192,192607,1,0,0:0:0:0:
192,192,192607,1,0,0:0:0:0:
320,192,192752,128,0,192824:0:0:0:0:
320,192,192897,128,0,192969:0:0:0:0:
320,192,193041,128,0,193114:0:0:0:0:
64,192,193186,128,0,193331:0:0:0:0:
192,192,193186,128,0,193331:0:0:0:0:
320,192,193186,128,0,193331:0:0:0:0:
448,192,193186,128,0,193331:0:0:0:0:
320,192,193476,1,0,0:0:0:0:
448,192,193476,1,0,0:0:0:0:
64,192,193621,1,0,0:0:0:0:
192,192,193621,1,0,0:0:0:0:
448,192,193621,1,0,0:0:0:0:
192,192,193766,1,0,0:0:0:0:
320,192,193766,1,0,0:0:0:0:
448,192,193766,1,0,0:0:0:0:
64,192,193766,1,0,0:0:0:0:
320,192,193911,1,0,0:0:0:0:
192,192,193911,1,0,0:0:0:0:
192,192,194056,1,0,0:0:0:0:
320,192,194056,1,0,0:0:0:0:
448,192,194056,1,0,0:0:0:0:
64,192,194056,1,0,0:0:0:0:
192,192,194201,1,0,0:0:0:0:
320,192,194201,1,0,0:0:0:0:
320,192,194346,1,0,0:0:0:0:
192,192,194346,1,0,0:0:0:0:
64,192,194491,1,0,0:0:0:0:
192,192,194491,1,0,0:0:0:0:
448,192,194491,1,0,0:0:0:0:
64,192,194636,1,0,0:0:0:0:
192,192,194636,1,0,0:0:0:0:
320,192,194636,1,0,0:0:0:0:
448,192,194636,1,0,0:0:0:0:
320,192,194781,1,0,0:0:0:0:
192,192,194781,1,0,0:0:0:0:
64,192,194925,1,0,0:0:0:0:
320,192,194925,1,0,0:0:0:0:
448,192,194925,1,0,0:0:0:0:
192,192,194925,1,0,0:0:0:0:
192,192,195070,1,0,0:0:0:0:
320,192,195070,1,0,0:0:0:0:
192,192,195215,1,0,0:0:0:0:
64,192,195360,1,0,0:0:0:0:
192,192,195360,1,0,0:0:0:0:
448,192,195360,1,0,0:0:0:0:
64,192,195505,1,0,0:0:0:0:
192,192,195505,1,0,0:0:0:0:
320,192,195505,1,0,0:0:0:0:
448,192,195505,1,0,0:0:0:0:
320,192,195650,1,0,0:0:0:0:
448,192,195795,1,0,0:0:0:0:
320,192,195795,1,0,0:0:0:0:
64,192,195795,1,0,0:0:0:0:
192,192,195795,1,0,0:0:0:0:
192,192,195940,1,0,0:0:0:0:
192,192,196085,1,0,0:0:0:0:
64,192,196230,1,0,0:0:0:0:
192,192,196230,1,0,0:0:0:0:
448,192,196230,1,0,0:0:0:0:
320,192,196230,1,0,0:0:0:0:
64,192,196520,1,0,0:0:0:0:
192,192,196520,1,0,0:0:0:0:
320,192,196520,1,0,0:0:0:0:
448,192,196520,1,0,0:0:0:0:
448,192,196665,1,0,0:0:0:0:
320,192,196665,1,0,0:0:0:0:
192,192,196665,1,0,0:0:0:0:
64,192,196665,1,0,0:0:0:0:
64,192,197244,1,0,0:0:0:0:
192,192,197244,1,0,0:0:0:0:
320,192,197244,1,0,0:0:0:0:
448,192,197244,1,0,0:0:0:0:
64,192,197534,1,0,0:0:0:0:
192,192,197534,1,0,0:0:0:0:
320,192,197534,1,0,0:0:0:0:
448,192,197534,1,0,0:0:0:0:
64,192,198114,1,0,0:0:0:0:
192,192,198114,1,0,0:0:0:0:
448,192,198114,1,0,0:0:0:0:
320,192,198114,1,0,0:0:0:0:
64,192,198404,1,0,0:0:0:0:
192,192,198404,1,0,0:0:0:0:
448,192,198404,1,0,0:0:0:0:
320,192,198404,1,0,0:0:0:0:
64,192,198694,1,0,0:0:0:0:
192,192,198694,1,0,0:0:0:0:
320,192,198694,1,0,0:0:0:0:
448,192,198694,1,0,0:0:0:0:
64,192,198983,1,0,0:0:0:0:
192,192,198983,1,0,0:0:0:0:
320,192,198983,1,0,0:0:0:0:
448,192,198983,1,0,0:0:0:0:
320,192,199273,1,0,0:0:0:0:
192,192,199273,1,0,0:0:0:0:
64,192,199273,1,0,0:0:0:0:
448,192,199273,1,0,0:0:0:0:
320,192,199563,128,0,199708:0:0:0:0:
448,192,199563,1,0,0:0:0:0:
192,192,199708,128,0,199998:0:0:0:0:
448,192,199998,128,0,200143:0:0:0:0:
320,192,200143,128,0,201447:0:0:0:0:
64,192,200723,1,0,0:0:0:0:
448,192,200723,1,0,0:0:0:0:
64,192,201012,1,0,0:0:0:0:
448,192,201012,1,0,0:0:0:0:
448,192,201447,128,0,201737:0:0:0:0:
64,192,201592,1,0,0:0:0:0:
192,192,201592,1,0,0:0:0:0:
320,192,201737,128,0,201882:0:0:0:0:
192,192,201882,128,0,202752:0:0:0:0:
64,192,201882,1,0,0:0:0:0:
64,192,202462,1,0,0:0:0:0:
448,192,202462,1,0,0:0:0:0:
64,192,202752,1,0,0:0:0:0:
448,192,202752,1,0,0:0:0:0:
320,192,203041,128,0,203186:0:0:0:0:
192,192,203186,128,0,203476:0:0:0:0:
64,192,203186,1,0,0:0:0:0:
448,192,203476,128,0,203621:0:0:0:0:
320,192,203621,128,0,204925:0:0:0:0:
64,192,204201,1,0,0:0:0:0:
448,192,204201,1,0,0:0:0:0:
448,192,204491,1,0,0:0:0:0:
64,192,204491,1,0,0:0:0:0:
448,192,204925,128,0,205215:0:0:0:0:
64,192,205070,1,0,0:0:0:0:
192,192,205070,1,0,0:0:0:0:
320,192,205215,128,0,205360:0:0:0:0:
192,192,205360,128,0,206230:0:0:0:0:
64,192,205360,1,0,0:0:0:0:
64,192,205650,1,0,0:0:0:0:
448,192,205650,1,0,0:0:0:0:
64,192,205940,1,0,0:0:0:0:
448,192,205940,1,0,0:0:0:0:
448,192,206230,1,0,0:0:0:0:
64,192,206230,1,0,0:0:0:0:
320,192,206520,128,0,206665:0:0:0:0:
192,192,206665,128,0,206954:0:0:0:0:
64,192,206810,1,0,0:0:0:0:
448,192,206954,128,0,207099:0:0:0:0:
320,192,207099,128,0,208404:0:0:0:0:
64,192,207679,1,0,0:0:0:0:
448,192,207679,1,0,0:0:0:0:
64,192,207969,1,0,0:0:0:0:
448,192,207969,1,0,0:0:0:0:
448,192,208404,128,0,208694:0:0:0:0:
64,192,208549,1,0,0:0:0:0:
192,192,208549,1,0,0:0:0:0:
320,192,208694,128,0,208839:0:0:0:0:
192,192,208839,128,0,209708:0:0:0:0:
64,192,208839,1,0,0:0:0:0:
64,192,209418,1,0,0:0:0:0:
448,192,209418,1,0,0:0:0:0:
448,192,209708,1,0,0:0:0:0:
64,192,209708,1,0,0:0:0:0:
320,192,209998,128,0,210143:0:0:0:0:
192,192,210143,128,0,210433:0:0:0:0:
64,192,210143,1,0,0:0:0:0:
448,192,210433,128,0,210578:0:0:0:0:
320,192,210578,128,0,211882:0:0:0:0:
64,192,211157,1,0,0:0:0:0:
448,192,211157,1,0,0:0:0:0:
448,192,211447,1,0,0:0:0:0:
64,192,211447,1,0,0:0:0:0:
448,192,211882,128,0,212172:0:0:0:0:
64,192,212027,1,0,0:0:0:0:
192,192,212027,1,0,0:0:0:0:
320,192,212172,128,0,212317:0:0:0:0:
192,192,212317,128,0,213186:0:0:0:0:
64,192,212317,1,0,0:0:0:0:
64,192,212607,1,0,0:0:0:0:
448,192,212607,1,0,0:0:0:0:
448,192,212897,1,0,0:0:0:0:
64,192,212897,1,0,0:0:0:0:
64,192,213186,1,0,0:0:0:0:
448,192,213186,1,0,0:0:0:0:
64,192,213476,1,0,0:0:0:0:
448,192,213476,1,0,0:0:0:0:
320,192,213621,1,0,0:0:0:0:
448,192,213621,1,0,0:0:0:0:
192,192,213766,1,0,0:0:0:0:
320,192,213766,1,0,0:0:0:0:
192,192,213911,1,0,0:0:0:0:
448,192,213911,1,0,0:0:0:0:
64,192,214056,1,0,0:0:0:0:
320,192,214056,1,0,0:0:0:0:
192,192,214346,1,0,0:0:0:0:
320,192,214491,1,0,0:0:0:0:
192,192,214636,1,0,0:0:0:0:
192,192,214781,1,0,0:0:0:0:
448,192,214925,1,0,0:0:0:0:
320,192,215070,1,0,0:0:0:0:
320,192,215215,1,0,0:0:0:0:
320,192,215360,1,0,0:0:0:0:
320,192,215505,1,0,0:0:0:0:
320,192,215650,1,0,0:0:0:0:
64,192,215795,1,0,0:0:0:0:
64,192,215940,1,0,0:0:0:0:
64,192,216085,1,0,0:0:0:0:
64,192,216230,1,0,0:0:0:0:
64,192,216375,1,0,0:0:0:0:
64,192,216520,1,0,0:0:0:0:
320,192,216665,1,0,0:0:0:0:
448,192,216665,1,0,0:0:0:0:
64,192,216954,1,0,0:0:0:0:
320,192,216954,1,0,0:0:0:0:
192,192,217099,1,0,0:0:0:0:
320,192,217099,1,0,0:0:0:0:
448,192,217244,1,0,0:0:0:0:
64,192,217244,1,0,0:0:0:0:
192,192,217389,1,0,0:0:0:0:
320,192,217389,1,0,0:0:0:0:
192,192,217534,1,0,0:0:0:0:
448,192,217534,1,0,0:0:0:0:
192,192,217679,1,0,0:0:0:0:
192,192,217824,1,0,0:0:0:0:
192,192,217969,1,0,0:0:0:0:
192,192,218114,1,0,0:0:0:0:
192,192,218259,1,0,0:0:0:0:
448,192,218404,1,0,0:0:0:0:
448,192,218549,1,0,0:0:0:0:
448,192,218694,1,0,0:0:0:0:
448,192,218839,1,0,0:0:0:0:
448,192,218983,1,0,0:0:0:0:
448,192,219128,1,0,0:0:0:0:
64,192,219273,1,0,0:0:0:0:
64,192,219418,1,0,0:0:0:0:
64,192,219563,1,0,0:0:0:0:
64,192,219708,1,0,0:0:0:0:
64,192,219853,1,0,0:0:0:0:
320,192,219998,1,0,0:0:0:0:
192,192,220143,1,0,0:0:0:0:
64,192,220143,1,0,0:0:0:0:
192,192,220433,1,0,0:0:0:0:
448,192,220433,1,0,0:0:0:0:
320,192,220578,1,0,0:0:0:0:
448,192,220578,1,0,0:0:0:0:
64,192,220723,1,0,0:0:0:0:
448,192,220723,1,0,0:0:0:0:
192,192,220868,1,0,0:0:0:0:
320,192,220868,1,0,0:0:0:0:
64,192,221012,1,0,0:0:0:0:
320,192,221012,1,0,0:0:0:0:
320,192,221157,1,0,0:0:0:0:
320,192,221302,128,0,221375:0:0:0:0:
192,192,221302,1,0,0:0:0:0:
320,192,221447,128,0,221520:0:0:0:0:
192,192,221447,1,0,0:0:0:0:
320,192,221592,128,0,221665:0:0:0:0:
192,192,221592,1,0,0:0:0:0:
320,192,221737,128,0,221810:0:0:0:0:
192,192,221737,1,0,0:0:0:0:
320,192,221882,128,0,221954:0:0:0:0:
192,192,221882,1,0,0:0:0:0:
320,192,222027,128,0,222099:0:0:0:0:
192,192,222027,1,0,0:0:0:0:
320,192,222172,128,0,222244:0:0:0:0:
192,192,222172,1,0,0:0:0:0:
448,192,222317,128,0,222389:0:0:0:0:
192,192,222317,1,0,0:0:0:0:
448,192,222462,128,0,222534:0:0:0:0:
64,192,222462,1,0,0:0:0:0:
320,192,222607,128,0,222679:0:0:0:0:
64,192,222607,1,0,0:0:0:0:
192,192,222752,128,0,222824:0:0:0:0:
64,192,222752,1,0,0:0:0:0:
192,192,222897,128,0,222969:0:0:0:0:
64,192,222897,1,0,0:0:0:0:
192,192,223041,128,0,223114:0:0:0:0:
64,192,223041,1,0,0:0:0:0:
192,192,223186,128,0,223259:0:0:0:0:
64,192,223186,1,0,0:0:0:0:
192,192,223331,128,0,223404:0:0:0:0:
64,192,223331,1,0,0:0:0:0:
64,192,223476,1,0,0:0:0:0:
64,192,223621,1,0,0:0:0:0:
320,192,223911,1,0,0:0:0:0:
448,192,223911,1,0,0:0:0:0:
192,192,224056,1,0,0:0:0:0:
448,192,224056,1,0,0:0:0:0:
192,192,224201,1,0,0:0:0:0:
448,192,224201,1,0,0:0:0:0:
192,192,224346,1,0,0:0:0:0:
320,192,224346,1,0,0:0:0:0:
320,192,224491,128,0,224563:0:0:0:0:
192,192,224491,1,0,0:0:0:0:
320,192,224636,128,0,224708:0:0:0:0:
192,192,224636,1,0,0:0:0:0:
320,192,224781,128,0,224853:0:0:0:0:
192,192,224781,1,0,0:0:0:0:
320,192,224925,128,0,224998:0:0:0:0:
192,192,224925,1,0,0:0:0:0:
320,192,225070,128,0,225143:0:0:0:0:
192,192,225070,1,0,0:0:0:0:
320,192,225215,128,0,225288:0:0:0:0:
192,192,225215,1,0,0:0:0:0:
320,192,225360,128,0,225433:0:0:0:0:
64,192,225360,1,0,0:0:0:0:
320,192,225505,128,0,225578:0:0:0:0:
64,192,225505,1,0,0:0:0:0:
320,192,225650,128,0,225723:0:0:0:0:
64,192,225650,1,0,0:0:0:0:
448,192,225795,128,0,225868:0:0:0:0:
64,192,225795,1,0,0:0:0:0:
448,192,225940,128,0,226012:0:0:0:0:
64,192,225940,1,0,0:0:0:0:
320,192,226085,128,0,226157:0:0:0:0:
64,192,226085,1,0,0:0:0:0:
192,192,226230,128,0,226302:0:0:0:0:
64,192,226230,1,0,0:0:0:0:
192,192,226375,128,0,226447:0:0:0:0:
64,192,226375,1,0,0:0:0:0:
192,192,226520,128,0,226592:0:0:0:0:
64,192,226520,1,0,0:0:0:0:
192,192,226665,128,0,226737:0:0:0:0:
64,192,226665,1,0,0:0:0:0:
192,192,226810,128,0,226882:0:0:0:0:
64,192,226810,1,0,0:0:0:0:
64,192,226954,1,0,0:0:0:0:
448,192,227534,128,0,231665:0:0:0:0:
320,192,228041,128,0,231665:0:0:0:0:
448,192,234491,128,0,238621:0:0:0:0:
320,192,234998,128,0,238621:0:0:0:0:
448,192,241447,128,0,242099:0:0:0:0:
320,192,241954,128,0,242099:0:0:0:0:
320,192,242172,128,0,242244:0:0:0:0:
448,192,242172,128,0,242244:0:0:0:0:
320,192,242317,128,0,242389:0:0:0:0:
448,192,242317,128,0,242389:0:0:0:0:
320,192,242462,128,0,242534:0:0:0:0:
448,192,242462,128,0,242534:0:0:0:0:
320,192,242607,128,0,242824:0:0:0:0:
448,192,242607,128,0,242824:0:0:0:0:
320,192,242897,128,0,243114:0:0:0:0:
448,192,242897,128,0,243114:0:0:0:0:
320,192,243186,128,0,243404:0:0:0:0:
448,192,243186,128,0,243404:0:0:0:0:
320,192,243476,128,0,243549:0:0:0:0:
448,192,243476,128,0,243549:0:0:0:0:
320,192,243621,128,0,243839:0:0:0:0:
448,192,243621,128,0,243839:0:0:0:0:
320,192,243911,128,0,243983:0:0:0:0:
448,192,243911,128,0,243983:0:0:0:0:
320,192,244056,128,0,244128:0:0:0:0:
448,192,244056,128,0,244128:0:0:0:0:
320,192,244201,128,0,244273:0:0:0:0:
448,192,244201,128,0,244273:0:0:0:0:
320,192,244346,128,0,244563:0:0:0:0:
448,192,244346,128,0,244563:0:0:0:0:
320,192,244636,128,0,244853:0:0:0:0:
448,192,244636,128,0,244853:0:0:0:0:
320,192,244925,128,0,245143:0:0:0:0:
448,192,244925,128,0,245143:0:0:0:0:
320,192,245215,128,0,245288:0:0:0:0:
448,192,245215,128,0,245288:0:0:0:0:
320,192,245360,128,0,245578:0:0:0:0:
448,192,245360,128,0,245578:0:0:0:0:
320,192,245650,128,0,245723:0:0:0:0:
448,192,245650,128,0,245723:0:0:0:0:
320,192,245795,128,0,245868:0:0:0:0:
448,192,245795,128,0,245868:0:0:0:0:
320,192,245940,128,0,246012:0:0:0:0:
448,192,245940,128,0,246012:0:0:0:0:
320,192,246085,128,0,246302:0:0:0:0:
448,192,246085,128,0,246302:0:0:0:0:
320,192,246375,128,0,246592:0:0:0:0:
448,192,246375,128,0,246592:0:0:0:0:
320,192,246665,128,0,246882:0:0:0:0:
448,192,246665,128,0,246882:0:0:0:0:
320,192,246954,128,0,247027:0:0:0:0:
448,192,246954,128,0,247027:0:0:0:0:
320,192,247099,128,0,247317:0:0:0:0:
448,192,247099,128,0,247317:0:0:0:0:
320,192,247389,128,0,247462:0:0:0:0:
448,192,247389,128,0,247462:0:0:0:0:
320,192,247534,128,0,247607:0:0:0:0:
448,192,247534,128,0,247607:0:0:0:0:
320,192,247679,128,0,247752:0:0:0:0:
448,192,247679,128,0,247752:0:0:0:0:
320,192,247824,128,0,248041:0:0:0:0:
448,192,247824,128,0,248041:0:0:0:0:
320,192,248114,128,0,248331:0:0:0:0:
448,192,248114,128,0,248331:0:0:0:0:
320,192,248404,128,0,248621:0:0:0:0:
448,192,248404,128,0,248621:0:0:0:0:
320,192,248694,128,0,248766:0:0:0:0:
448,192,248694,128,0,248766:0:0:0:0:
320,192,248839,128,0,249056:0:0:0:0:
448,192,248839,128,0,249056:0:0:0:0:
320,192,249128,128,0,249201:0:0:0:0:
448,192,249128,128,0,249201:0:0:0:0:
320,192,249273,128,0,249346:0:0:0:0:
448,192,249273,128,0,249346:0:0:0:0:
320,192,249418,128,0,249491:0:0:0:0:
448,192,249418,128,0,249491:0:0:0:0:
320,192,249563,128,0,249781:0:0:0:0:
448,192,249563,128,0,249781:0:0:0:0:
320,192,249853,128,0,250070:0:0:0:0:
448,192,249853,128,0,250070:0:0:0:0:
320,192,250143,128,0,250360:0:0:0:0:
448,192,250143,128,0,250360:0:0:0:0:
320,192,250433,128,0,250505:0:0:0:0:
448,192,250433,128,0,250505:0:0:0:0:
320,192,250578,128,0,250795:0:0:0:0:
448,192,250578,128,0,250795:0:0:0:0:
320,192,250868,128,0,250940:0:0:0:0:
448,192,250868,128,0,250940:0:0:0:0:
448,192,251012,128,0,251085:0:0:0:0:
320,192,251012,128,0,251085:0:0:0:0:
320,192,251157,128,0,251230:0:0:0:0:
448,192,251157,128,0,251230:0:0:0:0:
320,192,251302,128,0,251520:0:0:0:0:
448,192,251302,128,0,251520:0:0:0:0:
320,192,251592,128,0,251810:0:0:0:0:
448,192,251592,128,0,251810:0:0:0:0:
320,192,251882,128,0,252099:0:0:0:0:
448,192,251882,128,0,252099:0:0:0:0:
320,192,252172,128,0,252244:0:0:0:0:
448,192,252172,128,0,252244:0:0:0:0:
320,192,252317,128,0,252534:0:0:0:0:
448,192,252317,128,0,252534:0:0:0:0:
320,192,252607,128,0,252679:0:0:0:0:
448,192,252607,128,0,252679:0:0:0:0:
320,192,252752,128,0,252824:0:0:0:0:
448,192,252752,128,0,252824:0:0:0:0:
320,192,252897,128,0,252969:0:0:0:0:
448,192,252897,128,0,252969:0:0:0:0:
320,192,253041,128,0,253259:0:0:0:0:
448,192,253041,128,0,253259:0:0:0:0:
320,192,253331,128,0,253549:0:0:0:0:
448,192,253331,128,0,253549:0:0:0:0:
320,192,253621,128,0,253839:0:0:0:0:
448,192,253621,128,0,253839:0:0:0:0:
320,192,253911,128,0,253983:0:0:0:0:
448,192,253911,128,0,253983:0:0:0:0:
320,192,254056,128,0,254273:0:0:0:0:
448,192,254056,128,0,254273:0:0:0:0:
320,192,254346,128,0,254418:0:0:0:0:
448,192,254346,128,0,254418:0:0:0:0:
320,192,254491,128,0,254563:0:0:0:0:
448,192,254491,128,0,254563:0:0:0:0:
320,192,254636,128,0,254708:0:0:0:0:
448,192,254636,128,0,254708:0:0:0:0:
320,192,254781,128,0,254998:0:0:0:0:
448,192,254781,128,0,254998:0:0:0:0:
320,192,255070,128,0,255288:0:0:0:0:
448,192,255070,128,0,255288:0:0:0:0:
64,192,255360,1,0,0:0:0:0:
448,192,255360,1,0,0:0:0:0:
64,192,255795,1,0,0:0:0:0:
320,192,255795,1,0,0:0:0:0:
448,192,255795,1,0,0:0:0:0:
192,192,255868,1,0,0:0:0:0:
64,192,255940,1,0,0:0:0:0:
320,192,255940,1,0,0:0:0:0:
448,192,255940,1,0,0:0:0:0:
192,192,256085,1,0,0:0:0:0:
320,192,256085,1,0,0:0:0:0:
448,192,256085,1,0,0:0:0:0:
64,192,256230,1,0,0:0:0:0:
192,192,256230,1,0,0:0:0:0:
320,192,256230,1,0,0:0:0:0:
64,192,256375,1,0,0:0:0:0:
192,192,256375,1,0,0:0:0:0:
448,192,256375,1,0,0:0:0:0:
64,192,256520,1,0,0:0:0:0:
320,192,256520,1,0,0:0:0:0:
448,192,256520,1,0,0:0:0:0:
192,192,256592,1,0,0:0:0:0:
64,192,256665,1,0,0:0:0:0:
320,192,256665,1,0,0:0:0:0:
448,192,256665,1,0,0:0:0:0:
64,192,256810,1,0,0:0:0:0:
320,192,256810,1,0,0:0:0:0:
448,192,256810,1,0,0:0:0:0:
192,192,256882,1,0,0:0:0:0:
320,192,256954,1,0,0:0:0:0:
448,192,256954,1,0,0:0:0:0:
64,192,256954,1,0,0:0:0:0:
64,192,257099,1,0,0:0:0:0:
320,192,257099,1,0,0:0:0:0:
448,192,257099,1,0,0:0:0:0:
192,192,257172,1,0,0:0:0:0:
64,192,257244,1,0,0:0:0:0:
320,192,257244,1,0,0:0:0:0:
448,192,257244,1,0,0:0:0:0:
192,192,257389,1,0,0:0:0:0:
320,192,257389,1,0,0:0:0:0:
448,192,257389,1,0,0:0:0:0:
64,192,257534,1,0,0:0:0:0:
192,192,257534,1,0,0:0:0:0:
320,192,257534,1,0,0:0:0:0:
448,192,257607,1,0,0:0:0:0:
320,192,257679,1,0,0:0:0:0:
192,192,257679,1,0,0:0:0:0:
64,192,257679,1,0,0:0:0:0:
64,192,257824,1,0,0:0:0:0:
320,192,257824,1,0,0:0:0:0:
448,192,257824,1,0,0:0:0:0:
192,192,257969,1,0,0:0:0:0:
320,192,257969,1,0,0:0:0:0:
448,192,257969,1,0,0:0:0:0:
64,192,258114,1,0,0:0:0:0:
192,192,258114,1,0,0:0:0:0:
448,192,258114,1,0,0:0:0:0:
64,192,258259,1,0,0:0:0:0:
192,192,258259,1,0,0:0:0:0:
320,192,258259,1,0,0:0:0:0:
448,192,258331,1,0,0:0:0:0:
320,192,258404,1,0,0:0:0:0:
192,192,258404,1,0,0:0:0:0:
64,192,258404,1,0,0:0:0:0:
192,192,258549,1,0,0:0:0:0:
320,192,258549,1,0,0:0:0:0:
64,192,258549,1,0,0:0:0:0:
448,192,258621,1,0,0:0:0:0:
320,192,258694,1,0,0:0:0:0:
192,192,258694,1,0,0:0:0:0:
64,192,258694,1,0,0:0:0:0:
64,192,258839,1,0,0:0:0:0:
192,192,258839,1,0,0:0:0:0:
320,192,258839,1,0,0:0:0:0:
448,192,258911,1,0,0:0:0:0:
320,192,258983,1,0,0:0:0:0:
192,192,258983,1,0,0:0:0:0:
64,192,258983,1,0,0:0:0:0:
64,192,259128,1,0,0:0:0:0:
320,192,259128,1,0,0:0:0:0:
448,192,259128,1,0,0:0:0:0:
192,192,259273,1,0,0:0:0:0:
64,192,259273,1,0,0:0:0:0:
448,192,259273,1,0,0:0:0:0:
320,192,259346,1,0,0:0:0:0:
192,192,259418,1,0,0:0:0:0:
64,192,259418,1,0,0:0:0:0:
448,192,259418,1,0,0:0:0:0:
192,192,259563,1,0,0:0:0:0:
320,192,259563,1,0,0:0:0:0:
448,192,259563,1,0,0:0:0:0:
64,192,259708,1,0,0:0:0:0:
192,192,259708,1,0,0:0:0:0:
320,192,259708,1,0,0:0:0:0:
64,192,259853,1,0,0:0:0:0:
320,192,259853,1,0,0:0:0:0:
448,192,259853,1,0,0:0:0:0:
192,192,259998,1,0,0:0:0:0:
64,192,259998,1,0,0:0:0:0:
448,192,259998,1,0,0:0:0:0:
320,192,260070,1,0,0:0:0:0:
448,192,260143,1,0,0:0:0:0:
192,192,260143,1,0,0:0:0:0:
64,192,260143,1,0,0:0:0:0:
448,192,260288,1,0,0:0:0:0:
192,192,260288,1,0,0:0:0:0:
64,192,260288,1,0,0:0:0:0:
320,192,260360,1,0,0:0:0:0:
64,192,260433,1,0,0:0:0:0:
192,192,260433,1,0,0:0:0:0:
448,192,260433,1,0,0:0:0:0:
64,192,260578,1,0,0:0:0:0:
192,192,260578,1,0,0:0:0:0:
448,192,260578,1,0,0:0:0:0:
320,192,260650,1,0,0:0:0:0:
64,192,260723,1,0,0:0:0:0:
192,192,260723,1,0,0:0:0:0:
448,192,260723,1,0,0:0:0:0:
320,192,260868,1,0,0:0:0:0:
192,192,260868,1,0,0:0:0:0:
64,192,260868,1,0,0:0:0:0:
192,192,261012,1,0,0:0:0:0:
320,192,261012,1,0,0:0:0:0:
448,192,261012,1,0,0:0:0:0:
64,192,261085,1,0,0:0:0:0:
192,192,261157,1,0,0:0:0:0:
320,192,261157,1,0,0:0:0:0:
448,192,261157,1,0,0:0:0:0:
192,192,261302,1,0,0:0:0:0:
64,192,261302,1,0,0:0:0:0:
448,192,261302,1,0,0:0:0:0:
64,192,261447,1,0,0:0:0:0:
192,192,261447,1,0,0:0:0:0:
320,192,261447,1,0,0:0:0:0:
64,192,261592,1,0,0:0:0:0:
320,192,261592,1,0,0:0:0:0:
448,192,261592,1,0,0:0:0:0:
192,192,261737,1,0,0:0:0:0:
320,192,261737,1,0,0:0:0:0:
448,192,261737,1,0,0:0:0:0:
64,192,261810,1,0,0:0:0:0:
192,192,261882,128,0,261954:0:0:0:0:
320,192,261882,128,0,261954:0:0:0:0:
448,192,261882,128,0,261954:0:0:0:0:
192,192,262027,1,0,0:0:0:0:
320,192,262027,1,0,0:0:0:0:
448,192,262027,1,0,0:0:0:0:
64,192,262027,1,0,0:0:0:0:
192,192,262172,1,0,0:0:0:0:
320,192,262172,1,0,0:0:0:0:
448,192,262172,1,0,0:0:0:0:
64,192,262172,1,0,0:0:0:0:
448,192,262317,1,0,0:0:0:0:
320,192,262317,1,0,0:0:0:0:
192,192,262317,1,0,0:0:0:0:
64,192,262317,1,0,0:0:0:0:
64,192,262462,1,0,0:0:0:0:
192,192,262462,1,0,0:0:0:0:
320,192,262462,1,0,0:0:0:0:
448,192,262462,1,0,0:0:0:0:
448,192,262607,1,0,0:0:0:0:
320,192,262607,1,0,0:0:0:0:
192,192,262607,1,0,0:0:0:0:
64,192,262607,1,0,0:0:0:0:
320,192,262752,1,0,0:0:0:0:
448,192,262752,1,0,0:0:0:0:
64,192,262752,1,0,0:0:0:0:
192,192,262824,1,0,0:0:0:0:
64,192,262897,1,0,0:0:0:0:
320,192,262897,1,0,0:0:0:0:
448,192,262897,1,0,0:0:0:0:
192,192,263041,1,0,0:0:0:0:
320,192,263041,1,0,0:0:0:0:
448,192,263041,1,0,0:0:0:0:
64,192,263186,1,0,0:0:0:0:
192,192,263186,1,0,0:0:0:0:
448,192,263186,1,0,0:0:0:0:
192,192,263331,1,0,0:0:0:0:
320,192,263331,1,0,0:0:0:0:
448,192,263331,1,0,0:0:0:0:
320,192,263476,1,0,0:0:0:0:
448,192,263476,1,0,0:0:0:0:
64,192,263476,1,0,0:0:0:0:
192,192,263549,1,0,0:0:0:0:
64,192,263621,1,0,0:0:0:0:
320,192,263621,1,0,0:0:0:0:
448,192,263621,1,0,0:0:0:0:
320,192,263766,1,0,0:0:0:0:
448,192,263766,1,0,0:0:0:0:
64,192,263766,1,0,0:0:0:0:
192,192,263839,1,0,0:0:0:0:
64,192,263911,1,0,0:0:0:0:
320,192,263911,1,0,0:0:0:0:
448,192,263911,1,0,0:0:0:0:
448,192,264056,1,0,0:0:0:0:
320,192,264056,1,0,0:0:0:0:
64,192,264056,1,0,0:0:0:0:
192,192,264128,1,0,0:0:0:0:
64,192,264201,1,0,0:0:0:0:
320,192,264201,1,0,0:0:0:0:
448,192,264201,1,0,0:0:0:0:
64,192,264346,1,0,0:0:0:0:
192,192,264346,1,0,0:0:0:0:
320,192,264346,1,0,0:0:0:0:
64,192,264491,1,0,0:0:0:0:
192,192,264491,1,0,0:0:0:0:
448,192,264491,1,0,0:0:0:0:
320,192,264563,1,0,0:0:0:0:
64,192,264636,1,0,0:0:0:0:
192,192,264636,1,0,0:0:0:0:
448,192,264636,1,0,0:0:0:0:
64,192,264781,1,0,0:0:0:0:
192,192,264781,1,0,0:0:0:0:
320,192,264781,1,0,0:0:0:0:
64,192,264925,1,0,0:0:0:0:
320,192,264925,1,0,0:0:0:0:
448,192,264925,1,0,0:0:0:0:
192,192,265070,1,0,0:0:0:0:
64,192,265070,1,0,0:0:0:0:
448,192,265070,1,0,0:0:0:0:
192,192,265215,1,0,0:0:0:0:
64,192,265215,1,0,0:0:0:0:
448,192,265215,1,0,0:0:0:0:
320,192,265288,1,0,0:0:0:0:
192,192,265360,1,0,0:0:0:0:
64,192,265360,1,0,0:0:0:0:
448,192,265360,1,0,0:0:0:0:
448,192,265505,1,0,0:0:0:0:
64,192,265505,1,0,0:0:0:0:
192,192,265505,1,0,0:0:0:0:
320,192,265578,1,0,0:0:0:0:
192,192,265650,1,0,0:0:0:0:
64,192,265650,1,0,0:0:0:0:
448,192,265650,1,0,0:0:0:0:
448,192,265795,1,0,0:0:0:0:
64,192,265795,1,0,0:0:0:0:
192,192,265795,1,0,0:0:0:0:
320,192,265868,1,0,0:0:0:0:
192,192,265940,1,0,0:0:0:0:
64,192,265940,1,0,0:0:0:0:
448,192,265940,1,0,0:0:0:0:
64,192,266085,1,0,0:0:0:0:
192,192,266085,1,0,0:0:0:0:
320,192,266085,1,0,0:0:0:0:
320,192,266230,1,0,0:0:0:0:
448,192,266230,1,0,0:0:0:0:
192,192,266230,1,0,0:0:0:0:
64,192,266302,1,0,0:0:0:0:
192,192,266375,1,0,0:0:0:0:
320,192,266375,1,0,0:0:0:0:
448,192,266375,1,0,0:0:0:0:
64,192,266520,1,0,0:0:0:0:
192,192,266520,1,0,0:0:0:0:
448,192,266520,1,0,0:0:0:0:
64,192,266665,1,0,0:0:0:0:
192,192,266665,1,0,0:0:0:0:
320,192,266665,1,0,0:0:0:0:
64,192,266810,1,0,0:0:0:0:
320,192,266810,1,0,0:0:0:0:
448,192,266810,1,0,0:0:0:0:
192,192,266954,1,0,0:0:0:0:
320,192,266954,1,0,0:0:0:0:
448,192,266954,1,0,0:0:0:0:
64,192,267027,1,0,0:0:0:0:
192,192,267099,1,0,0:0:0:0:
320,192,267099,1,0,0:0:0:0:
448,192,267099,1,0,0:0:0:0:
192,192,267244,1,0,0:0:0:0:
320,192,267244,1,0,0:0:0:0:
448,192,267244,1,0,0:0:0:0:
64,192,267317,1,0,0:0:0:0:
448,192,267389,1,0,0:0:0:0:
320,192,267389,1,0,0:0:0:0:
192,192,267389,1,0,0:0:0:0:
192,192,267534,1,0,0:0:0:0:
320,192,267534,1,0,0:0:0:0:
448,192,267534,1,0,0:0:0:0:
64,192,267607,1,0,0:0:0:0:
448,192,267679,1,0,0:0:0:0:
320,192,267679,1,0,0:0:0:0:
192,192,267679,1,0,0:0:0:0:
64,192,267824,1,0,0:0:0:0:
192,192,267824,1,0,0:0:0:0:
448,192,267824,1,0,0:0:0:0:
64,192,267969,1,0,0:0:0:0:
192,192,267969,1,0,0:0:0:0:
320,192,267969,1,0,0:0:0:0:
448,192,267969,1,0,0:0:0:0:
64,192,268114,1,0,0:0:0:0:
448,192,268114,1,0,0:0:0:0:
320,192,268114,1,0,0:0:0:0:
192,192,268259,1,0,0:0:0:0:
320,192,268259,1,0,0:0:0:0:
448,192,268259,1,0,0:0:0:0:
64,192,268404,1,0,0:0:0:0:
192,192,268404,1,0,0:0:0:0:
320,192,268404,1,0,0:0:0:0:
448,192,268404,1,0,0:0:0:0:
64,192,268549,1,0,0:0:0:0:
192,192,268549,1,0,0:0:0:0:
320,192,268549,1,0,0:0:0:0:
192,192,268694,1,0,0:0:0:0:
320,192,268694,1,0,0:0:0:0:
448,192,268694,1,0,0:0:0:0:
64,192,268839,128,0,268911:0:0:0:0:
320,192,268839,128,0,268911:0:0:0:0:
448,192,268839,128,0,268911:0:0:0:0:
192,192,268839,128,0,268911:0:0:0:0:
320,192,268983,1,0,0:0:0:0:
320,192,269128,1,0,0:0:0:0:
64,192,269273,128,0,269346:0:0:0:0:
448,192,269273,128,0,269346:0:0:0:0:
320,192,269418,1,0,0:0:0:0:
320,192,269563,1,0,0:0:0:0:
192,192,269708,1,0,0:0:0:0:
320,192,269708,1,0,0:0:0:0:
448,192,269708,1,0,0:0:0:0:
64,192,269781,1,0,0:0:0:0:
192,192,269853,1,0,0:0:0:0:
320,192,269853,1,0,0:0:0:0:
448,192,269853,1,0,0:0:0:0:
64,192,269998,1,0,0:0:0:0:
192,192,269998,1,0,0:0:0:0:
448,192,269998,1,0,0:0:0:0:
64,192,270143,1,0,0:0:0:0:
192,192,270143,1,0,0:0:0:0:
320,192,270143,1,0,0:0:0:0:
64,192,270288,1,0,0:0:0:0:
320,192,270288,1,0,0:0:0:0:
448,192,270288,1,0,0:0:0:0:
192,192,270433,1,0,0:0:0:0:
320,192,270433,1,0,0:0:0:0:
448,192,270433,1,0,0:0:0:0:
64,192,270505,1,0,0:0:0:0:
448,192,270578,1,0,0:0:0:0:
320,192,270578,1,0,0:0:0:0:
192,192,270578,1,0,0:0:0:0:
192,192,270723,1,0,0:0:0:0:
320,192,270723,1,0,0:0:0:0:
448,192,270723,1,0,0:0:0:0:
64,192,270795,1,0,0:0:0:0:
448,192,270868,1,0,0:0:0:0:
320,192,270868,1,0,0:0:0:0:
192,192,270868,1,0,0:0:0:0:
192,192,271012,1,0,0:0:0:0:
320,192,271012,1,0,0:0:0:0:
448,192,271012,1,0,0:0:0:0:
64,192,271085,1,0,0:0:0:0:
320,192,271157,1,0,0:0:0:0:
448,192,271157,1,0,0:0:0:0:
192,192,271157,1,0,0:0:0:0:
64,192,271302,1,0,0:0:0:0:
192,192,271302,1,0,0:0:0:0:
320,192,271302,1,0,0:0:0:0:
64,192,271447,1,0,0:0:0:0:
448,192,271447,1,0,0:0:0:0:
320,192,271520,1,0,0:0:0:0:
448,192,271592,1,0,0:0:0:0:
64,192,271592,1,0,0:0:0:0:
192,192,271737,1,0,0:0:0:0:
320,192,271737,1,0,0:0:0:0:
448,192,271737,1,0,0:0:0:0:
64,192,271882,1,0,0:0:0:0:
192,192,271882,1,0,0:0:0:0:
448,192,271882,1,0,0:0:0:0:
64,192,272027,1,0,0:0:0:0:
192,192,272027,1,0,0:0:0:0:
320,192,272027,1,0,0:0:0:0:
64,192,272172,1,0,0:0:0:0:
448,192,272172,1,0,0:0:0:0:
320,192,272244,1,0,0:0:0:0:
448,192,272317,1,0,0:0:0:0:
64,192,272317,1,0,0:0:0:0:
448,192,272462,1,0,0:0:0:0:
64,192,272462,1,0,0:0:0:0:
320,192,272534,1,0,0:0:0:0:
64,192,272607,1,0,0:0:0:0:
448,192,272607,1,0,0:0:0:0:
64,192,272752,1,0,0:0:0:0:
448,192,272752,1,0,0:0:0:0:
320,192,272824,1,0,0:0:0:0:
448,192,272897,1,0,0:0:0:0:
64,192,272897,1,0,0:0:0:0:
64,192,273041,1,0,0:0:0:0:
192,192,273041,1,0,0:0:0:0:
320,192,273041,1,0,0:0:0:0:
192,192,273186,1,0,0:0:0:0:
448,192,273186,1,0,0:0:0:0:
320,192,273259,1,0,0:0:0:0:
192,192,273331,1,0,0:0:0:0:
448,192,273331,1,0,0:0:0:0:
64,192,273476,1,0,0:0:0:0:
192,192,273476,1,0,0:0:0:0:
320,192,273621,1,0,0:0:0:0:
64,192,273621,1,0,0:0:0:0:
320,192,273766,1,0,0:0:0:0:
448,192,273766,1,0,0:0:0:0:
192,192,273911,1,0,0:0:0:0:
448,192,273911,1,0,0:0:0:0:
320,192,273983,1,0,0:0:0:0:
192,192,274056,1,0,0:0:0:0:
448,192,274056,1,0,0:0:0:0:
192,192,274201,1,0,0:0:0:0:
448,192,274201,1,0,0:0:0:0:
320,192,274273,1,0,0:0:0:0:
192,192,274346,1,0,0:0:0:0:
448,192,274346,1,0,0:0:0:0:
448,192,274491,1,0,0:0:0:0:
192,192,274491,1,0,0:0:0:0:
320,192,274563,1,0,0:0:0:0:
192,192,274636,1,0,0:0:0:0:
448,192,274636,1,0,0:0:0:0:
192,192,274781,1,0,0:0:0:0:
320,192,274781,1,0,0:0:0:0:
64,192,274925,1,0,0:0:0:0:
320,192,274925,1,0,0:0:0:0:
192,192,274998,1,0,0:0:0:0:
320,192,275070,1,0,0:0:0:0:
64,192,275070,1,0,0:0:0:0:
320,192,275215,1,0,0:0:0:0:
448,192,275215,1,0,0:0:0:0:
64,192,275360,1,0,0:0:0:0:
192,192,275360,1,0,0:0:0:0:
192,192,275505,1,0,0:0:0:0:
448,192,275505,1,0,0:0:0:0:
64,192,275650,1,0,0:0:0:0:
320,192,275650,1,0,0:0:0:0:
192,192,275723,1,0,0:0:0:0:
64,192,275795,1,0,0:0:0:0:
320,192,275795,1,0,0:0:0:0:
448,192,275795,1,0,0:0:0:0:
192,192,275940,1,0,0:0:0:0:
192,192,276085,1,0,0:0:0:0:
64,192,276230,1,0,0:0:0:0:
448,192,276230,1,0,0:0:0:0:
192,192,276375,1,0,0:0:0:0:
192,192,276520,1,0,0:0:0:0:
64,192,276665,1,0,0:0:0:0:
448,192,276665,1,0,0:0:0:0:
320,192,276665,128,0,276737:0:0:0:0:
64,192,276810,1,0,0:0:0:0:
192,192,276810,1,0,0:0:0:0:
192,192,276954,1,0,0:0:0:0:
448,192,276954,1,0,0:0:0:0:
320,192,277099,1,0,0:0:0:0:
448,192,277099,1,0,0:0:0:0:
64,192,277244,1,0,0:0:0:0:
320,192,277244,1,0,0:0:0:0:
192,192,277389,1,0,0:0:0:0:
320,192,277389,1,0,0:0:0:0:
64,192,277534,1,0,0:0:0:0:
448,192,277534,1,0,0:0:0:0:
64,192,277679,1,0,0:0:0:0:
192,192,277679,1,0,0:0:0:0:
192,192,277824,1,0,0:0:0:0:
448,192,277824,1,0,0:0:0:0:
320,192,277969,1,0,0:0:0:0:
448,192,277969,1,0,0:0:0:0:
64,192,278114,1,0,0:0:0:0:
320,192,278114,1,0,0:0:0:0:
192,192,278259,1,0,0:0:0:0:
320,192,278259,1,0,0:0:0:0:
64,192,278404,1,0,0:0:0:0:
448,192,278404,1,0,0:0:0:0:
64,192,278549,1,0,0:0:0:0:
192,192,278549,1,0,0:0:0:0:
448,192,278694,1,0,0:0:0:0:
192,192,278694,1,0,0:0:0:0:
320,192,278839,1,0,0:0:0:0:
448,192,278839,1,0,0:0:0:0:
64,192,278983,1,0,0:0:0:0:
320,192,278983,1,0,0:0:0:0:
320,192,279128,1,0,0:0:0:0:
192,192,279128,1,0,0:0:0:0:
448,192,279273,1,0,0:0:0:0:
64,192,279273,1,0,0:0:0:0:
192,192,279418,1,0,0:0:0:0:
64,192,279418,1,0,0:0:0:0:
192,192,279563,1,0,0:0:0:0:
448,192,279563,1,0,0:0:0:0:
448,192,279708,1,0,0:0:0:0:
320,192,279708,1,0,0:0:0:0:
320,192,279853,1,0,0:0:0:0:
64,192,279853,1,0,0:0:0:0:
192,192,279998,1,0,0:0:0:0:
320,192,279998,1,0,0:0:0:0:
64,192,280143,1,0,0:0:0:0:
448,192,280143,1,0,0:0:0:0:
320,192,280288,1,0,0:0:0:0:
64,192,280433,1,0,0:0:0:0:
448,192,280433,1,0,0:0:0:0:
320,192,280578,1,0,0:0:0:0:
64,192,280723,1,0,0:0:0:0:
448,192,280723,1,0,0:0:0:0:
320,192,280868,1,0,0:0:0:0:
448,192,281012,1,0,0:0:0:0:
64,192,281012,1,0,0:0:0:0:
320,192,281157,1,0,0:0:0:0:
64,192,281302,1,0,0:0:0:0:
448,192,281302,1,0,0:0:0:0:
320,192,281447,1,0,0:0:0:0:
448,192,281592,1,0,0:0:0:0:
64,192,281592,1,0,0:0:0:0:
320,192,281737,1,0,0:0:0:0:
64,192,281882,1,0,0:0:0:0:
192,192,281882,1,0,0:0:0:0:
320,192,281882,1,0,0:0:0:0:
448,192,281882,1,0,0:0:0:0:
192,192,282027,1,0,0:0:0:0:
64,192,282172,1,0,0:0:0:0:
64,192,282317,1,0,0:0:0:0:
192,192,282317,1,0,0:0:0:0:
320,192,282317,1,0,0:0:0:0:
448,192,282317,1,0,0:0:0:0:
320,192,282462,5,0,0:0:0:0:
192,192,282607,1,0,0:0:0:0:
64,192,282752,1,0,0:0:0:0:
448,192,282752,1,0,0:0:0:0:
192,192,282897,1,0,0:0:0:0:
192,192,283041,1,0,0:0:0:0:
64,192,283186,1,0,0:0:0:0:
320,192,283186,1,0,0:0:0:0:
448,192,283186,1,0,0:0:0:0:
192,192,283331,1,0,0:0:0:0:
192,192,283476,1,0,0:0:0:0:
64,192,283621,5,0,0:0:0:0:
448,192,283621,1,0,0:0:0:0:
320,192,283621,1,0,0:0:0:0:
192,192,283766,1,0,0:0:0:0:
320,192,283766,1,0,0:0:0:0:
448,192,283766,1,0,0:0:0:0:
192,192,283911,1,0,0:0:0:0:
320,192,283911,1,0,0:0:0:0:
64,192,283911,1,0,0:0:0:0:
64,192,284056,1,0,0:0:0:0:
320,192,284056,1,0,0:0:0:0:
448,192,284056,1,0,0:0:0:0:
448,192,284201,1,0,0:0:0:0:
192,192,284201,1,0,0:0:0:0:
320,192,284201,1,0,0:0:0:0:
192,192,284346,1,0,0:0:0:0:
320,192,284346,1,0,0:0:0:0:
64,192,284346,1,0,0:0:0:0:
448,192,284491,1,0,0:0:0:0:
64,192,284491,1,0,0:0:0:0:
320,192,284491,1,0,0:0:0:0:
448,192,284636,1,0,0:0:0:0:
192,192,284636,1,0,0:0:0:0:
320,192,284636,1,0,0:0:0:0:
448,192,284781,1,0,0:0:0:0:
64,192,284781,1,0,0:0:0:0:
192,192,284781,1,0,0:0:0:0:
448,192,284925,1,0,0:0:0:0:
320,192,284925,1,0,0:0:0:0:
64,192,284925,1,0,0:0:0:0:
320,192,285070,1,0,0:0:0:0:
192,192,285070,1,0,0:0:0:0:
448,192,285070,1,0,0:0:0:0:
64,192,285215,1,0,0:0:0:0:
320,192,285215,1,0,0:0:0:0:
192,192,285215,1,0,0:0:0:0:
320,192,285360,1,0,0:0:0:0:
64,192,285360,1,0,0:0:0:0:
448,192,285360,1,0,0:0:0:0:
320,192,285505,1,0,0:0:0:0:
192,192,285505,1,0,0:0:0:0:
448,192,285505,1,0,0:0:0:0:
192,192,285650,1,0,0:0:0:0:
64,192,285650,1,0,0:0:0:0:
448,192,285650,1,0,0:0:0:0:
320,192,285795,1,0,0:0:0:0:
64,192,285795,1,0,0:0:0:0:
448,192,285795,1,0,0:0:0:0:
320,192,285940,1,0,0:0:0:0:
192,192,285940,1,0,0:0:0:0:
448,192,285940,1,0,0:0:0:0:
64,192,286085,1,0,0:0:0:0:
192,192,286085,1,0,0:0:0:0:
320,192,286085,1,0,0:0:0:0:
64,192,286230,1,0,0:0:0:0:
320,192,286230,1,0,0:0:0:0:
448,192,286230,1,0,0:0:0:0:
64,192,286375,1,0,0:0:0:0:
192,192,286375,1,0,0:0:0:0:
320,192,286375,1,0,0:0:0:0:
192,192,286520,1,0,0:0:0:0:
320,192,286520,1,0,0:0:0:0:
448,192,286520,1,0,0:0:0:0:
64,192,286665,1,0,0:0:0:0:
320,192,286665,1,0,0:0:0:0:
448,192,286665,1,0,0:0:0:0:
192,192,286810,1,0,0:0:0:0:
64,192,286810,1,0,0:0:0:0:
448,192,286810,1,0,0:0:0:0:
64,192,286954,1,0,0:0:0:0:
192,192,286954,1,0,0:0:0:0:
320,192,286954,1,0,0:0:0:0:
448,192,287099,1,0,0:0:0:0:
192,192,287099,1,0,0:0:0:0:
320,192,287099,1,0,0:0:0:0:
448,192,287244,1,0,0:0:0:0:
192,192,287244,1,0,0:0:0:0:
64,192,287244,1,0,0:0:0:0:
448,192,287389,1,0,0:0:0:0:
64,192,287389,1,0,0:0:0:0:
320,192,287389,1,0,0:0:0:0:
64,192,287534,1,0,0:0:0:0:
320,192,287534,1,0,0:0:0:0:
192,192,287534,1,0,0:0:0:0:
192,192,287679,1,0,0:0:0:0:
64,192,287679,1,0,0:0:0:0:
448,192,287679,1,0,0:0:0:0:
320,192,287824,1,0,0:0:0:0:
64,192,287824,1,0,0:0:0:0:
192,192,287824,1,0,0:0:0:0:
320,192,287969,1,0,0:0:0:0:
192,192,287969,1,0,0:0:0:0:
448,192,287969,1,0,0:0:0:0:
64,192,288114,1,0,0:0:0:0:
192,192,288114,1,0,0:0:0:0:
448,192,288114,1,0,0:0:0:0:
320,192,288259,1,0,0:0:0:0:
64,192,288259,1,0,0:0:0:0:
448,192,288259,1,0,0:0:0:0:
192,192,288404,1,0,0:0:0:0:
320,192,288404,1,0,0:0:0:0:
64,192,288404,1,0,0:0:0:0:
448,192,288549,1,0,0:0:0:0:
64,192,288549,1,0,0:0:0:0:
192,192,288549,1,0,0:0:0:0:
192,192,288694,1,0,0:0:0:0:
64,192,288694,1,0,0:0:0:0:
320,192,288694,1,0,0:0:0:0:
448,192,288839,1,0,0:0:0:0:
192,192,288839,1,0,0:0:0:0:
320,192,288839,1,0,0:0:0:0:
448,192,288983,1,0,0:0:0:0:
192,192,288983,1,0,0:0:0:0:
64,192,288983,1,0,0:0:0:0:
448,192,289128,1,0,0:0:0:0:
64,192,289128,1,0,0:0:0:0:
320,192,289128,1,0,0:0:0:0:
64,192,289273,1,0,0:0:0:0:
320,192,289273,1,0,0:0:0:0:
192,192,289273,1,0,0:0:0:0:
192,192,289418,1,0,0:0:0:0:
64,192,289418,1,0,0:0:0:0:
448,192,289418,1,0,0:0:0:0:
320,192,289563,1,0,0:0:0:0:
64,192,289563,1,0,0:0:0:0:
192,192,289563,1,0,0:0:0:0:
320,192,289708,1,0,0:0:0:0:
192,192,289708,1,0,0:0:0:0:
448,192,289708,1,0,0:0:0:0:
64,192,289853,1,0,0:0:0:0:
192,192,289853,1,0,0:0:0:0:
448,192,289853,1,0,0:0:0:0:
320,192,289998,1,0,0:0:0:0:
64,192,289998,1,0,0:0:0:0:
448,192,289998,1,0,0:0:0:0:
192,192,290143,1,0,0:0:0:0:
320,192,290143,1,0,0:0:0:0:
64,192,290143,1,0,0:0:0:0:
448,192,290288,1,0,0:0:0:0:
64,192,290288,1,0,0:0:0:0:
192,192,290288,1,0,0:0:0:0:
192,192,290433,1,0,0:0:0:0:
64,192,290433,1,0,0:0:0:0:
320,192,290433,1,0,0:0:0:0:
320,192,290578,1,0,0:0:0:0:
192,192,290578,1,0,0:0:0:0:
448,192,290578,1,0,0:0:0:0:
448,192,290723,1,0,0:0:0:0:
64,192,290723,1,0,0:0:0:0:
192,192,290723,1,0,0:0:0:0:
448,192,290868,1,0,0:0:0:0:
320,192,290868,1,0,0:0:0:0:
64,192,290868,1,0,0:0:0:0:
320,192,291012,1,0,0:0:0:0:
64,192,291012,1,0,0:0:0:0:
192,192,291012,1,0,0:0:0:0:
448,192,291157,1,0,0:0:0:0:
320,192,291157,1,0,0:0:0:0:
192,192,291157,1,0,0:0:0:0:
64,192,291302,1,0,0:0:0:0:
448,192,291302,1,0,0:0:0:0:
192,192,291302,1,0,0:0:0:0:
448,192,291447,1,0,0:0:0:0:
320,192,291447,1,0,0:0:0:0:
192,192,291447,1,0,0:0:0:0:
64,192,291592,1,0,0:0:0:0:
448,192,291592,1,0,0:0:0:0:
320,192,291592,1,0,0:0:0:0:
448,192,291737,1,0,0:0:0:0:
320,192,291737,1,0,0:0:0:0:
192,192,291737,1,0,0:0:0:0:
64,192,291882,1,0,0:0:0:0:
448,192,291882,1,0,0:0:0:0:
192,192,291882,1,0,0:0:0:0:
192,192,292027,1,0,0:0:0:0:
64,192,292027,1,0,0:0:0:0:
320,192,292027,1,0,0:0:0:0:
448,192,292172,1,0,0:0:0:0:
64,192,292172,1,0,0:0:0:0:
192,192,292172,1,0,0:0:0:0:
448,192,292317,1,0,0:0:0:0:
192,192,292317,1,0,0:0:0:0:
320,192,292317,1,0,0:0:0:0:
64,192,292462,1,0,0:0:0:0:
320,192,292462,1,0,0:0:0:0:
448,192,292462,1,0,0:0:0:0:
448,192,292607,1,0,0:0:0:0:
320,192,292607,1,0,0:0:0:0:
192,192,292607,1,0,0:0:0:0:
448,192,292752,1,0,0:0:0:0:
192,192,292752,1,0,0:0:0:0:
64,192,292752,1,0,0:0:0:0:
64,192,292897,1,0,0:0:0:0:
320,192,292897,1,0,0:0:0:0:
192,192,292897,1,0,0:0:0:0:
64,192,293041,1,0,0:0:0:0:
320,192,293041,1,0,0:0:0:0:
448,192,293041,1,0,0:0:0:0:
448,192,293186,1,0,0:0:0:0:
64,192,293186,1,0,0:0:0:0:
192,192,293186,1,0,0:0:0:0:
192,192,293331,1,0,0:0:0:0:
448,192,293331,1,0,0:0:0:0:
320,192,293331,1,0,0:0:0:0:
64,192,293476,1,0,0:0:0:0:
192,192,293476,1,0,0:0:0:0:
320,192,293476,1,0,0:0:0:0:
192,192,293621,1,0,0:0:0:0:
64,192,293621,1,0,0:0:0:0:
448,192,293621,1,0,0:0:0:0:
448,192,293766,1,0,0:0:0:0:
64,192,293766,1,0,0:0:0:0:
320,192,293766,1,0,0:0:0:0:
448,192,293911,1,0,0:0:0:0:
192,192,293911,1,0,0:0:0:0:
320,192,293911,1,0,0:0:0:0:
64,192,294056,1,0,0:0:0:0:
448,192,294056,1,0,0:0:0:0:
320,192,294056,1,0,0:0:0:0:
192,192,294201,1,0,0:0:0:0:
64,192,294201,1,0,0:0:0:0:
448,192,294201,1,0,0:0:0:0:
320,192,294346,1,0,0:0:0:0:
448,192,294346,1,0,0:0:0:0:
192,192,294346,1,0,0:0:0:0:
320,192,294491,1,0,0:0:0:0:
192,192,294491,1,0,0:0:0:0:
64,192,294491,1,0,0:0:0:0:
448,192,294636,1,0,0:0:0:0:
192,192,294636,1,0,0:0:0:0:
64,192,294636,1,0,0:0:0:0:
192,192,294781,1,0,0:0:0:0:
64,192,294781,1,0,0:0:0:0:
320,192,294781,1,0,0:0:0:0:
320,192,294925,1,0,0:0:0:0:
448,192,294925,1,0,0:0:0:0:
64,192,294925,1,0,0:0:0:0:
448,192,295070,1,0,0:0:0:0:
64,192,295070,1,0,0:0:0:0:
192,192,295070,1,0,0:0:0:0:
192,192,295215,1,0,0:0:0:0:
448,192,295215,1,0,0:0:0:0:
320,192,295215,1,0,0:0:0:0:
64,192,295360,1,0,0:0:0:0:
192,192,295360,1,0,0:0:0:0:
320,192,295360,1,0,0:0:0:0:
64,192,295505,1,0,0:0:0:0:
192,192,295505,1,0,0:0:0:0:
448,192,295505,1,0,0:0:0:0:
320,192,295650,1,0,0:0:0:0:
64,192,295650,1,0,0:0:0:0:
192,192,295650,1,0,0:0:0:0:
64,192,295795,1,0,0:0:0:0:
448,192,295795,1,0,0:0:0:0:
320,192,295795,1,0,0:0:0:0:
192,192,295940,1,0,0:0:0:0:
64,192,295940,1,0,0:0:0:0:
448,192,295940,1,0,0:0:0:0:
320,192,296085,1,0,0:0:0:0:
448,192,296085,1,0,0:0:0:0:
192,192,296085,1,0,0:0:0:0:
320,192,296230,1,0,0:0:0:0:
192,192,296230,1,0,0:0:0:0:
64,192,296230,1,0,0:0:0:0:
448,192,296375,1,0,0:0:0:0:
192,192,296375,1,0,0:0:0:0:
64,192,296375,1,0,0:0:0:0:
192,192,296520,1,0,0:0:0:0:
64,192,296520,1,0,0:0:0:0:
320,192,296520,1,0,0:0:0:0:
320,192,296665,1,0,0:0:0:0:
448,192,296665,1,0,0:0:0:0:
64,192,296665,1,0,0:0:0:0:
448,192,296810,1,0,0:0:0:0:
64,192,296810,1,0,0:0:0:0:
192,192,296810,1,0,0:0:0:0:
192,192,296954,1,0,0:0:0:0:
448,192,296954,1,0,0:0:0:0:
320,192,296954,1,0,0:0:0:0:
64,192,297099,1,0,0:0:0:0:
192,192,297099,1,0,0:0:0:0:
320,192,297099,1,0,0:0:0:0:
64,192,297244,1,0,0:0:0:0:
192,192,297244,1,0,0:0:0:0:
448,192,297244,1,0,0:0:0:0:
320,192,297389,1,0,0:0:0:0:
64,192,297389,1,0,0:0:0:0:
192,192,297389,1,0,0:0:0:0:
64,192,297534,1,0,0:0:0:0:
448,192,297534,1,0,0:0:0:0:
320,192,297534,1,0,0:0:0:0:
192,192,297679,1,0,0:0:0:0:
320,192,297679,1,0,0:0:0:0:
448,192,297679,1,0,0:0:0:0:
192,192,297824,1,0,0:0:0:0:
320,192,297824,1,0,0:0:0:0:
64,192,297824,1,0,0:0:0:0:
64,192,297969,1,0,0:0:0:0:
320,192,297969,1,0,0:0:0:0:
448,192,297969,1,0,0:0:0:0:
448,192,298114,1,0,0:0:0:0:
192,192,298114,1,0,0:0:0:0:
320,192,298114,1,0,0:0:0:0:
192,192,298259,1,0,0:0:0:0:
320,192,298259,1,0,0:0:0:0:
64,192,298259,1,0,0:0:0:0:
448,192,298404,1,0,0:0:0:0:
64,192,298404,1,0,0:0:0:0:
320,192,298404,1,0,0:0:0:0:
448,192,298549,1,0,0:0:0:0:
192,192,298549,1,0,0:0:0:0:
320,192,298549,1,0,0:0:0:0:
448,192,298694,1,0,0:0:0:0:
64,192,298694,1,0,0:0:0:0:
192,192,298694,1,0,0:0:0:0:
448,192,298839,1,0,0:0:0:0:
320,192,298839,1,0,0:0:0:0:
64,192,298839,1,0,0:0:0:0:
320,192,298983,1,0,0:0:0:0:
192,192,298983,1,0,0:0:0:0:
448,192,298983,1,0,0:0:0:0:
64,192,299128,1,0,0:0:0:0:
320,192,299128,1,0,0:0:0:0:
192,192,299128,1,0,0:0:0:0:
320,192,299273,1,0,0:0:0:0:
64,192,299273,1,0,0:0:0:0:
448,192,299273,1,0,0:0:0:0:
64,192,299418,1,0,0:0:0:0:
192,192,299418,1,0,0:0:0:0:
192,192,299563,1,0,0:0:0:0:
448,192,299563,1,0,0:0:0:0:
320,192,299708,1,0,0:0:0:0:
64,192,299708,1,0,0:0:0:0:
448,192,299708,1,0,0:0:0:0:
192,192,299853,1,0,0:0:0:0:
448,192,299853,1,0,0:0:0:0:
64,192,299998,1,0,0:0:0:0:
320,192,299998,1,0,0:0:0:0:
64,192,300143,1,0,0:0:0:0:
448,192,300143,1,0,0:0:0:0:
192,192,300143,1,0,0:0:0:0:
64,192,300288,1,0,0:0:0:0:
448,192,300288,1,0,0:0:0:0:
192,192,300433,1,0,0:0:0:0:
320,192,300433,1,0,0:0:0:0:
448,192,300578,1,0,0:0:0:0:
64,192,300578,1,0,0:0:0:0:
320,192,300578,1,0,0:0:0:0:
448,192,300723,1,0,0:0:0:0:
192,192,300723,1,0,0:0:0:0:
320,192,300868,1,0,0:0:0:0:
64,192,300868,1,0,0:0:0:0:
448,192,301012,1,0,0:0:0:0:
320,192,301012,1,0,0:0:0:0:
64,192,301012,1,0,0:0:0:0:
448,192,301157,1,0,0:0:0:0:
64,192,301157,1,0,0:0:0:0:
192,192,301302,1,0,0:0:0:0:
320,192,301302,1,0,0:0:0:0:
320,192,301447,1,0,0:0:0:0:
64,192,301447,1,0,0:0:0:0:
448,192,301447,1,0,0:0:0:0:
192,192,301592,1,0,0:0:0:0:
448,192,301592,1,0,0:0:0:0:
64,192,301737,1,0,0:0:0:0:
320,192,301737,1,0,0:0:0:0:
64,192,301882,1,0,0:0:0:0:
320,192,301882,1,0,0:0:0:0:
448,192,301882,1,0,0:0:0:0:
448,192,302027,1,0,0:0:0:0:
64,192,302027,1,0,0:0:0:0:
192,192,302172,1,0,0:0:0:0:
448,192,302317,1,0,0:0:0:0:
64,192,302317,1,0,0:0:0:0:
320,192,302317,1,0,0:0:0:0:
448,192,302462,1,0,0:0:0:0:
192,192,302462,1,0,0:0:0:0:
320,192,302607,1,0,0:0:0:0:
448,192,302752,1,0,0:0:0:0:
320,192,302752,1,0,0:0:0:0:
64,192,302752,1,0,0:0:0:0:
448,192,302897,1,0,0:0:0:0:
64,192,302897,1,0,0:0:0:0:
192,192,303041,1,0,0:0:0:0:
64,192,303186,1,0,0:0:0:0:
448,192,303186,1,0,0:0:0:0:
192,192,303331,1,0,0:0:0:0:
320,192,303476,1,0,0:0:0:0:
64,192,303621,1,0,0:0:0:0:
448,192,303621,1,0,0:0:0:0:
448,192,303766,1,0,0:0:0:0:
64,192,303766,1,0,0:0:0:0:
192,192,303911,1,0,0:0:0:0:
64,192,304056,1,0,0:0:0:0:
320,192,304056,1,0,0:0:0:0:
448,192,304201,1,0,0:0:0:0:
320,192,304346,1,0,0:0:0:0:
64,192,304491,1,0,0:0:0:0:
192,192,304491,1,0,0:0:0:0:
448,192,304636,1,0,0:0:0:0:
192,192,304781,1,0,0:0:0:0:
320,192,304925,1,0,0:0:0:0:
448,192,304925,1,0,0:0:0:0:
192,192,305070,1,0,0:0:0:0:
64,192,305215,1,0,0:0:0:0:
192,192,305360,1,0,0:0:0:0:
448,192,305360,1,0,0:0:0:0:
320,192,305505,1,0,0:0:0:0:
448,192,305650,1,0,0:0:0:0:
192,192,305795,1,0,0:0:0:0:
64,192,305795,1,0,0:0:0:0:
320,192,305940,1,0,0:0:0:0:
320,192,306085,1,0,0:0:0:0:
64,192,306230,1,0,0:0:0:0:
320,192,306375,1,0,0:0:0:0:
320,192,306665,1,0,0:0:0:0:
320,192,306810,1,0,0:0:0:0:
320,192,306954,1,0,0:0:0:0:
64,192,307099,1,0,0:0:0:0:
320,192,307244,1,0,0:0:0:0:
448,192,307534,128,0,311012:0:0:0:0:
320,192,307969,128,0,311012:0:0:0:0:
192,192,311012,1,0,0:0:0:0:
64,192,311012,1,0,0:0:0:0:
192,192,311447,1,0,0:0:0:0:
64,192,311447,1,0,0:0:0:0:
448,192,311556,1,0,0:0:0:0:
192,192,311665,1,0,0:0:0:0:
320,192,311773,1,0,0:0:0:0:
448,192,311882,1,0,0:0:0:0:
64,192,311882,1,0,0:0:0:0:
192,192,311991,1,0,0:0:0:0:
320,192,312099,1,0,0:0:0:0:
448,192,312099,1,0,0:0:0:0:
192,192,312208,1,0,0:0:0:0:
64,192,312208,1,0,0:0:0:0:
448,192,312317,1,0,0:0:0:0:
192,192,312425,1,0,0:0:0:0:
320,192,312534,1,0,0:0:0:0:
64,192,312643,1,0,0:0:0:0:
448,192,312752,1,0,0:0:0:0:
320,192,312752,1,0,0:0:0:0:
192,192,312860,1,0,0:0:0:0:
64,192,312969,1,0,0:0:0:0:
320,192,312969,1,0,0:0:0:0:
448,192,313078,1,0,0:0:0:0:
192,192,313078,1,0,0:0:0:0:
320,192,313186,1,0,0:0:0:0:
64,192,313295,1,0,0:0:0:0:
448,192,313404,1,0,0:0:0:0:
192,192,313512,1,0,0:0:0:0:
320,192,313621,1,0,0:0:0:0:
448,192,313621,1,0,0:0:0:0:
64,192,313730,1,0,0:0:0:0:
320,192,313839,1,0,0:0:0:0:
448,192,313839,1,0,0:0:0:0:
192,192,313947,1,0,0:0:0:0:
64,192,313947,1,0,0:0:0:0:
320,192,314056,1,0,0:0:0:0:
448,192,314165,1,0,0:0:0:0:
64,192,314273,1,0,0:0:0:0:
192,192,314382,1,0,0:0:0:0:
448,192,314491,1,0,0:0:0:0:
320,192,314491,1,0,0:0:0:0:
64,192,314491,1,0,0:0:0:0:
192,192,314599,1,0,0:0:0:0:
448,192,314708,1,0,0:0:0:0:
320,192,314708,1,0,0:0:0:0:
192,192,314817,1,0,0:0:0:0:
64,192,314817,1,0,0:0:0:0:
448,192,314925,1,0,0:0:0:0:
320,192,315034,1,0,0:0:0:0:
64,192,315143,1,0,0:0:0:0:
448,192,315252,1,0,0:0:0:0:
320,192,315360,1,0,0:0:0:0:
192,192,315360,1,0,0:0:0:0:
448,192,315469,1,0,0:0:0:0:
192,192,315578,1,0,0:0:0:0:
64,192,315578,1,0,0:0:0:0:
320,192,315686,1,0,0:0:0:0:
448,192,315686,1,0,0:0:0:0:
64,192,315795,1,0,0:0:0:0:
192,192,315904,1,0,0:0:0:0:
320,192,316012,1,0,0:0:0:0:
448,192,316121,1,0,0:0:0:0:
320,192,316230,1,0,0:0:0:0:
64,192,316230,1,0,0:0:0:0:
192,192,316339,1,0,0:0:0:0:
320,192,316447,1,0,0:0:0:0:
448,192,316447,1,0,0:0:0:0:
192,192,316556,1,0,0:0:0:0:
64,192,316556,1,0,0:0:0:0:
448,192,316665,1,0,0:0:0:0:
64,192,316773,1,0,0:0:0:0:
448,192,316882,1,0,0:0:0:0:
320,192,316882,1,0,0:0:0:0:
192,192,316991,1,0,0:0:0:0:
448,192,317099,1,0,0:0:0:0:
320,192,317099,1,0,0:0:0:0:
64,192,317208,1,0,0:0:0:0:
448,192,317317,1,0,0:0:0:0:
320,192,317317,1,0,0:0:0:0:
192,192,317425,1,0,0:0:0:0:
64,192,317425,1,0,0:0:0:0:
448,192,317534,1,0,0:0:0:0:
320,192,317643,1,0,0:0:0:0:
192,192,317752,1,0,0:0:0:0:
64,192,317752,1,0,0:0:0:0:
448,192,317860,1,0,0:0:0:0:
192,192,317969,1,0,0:0:0:0:
64,192,317969,1,0,0:0:0:0:
320,192,318078,1,0,0:0:0:0:
192,192,318186,1,0,0:0:0:0:
64,192,318186,1,0,0:0:0:0:
320,192,318295,1,0,0:0:0:0:
448,192,318295,1,0,0:0:0:0:
192,192,318404,1,0,0:0:0:0:
64,192,318404,1,0,0:0:0:0:
448,192,318512,1,0,0:0:0:0:
64,192,318621,1,0,0:0:0:0:
192,192,318730,1,0,0:0:0:0:
320,192,318839,1,0,0:0:0:0:
448,192,318839,1,0,0:0:0:0:
64,192,318947,1,0,0:0:0:0:
192,192,319056,1,0,0:0:0:0:
448,192,319056,1,0,0:0:0:0:
320,192,319165,1,0,0:0:0:0:
64,192,319165,1,0,0:0:0:0:
448,192,319273,1,0,0:0:0:0:
192,192,319382,1,0,0:0:0:0:
64,192,319491,1,0,0:0:0:0:
320,192,319599,1,0,0:0:0:0:
448,192,319708,1,0,0:0:0:0:
192,192,319708,1,0,0:0:0:0:
64,192,319817,1,0,0:0:0:0:
320,192,319925,1,0,0:0:0:0:
448,192,319925,1,0,0:0:0:0:
192,192,320034,1,0,0:0:0:0:
64,192,320034,1,0,0:0:0:0:
448,192,320143,1,0,0:0:0:0:
320,192,320252,1,0,0:0:0:0:
64,192,320360,1,0,0:0:0:0:
448,192,320469,1,0,0:0:0:0:
320,192,320578,1,0,0:0:0:0:
192,192,320578,1,0,0:0:0:0:
64,192,320686,1,0,0:0:0:0:
448,192,320795,1,0,0:0:0:0:
320,192,320795,1,0,0:0:0:0:
192,192,320904,1,0,0:0:0:0:
64,192,320904,1,0,0:0:0:0:
320,192,321012,1,0,0:0:0:0:
448,192,321121,1,0,0:0:0:0:
64,192,321230,1,0,0:0:0:0:
448,192,321339,1,0,0:0:0:0:
320,192,321447,1,0,0:0:0:0:
192,192,321447,1,0,0:0:0:0:
64,192,321447,1,0,0:0:0:0:
448,192,321556,1,0,0:0:0:0:
192,192,321665,1,0,0:0:0:0:
64,192,321665,1,0,0:0:0:0:
320,192,321773,1,0,0:0:0:0:
448,192,321773,1,0,0:0:0:0:
192,192,321882,1,0,0:0:0:0:
64,192,321991,1,0,0:0:0:0:
320,192,322099,1,0,0:0:0:0:
64,192,322208,1,0,0:0:0:0:
448,192,322317,1,0,0:0:0:0:
320,192,322317,1,0,0:0:0:0:
192,192,322425,1,0,0:0:0:0:
320,192,322534,1,0,0:0:0:0:
64,192,322534,1,0,0:0:0:0:
448,192,322643,1,0,0:0:0:0:
192,192,322643,1,0,0:0:0:0:
320,192,322752,1,0,0:0:0:0:
64,192,322860,1,0,0:0:0:0:
448,192,322969,1,0,0:0:0:0:
192,192,323078,1,0,0:0:0:0:
320,192,323186,1,0,0:0:0:0:
448,192,323186,1,0,0:0:0:0:
64,192,323295,1,0,0:0:0:0:
320,192,323404,1,0,0:0:0:0:
192,192,323404,1,0,0:0:0:0:
448,192,323512,1,0,0:0:0:0:
64,192,323512,1,0,0:0:0:0:
320,192,323621,1,0,0:0:0:0:
192,192,323730,1,0,0:0:0:0:
64,192,323839,1,0,0:0:0:0:
320,192,323947,1,0,0:0:0:0:
192,192,324056,1,0,0:0:0:0:
64,192,324056,1,0,0:0:0:0:
448,192,324165,1,0,0:0:0:0:
320,192,324273,1,0,0:0:0:0:
64,192,324273,1,0,0:0:0:0:
192,192,324382,1,0,0:0:0:0:
448,192,324382,1,0,0:0:0:0:
320,192,324491,1,0,0:0:0:0:
64,192,324599,1,0,0:0:0:0:
192,192,324708,1,0,0:0:0:0:
320,192,324817,1,0,0:0:0:0:
448,192,324925,1,0,0:0:0:0:
192,192,324925,1,0,0:0:0:0:
64,192,324925,1,0,0:0:0:0:
192,192,325143,1,0,0:0:0:0:
448,192,325143,1,0,0:0:0:0:
320,192,325252,1,0,0:0:0:0:
64,192,325252,1,0,0:0:0:0:
192,192,325360,1,0,0:0:0:0:
448,192,325360,1,0,0:0:0:0:
320,192,325469,1,0,0:0:0:0:
448,192,325578,1,0,0:0:0:0:
192,192,325686,1,0,0:0:0:0:
320,192,325795,1,0,0:0:0:0:
448,192,325795,1,0,0:0:0:0:
64,192,325795,1,0,0:0:0:0:
192,192,325904,1,0,0:0:0:0:
320,192,326012,1,0,0:0:0:0:
448,192,326012,1,0,0:0:0:0:
192,192,326121,1,0,0:0:0:0:
64,192,326121,1,0,0:0:0:0:
448,192,326230,1,0,0:0:0:0:
320,192,326339,1,0,0:0:0:0:
64,192,326447,1,0,0:0:0:0:
448,192,326556,1,0,0:0:0:0:
320,192,326665,1,0,0:0:0:0:
192,192,326665,1,0,0:0:0:0:
64,192,326665,1,0,0:0:0:0:
448,192,326773,1,0,0:0:0:0:
192,192,326882,1,0,0:0:0:0:
64,192,326882,1,0,0:0:0:0:
320,192,326991,1,0,0:0:0:0:
448,192,326991,1,0,0:0:0:0:
64,192,327099,1,0,0:0:0:0:
448,192,327208,1,0,0:0:0:0:
192,192,327317,1,0,0:0:0:0:
320,192,327425,1,0,0:0:0:0:
448,192,327534,1,0,0:0:0:0:
64,192,327534,1,0,0:0:0:0:
192,192,327534,1,0,0:0:0:0:
320,192,327643,1,0,0:0:0:0:
192,192,327752,1,0,0:0:0:0:
64,192,327752,1,0,0:0:0:0:
320,192,327860,1,0,0:0:0:0:
448,192,327860,1,0,0:0:0:0:
64,192,327969,1,0,0:0:0:0:
320,192,328078,1,0,0:0:0:0:
448,192,328078,1,0,0:0:0:0:
192,192,328186,1,0,0:0:0:0:
320,192,328295,1,0,0:0:0:0:
448,192,328404,1,0,0:0:0:0:
64,192,328404,1,0,0:0:0:0:
192,192,328404,1,0,0:0:0:0:
320,192,328512,1,0,0:0:0:0:
64,192,328621,1,0,0:0:0:0:
448,192,328621,1,0,0:0:0:0:
192,192,328730,1,0,0:0:0:0:
320,192,328730,1,0,0:0:0:0:
64,192,328839,1,0,0:0:0:0:
320,192,328947,1,0,0:0:0:0:
448,192,329056,1,0,0:0:0:0:
192,192,329165,1,0,0:0:0:0:
64,192,329273,1,0,0:0:0:0:
320,192,329273,1,0,0:0:0:0:
448,192,329273,1,0,0:0:0:0:
192,192,329382,1,0,0:0:0:0:
320,192,329491,1,0,0:0:0:0:
448,192,329491,1,0,0:0:0:0:
192,192,329599,1,0,0:0:0:0:
64,192,329599,1,0,0:0:0:0:
448,192,329708,1,0,0:0:0:0:
192,192,329817,1,0,0:0:0:0:
64,192,329925,1,0,0:0:0:0:
320,192,330034,1,0,0:0:0:0:
192,192,330143,1,0,0:0:0:0:
64,192,330143,1,0,0:0:0:0:
448,192,330143,1,0,0:0:0:0:
320,192,330252,1,0,0:0:0:0:
64,192,330360,1,0,0:0:0:0:
448,192,330360,1,0,0:0:0:0:
320,192,330469,1,0,0:0:0:0:
192,192,330469,1,0,0:0:0:0:
64,192,330578,1,0,0:0:0:0:
448,192,330686,1,0,0:0:0:0:
192,192,330795,1,0,0:0:0:0:
64,192,330795,1,0,0:0:0:0:
320,192,330904,1,0,0:0:0:0:
64,192,331012,1,0,0:0:0:0:
192,192,331012,1,0,0:0:0:0:
448,192,331121,1,0,0:0:0:0:
192,192,331230,1,0,0:0:0:0:
64,192,331230,1,0,0:0:0:0:
320,192,331339,1,0,0:0:0:0:
448,192,331447,1,0,0:0:0:0:
64,192,331556,1,0,0:0:0:0:
320,192,331665,1,0,0:0:0:0:
448,192,331665,1,0,0:0:0:0:
192,192,331773,1,0,0:0:0:0:
448,192,331882,1,0,0:0:0:0:
320,192,331882,1,0,0:0:0:0:
64,192,331991,1,0,0:0:0:0:
320,192,332099,1,0,0:0:0:0:
448,192,332099,1,0,0:0:0:0:
192,192,332208,1,0,0:0:0:0:
64,192,332208,1,0,0:0:0:0:
320,192,332317,1,0,0:0:0:0:
448,192,332317,1,0,0:0:0:0:
64,192,332425,1,0,0:0:0:0:
192,192,332534,1,0,0:0:0:0:
320,192,332643,1,0,0:0:0:0:
192,192,332752,1,0,0:0:0:0:
64,192,332752,1,0,0:0:0:0:
448,192,332752,1,0,0:0:0:0:
320,192,332860,1,0,0:0:0:0:
64,192,332969,1,0,0:0:0:0:
192,192,332969,1,0,0:0:0:0:
320,192,333078,1,0,0:0:0:0:
448,192,333078,1,0,0:0:0:0:
192,192,333186,1,0,0:0:0:0:
64,192,333295,1,0,0:0:0:0:
448,192,333404,1,0,0:0:0:0:
192,192,333512,1,0,0:0:0:0:
64,192,333621,1,0,0:0:0:0:
320,192,333621,1,0,0:0:0:0:
448,192,333621,1,0,0:0:0:0:
192,192,333730,1,0,0:0:0:0:
320,192,333839,1,0,0:0:0:0:
64,192,333839,1,0,0:0:0:0:
192,192,333947,1,0,0:0:0:0:
448,192,333947,1,0,0:0:0:0:
320,192,334056,1,0,0:0:0:0:
64,192,334165,1,0,0:0:0:0:
448,192,334273,1,0,0:0:0:0:
192,192,334382,1,0,0:0:0:0:
64,192,334491,1,0,0:0:0:0:
320,192,334491,1,0,0:0:0:0:
448,192,334491,1,0,0:0:0:0:
192,192,334599,1,0,0:0:0:0:
320,192,334708,1,0,0:0:0:0:
448,192,334708,1,0,0:0:0:0:
64,192,334817,1,0,0:0:0:0:
192,192,334817,1,0,0:0:0:0:
448,192,334925,1,0,0:0:0:0:
64,192,335034,1,0,0:0:0:0:
320,192,335034,1,0,0:0:0:0:
192,192,335143,1,0,0:0:0:0:
448,192,335252,1,0,0:0:0:0:
320,192,335360,1,0,0:0:0:0:
192,192,335360,1,0,0:0:0:0:
64,192,335360,1,0,0:0:0:0:
448,192,335469,1,0,0:0:0:0:
192,192,335578,1,0,0:0:0:0:
320,192,335578,1,0,0:0:0:0:
64,192,335686,1,0,0:0:0:0:
448,192,335686,1,0,0:0:0:0:
192,192,335795,1,0,0:0:0:0:
320,192,335904,1,0,0:0:0:0:
64,192,336012,1,0,0:0:0:0:
320,192,336121,1,0,0:0:0:0:
192,192,336230,1,0,0:0:0:0:
64,192,336230,1,0,0:0:0:0:
448,192,336230,1,0,0:0:0:0:
320,192,336339,1,0,0:0:0:0:
192,192,336447,1,0,0:0:0:0:
448,192,336447,1,0,0:0:0:0:
64,192,336556,1,0,0:0:0:0:
320,192,336556,1,0,0:0:0:0:
192,192,336665,1,0,0:0:0:0:
448,192,336773,1,0,0:0:0:0:
192,192,336882,1,0,0:0:0:0:
320,192,336991,1,0,0:0:0:0:
64,192,337099,1,0,0:0:0:0:
192,192,337099,1,0,0:0:0:0:
448,192,337099,1,0,0:0:0:0:
320,192,337208,1,0,0:0:0:0:
192,192,337317,1,0,0:0:0:0:
64,192,337317,1,0,0:0:0:0:
320,192,337425,1,0,0:0:0:0:
448,192,337425,1,0,0:0:0:0:
64,192,337534,1,0,0:0:0:0:
320,192,337643,1,0,0:0:0:0:
192,192,337752,1,0,0:0:0:0:
448,192,337860,1,0,0:0:0:0:
64,192,337969,1,0,0:0:0:0:
192,192,337969,1,0,0:0:0:0:
320,192,337969,1,0,0:0:0:0:
448,192,338078,1,0,0:0:0:0:
64,192,338186,1,0,0:0:0:0:
320,192,338186,1,0,0:0:0:0:
192,192,338295,1,0,0:0:0:0:
448,192,338295,1,0,0:0:0:0:
64,192,338404,1,0,0:0:0:0:
320,192,338512,1,0,0:0:0:0:
448,192,338512,1,0,0:0:0:0:
192,192,338621,1,0,0:0:0:0:
64,192,338730,1,0,0:0:0:0:
192,192,338839,1,0,0:0:0:0:
320,192,338839,1,0,0:0:0:0:
448,192,338839,1,0,0:0:0:0:
192,192,339056,1,0,0:0:0:0:
320,192,339165,1,0,0:0:0:0:
192,192,339273,1,0,0:0:0:0:
64,192,339273,1,0,0:0:0:0:
448,192,339273,1,0,0:0:0:0:
320,192,339382,1,0,0:0:0:0:
64,192,339491,1,0,0:0:0:0:
192,192,339599,1,0,0:0:0:0:
64,192,339708,1,0,0:0:0:0:
320,192,339708,1,0,0:0:0:0:
448,192,339708,1,0,0:0:0:0:
192,192,339817,1,0,0:0:0:0:
448,192,339925,1,0,0:0:0:0:
320,192,339925,1,0,0:0:0:0:
192,192,340034,1,0,0:0:0:0:
64,192,340034,1,0,0:0:0:0:
448,192,340143,1,0,0:0:0:0:
192,192,340252,1,0,0:0:0:0:
320,192,340360,1,0,0:0:0:0:
64,192,340469,1,0,0:0:0:0:
192,192,340578,1,0,0:0:0:0:
320,192,340578,1,0,0:0:0:0:
448,192,340578,1,0,0:0:0:0:
64,192,340686,1,0,0:0:0:0:
448,192,340795,1,0,0:0:0:0:
320,192,340904,1,0,0:0:0:0:
64,192,341012,1,0,0:0:0:0:
192,192,341012,1,0,0:0:0:0:
448,192,341121,1,0,0:0:0:0:
192,192,341230,1,0,0:0:0:0:
320,192,341339,1,0,0:0:0:0:
64,192,341447,1,0,0:0:0:0:
192,192,341447,1,0,0:0:0:0:
448,192,341447,1,0,0:0:0:0:
320,192,341556,1,0,0:0:0:0:
64,192,341665,1,0,0:0:0:0:
192,192,341773,1,0,0:0:0:0:
320,192,341882,1,0,0:0:0:0:
448,192,341882,1,0,0:0:0:0:
64,192,341991,1,0,0:0:0:0:
192,192,341991,1,0,0:0:0:0:
320,192,342099,1,0,0:0:0:0:
192,192,342208,1,0,0:0:0:0:
64,192,342317,1,0,0:0:0:0:
320,192,342317,1,0,0:0:0:0:
448,192,342317,1,0,0:0:0:0:
192,192,342425,1,0,0:0:0:0:
448,192,342534,1,0,0:0:0:0:
320,192,342643,1,0,0:0:0:0:
192,192,342752,1,0,0:0:0:0:
64,192,342752,1,0,0:0:0:0:
448,192,342860,1,0,0:0:0:0:
64,192,342969,1,0,0:0:0:0:
192,192,343078,1,0,0:0:0:0:
64,192,343186,1,0,0:0:0:0:
320,192,343186,1,0,0:0:0:0:
448,192,343186,1,0,0:0:0:0:
192,192,343295,1,0,0:0:0:0:
448,192,343404,1,0,0:0:0:0:
320,192,343512,1,0,0:0:0:0:
64,192,343621,1,0,0:0:0:0:
192,192,343621,1,0,0:0:0:0:
448,192,343730,1,0,0:0:0:0:
192,192,343839,1,0,0:0:0:0:
320,192,343947,1,0,0:0:0:0:
192,192,344056,1,0,0:0:0:0:
64,192,344056,1,0,0:0:0:0:
448,192,344056,1,0,0:0:0:0:
320,192,344165,1,0,0:0:0:0:
64,192,344273,1,0,0:0:0:0:
192,192,344382,1,0,0:0:0:0:
320,192,344491,1,0,0:0:0:0:
448,192,344491,1,0,0:0:0:0:
64,192,344599,1,0,0:0:0:0:
448,192,344708,1,0,0:0:0:0:
64,192,344817,1,0,0:0:0:0:
192,192,344925,1,0,0:0:0:0:
320,192,344925,1,0,0:0:0:0:
448,192,344925,1,0,0:0:0:0:
64,192,345034,1,0,0:0:0:0:
448,192,345143,1,0,0:0:0:0:
320,192,345252,1,0,0:0:0:0:
192,192,345360,1,0,0:0:0:0:
64,192,345360,1,0,0:0:0:0:
448,192,345469,1,0,0:0:0:0:
320,192,345469,1,0,0:0:0:0:
64,192,345578,1,0,0:0:0:0:
320,192,345686,1,0,0:0:0:0:
192,192,345795,1,0,0:0:0:0:
64,192,345795,1,0,0:0:0:0:
448,192,345795,1,0,0:0:0:0:
320,192,345904,1,0,0:0:0:0:
64,192,346012,1,0,0:0:0:0:
192,192,346012,1,0,0:0:0:0:
320,192,346121,1,0,0:0:0:0:
448,192,346121,1,0,0:0:0:0:
192,192,346230,1,0,0:0:0:0:
64,192,346230,1,0,0:0:0:0:
448,192,346339,1,0,0:0:0:0:
192,192,346447,1,0,0:0:0:0:
320,192,346556,1,0,0:0:0:0:
192,192,346665,1,0,0:0:0:0:
64,192,346665,1,0,0:0:0:0:
448,192,346665,1,0,0:0:0:0:
320,192,346773,1,0,0:0:0:0:
64,192,346882,1,0,0:0:0:0:
192,192,346991,1,0,0:0:0:0:
448,192,347099,1,0,0:0:0:0:
320,192,347099,1,0,0:0:0:0:
64,192,347208,1,0,0:0:0:0:
448,192,347317,1,0,0:0:0:0:
320,192,347425,1,0,0:0:0:0:
192,192,347534,1,0,0:0:0:0:
64,192,347534,1,0,0:0:0:0:
448,192,347534,1,0,0:0:0:0:
320,192,347643,1,0,0:0:0:0:
64,192,347752,1,0,0:0:0:0:
192,192,347860,1,0,0:0:0:0:
320,192,347969,1,0,0:0:0:0:
448,192,347969,1,0,0:0:0:0:
64,192,348078,1,0,0:0:0:0:
448,192,348186,1,0,0:0:0:0:
192,192,348295,1,0,0:0:0:0:
64,192,348404,1,0,0:0:0:0:
448,192,348404,1,0,0:0:0:0:
320,192,348404,1,0,0:0:0:0:
192,192,348512,1,0,0:0:0:0:
448,192,348621,1,0,0:0:0:0:
320,192,348730,1,0,0:0:0:0:
64,192,348839,1,0,0:0:0:0:
192,192,348839,1,0,0:0:0:0:
320,192,348947,1,0,0:0:0:0:
448,192,348947,1,0,0:0:0:0:
64,192,349056,1,0,0:0:0:0:
320,192,349165,1,0,0:0:0:0:
192,192,349273,1,0,0:0:0:0:
448,192,349273,1,0,0:0:0:0:
64,192,349382,1,0,0:0:0:0:
320,192,349491,1,0,0:0:0:0:
448,192,349491,1,0,0:0:0:0:
192,192,349599,1,0,0:0:0:0:
64,192,349599,1,0,0:0:0:0:
448,192,349708,1,0,0:0:0:0:
320,192,349708,1,0,0:0:0:0:
64,192,349817,1,0,0:0:0:0:
320,192,349925,1,0,0:0:0:0:
192,192,350034,1,0,0:0:0:0:
448,192,350143,1,0,0:0:0:0:
64,192,350143,1,0,0:0:0:0:
320,192,350252,1,0,0:0:0:0:
192,192,350360,1,0,0:0:0:0:
64,192,350469,1,0,0:0:0:0:
448,192,350578,1,0,0:0:0:0:
320,192,350578,1,0,0:0:0:0:
192,192,350686,1,0,0:0:0:0:
320,192,350795,1,0,0:0:0:0:
64,192,350904,1,0,0:0:0:0:
192,192,351012,1,0,0:0:0:0:
448,192,351012,1,0,0:0:0:0:
320,192,351121,1,0,0:0:0:0:
64,192,351230,1,0,0:0:0:0:
192,192,351230,1,0,0:0:0:0:
448,192,351339,1,0,0:0:0:0:
320,192,351339,1,0,0:0:0:0:
64,192,351447,1,0,0:0:0:0:
192,192,351447,1,0,0:0:0:0:
448,192,351556,1,0,0:0:0:0:
192,192,351665,1,0,0:0:0:0:
320,192,351773,1,0,0:0:0:0:
64,192,351882,1,0,0:0:0:0:
448,192,351882,1,0,0:0:0:0:
192,192,351991,1,0,0:0:0:0:
448,192,352099,1,0,0:0:0:0:
64,192,352208,1,0,0:0:0:0:
192,192,352317,1,0,0:0:0:0:
320,192,352317,1,0,0:0:0:0:
448,192,352425,1,0,0:0:0:0:
64,192,352534,1,0,0:0:0:0:
320,192,352643,1,0,0:0:0:0:
192,192,352752,1,0,0:0:0:0:
448,192,352752,1,0,0:0:0:0:
320,192,353186,1,0,0:0:0:0:
