osu file format v14

[General]
AudioFilename: audio.mp3
AudioLeadIn: 0
PreviewTime: 6320
Countdown: 0
SampleSet: Soft
StackLeniency: 0.4
Mode: 0
LetterboxInBreaks: 0
WidescreenStoryboard: 0

[Editor]
DistanceSpacing: 0.4
BeatDivisor: 4
GridSize: 32
TimelineZoom: 1

[Metadata]
Title:Gokujo. no Jouken (TV Size)
TitleUnicode:ゴクジョッ。のジョーケン♡ (TV Size)
Artist:Hikasa Youko, Uchida Maaya, Taketatsu Ayana, Akesaka Satomi
ArtistUnicode:日笠陽子, 内田真礼, 竹達彩奈, 明坂聡美
Creator:Hanasaka Yui
Version:Overflowing Emotions
Source:ゴクジョッ。~極楽院女子高寮物語~
Tags:japanese anime ringtone stratos rugmunch himekawa 赤羽亜矢 七里愛 栗橋南 大和田円 Oowada Madoka Kurihashi Minami Akaba Aya Nanasato Ai impurepug azunyan- xexyz
BeatmapID:1989857
BeatmapSetID:953015

[Difficulty]
HPDrainRate:5
CircleSize:4.4
OverallDifficulty:9.4
ApproachRate:9.2
SliderMultiplier:1.4
SliderTickRate:1

[Events]
//Background and Video events
0,0,"cute girl field pog.jpg",0,0
//Break Periods
//Storyboard Layer 0 (Background)
//Storyboard Layer 1 (Fail)
//Storyboard Layer 2 (Pass)
//Storyboard Layer 3 (Foreground)
//Storyboard Sound Samples

[TimingPoints]
326,332.963374028857,4,2,1,30,1,0
1657,-83.3333333333333,4,2,1,45,0,0
6152,-83.3333333333333,4,2,1,30,0,0
6985,-71.4285714285714,4,2,1,45,0,1
12312,-71.4285714285714,4,2,1,45,0,0
12479,-83.3333333333333,4,2,1,45,0,0
17640,-71.4285714285714,4,2,1,45,0,1
22967,-71.4285714285714,4,2,1,45,0,0
29959,-71.4285714285714,4,2,1,20,0,0
30459,-71.4285714285714,4,2,1,5,0,0

[Colours]
Combo1 : 179,102,176
Combo2 : 241,182,250
Combo3 : 215,132,204

[HitObjects]
161,48,326,5,2,3:2:0:0:
155,75,658,1,2,3:2:0:0:
147,102,991,1,2,3:2:0:0:
140,130,1324,1,2,3:2:0:0:
242,188,1657,6,0,P|237:143|263:76,1,83.9999974365235,4|0,0:0|0:0,0:0:0:0:
393,40,1990,1,10,0:0:0:0:
365,212,2157,1,2,0:0:0:0:
320,9,2323,2,0,P|314:56|315:100,1,83.9999974365235,2|0,3:2|3:0,0:0:0:0:
386,238,2656,1,10,0:0:0:0:
460,79,2823,1,2,0:0:0:0:
317,187,2989,6,0,P|358:165|411:163,1,83.9999974365235,6|0,0:0|0:0,0:0:0:0:
498,320,3322,1,10,0:0:0:0:
325,294,3489,1,2,0:0:0:0:
512,245,3655,2,0,P|475:224|434:218,1,83.9999974365235,2|0,3:2|3:0,0:0:0:0:
276,359,3988,1,10,0:0:0:0:
198,172,4155,1,2,0:0:0:0:
198,172,4321,6,0,P|202:213|188:252,1,83.9999974365235,4|0,0:0|0:0,0:0:0:0:
81,369,4654,1,10,0:0:0:0:
46,191,4821,1,10,0:0:0:0:
196,329,4987,1,10,0:0:0:0:
11,290,5153,1,10,0:0:0:0:
122,108,5320,1,10,0:0:0:0:
202,370,5486,1,10,0:0:0:0:
43,66,5653,1,6,0:0:0:0:
301,48,6152,6,8,P|306:31|306:4,2,41.9999987182618
234,151,6485,1,8,0:0:0:0:
234,151,6569,1,8,0:0:0:0:
234,151,6652,1,10,0:0:0:0:
123,12,6818,2,8,L|111:67,1,41.9999987182618,10|8,0:0|0:0,0:0:0:0:
12,225,6985,5,14,0:0:0:0:
176,90,7151,1,0,3:0:0:0:
182,306,7318,5,10,0:0:0:0:
70,143,7484,1,2,3:2:0:0:
121,376,7651,5,8,0:0:0:0:
262,185,7817,1,2,3:2:0:0:
367,378,7984,5,8,0:0:0:0:
172,217,8150,1,2,3:2:0:0:
172,217,8233,1,0,3:0:0:0:
172,217,8317,5,12,0:0:0:0:
465,260,8483,1,0,3:0:0:0:
185,319,8650,5,8,0:0:0:0:
455,170,8816,1,0,3:0:0:0:
157,109,8983,5,8,0:0:0:0:
382,241,9149,1,0,3:0:0:0:
266,22,9316,5,10,0:0:0:0:
307,292,9482,1,2,3:2:0:0:
505,64,9648,2,0,P|457:72|416:99,1,97.9999970092774,6|0,0:0|3:0,0:0:0:0:
377,258,9981,5,10,0:0:0:0:
277,51,10148,1,2,3:2:0:0:
175,235,10314,5,8,0:0:0:0:
355,25,10481,1,2,3:2:0:0:
276,260,10647,5,8,0:0:0:0:
166,30,10814,1,2,3:2:0:0:
166,30,10897,1,0,3:0:0:0:
166,30,10980,1,8,3:2:0:0:
52,220,11147,5,2,0:0:0:0:
353,178,11313,1,8,0:0:0:0:
103,96,11480,2,0,P|56:82|7:80,1,97.9999970092774,6|8,0:0|0:0,0:0:0:0:
256,251,11813,2,0,P|352:236|444:268,1,195.999994018555,2|0,3:2|0:0,0:0:0:0:
104,382,12312,6,0,L|96:269,1,97.9999970092774,4|0,0:0|0:0,0:0:0:0:
177,105,12645,2,0,P|184:150|172:207,1,83.9999974365235,10|0,0:0|0:0,0:0:0:0:
4,337,12978,2,0,P|-3:292|9:235,1,83.9999974365235,2|0,3:2|0:0,0:0:0:0:
80,105,13311,1,10,0:0:0:0:
95,370,13478,6,0,P|88:325|100:268,1,83.9999974365235,6|0,0:0|0:0,0:0:0:0:
291,295,13811,2,0,P|245:290|193:263,1,83.9999974365235,2|8,3:2|0:0,0:0:0:0:
166,80,14143,2,0,L|186:169,1,83.9999974365235,2|0,3:2|0:0,0:0:0:0:
258,374,14476,1,2,3:2:0:0:
269,203,14643,1,10,0:0:0:0:
93,287,14809,1,2,0:0:0:0:
354,356,14976,6,0,L|376:204,2,125.999996154785,6|2|2,0:0|0:0|0:0,0:0:0:0:
455,202,15642,2,0,P|463:244|455:284,1,83.9999974365235,10|0,3:2|0:0,0:0:0:0:
279,302,15975,1,8,0:0:0:0:
470,369,16141,1,8,0:0:0:0:
218,223,16308,6,0,P|259:215|299:223,1,83.9999974365235,6|8,0:0|0:0,0:0:0:0:
455,284,16641,1,8,0:0:0:0:
234,363,16807,1,8,0:0:0:0:
234,363,16890,1,8,0:0:0:0:
234,363,16974,1,4,0:0:0:0:
396,187,17140,1,8,0:0:0:0:
354,356,17307,1,0,3:0:0:0:
299,223,17473,1,4,3:0:0:0:
188,346,17640,5,6,0:0:0:0:
383,277,17806,1,0,3:0:0:0:
153,252,17973,5,10,0:0:0:0:
352,346,18139,1,2,3:2:0:0:
75,315,18306,5,8,0:0:0:0:
332,228,18472,1,2,3:2:0:0:
43,187,18638,5,8,0:0:0:0:
254,306,18805,2,0,L|271:255,1,48.9999985046387,2|0,3:2|3:0,3:0:0:0:
341,60,18971,5,12,0:0:0:0:
275,315,19138,1,0,3:0:0:0:
183,78,19304,5,8,0:0:0:0:
383,278,19471,1,0,3:0:0:0:
359,35,19637,5,8,0:0:0:0:
198,254,19804,1,0,3:0:0:0:
473,258,19970,5,10,0:0:0:0:
203,146,20137,1,2,3:2:0:0:
487,103,20303,2,0,P|419:98|368:120,1,97.9999970092774,14|0,0:0|3:0,0:0:0:0:
218,201,20636,5,10,0:0:0:0:
488,217,20803,1,2,3:2:0:0:
291,34,20969,5,8,0:0:0:0:
340,298,21136,1,2,3:2:0:0:
483,31,21302,5,8,0:0:0:0:
232,117,21469,2,0,L|307:125,1,48.9999985046387,2|0,3:2|3:0,0:0:0:0:
508,229,21635,5,12,0:0:0:0:
240,155,21802,1,0,3:0:0:0:
498,128,21968,5,10,0:0:0:0:
212,241,22135,1,2,3:2:0:0:
384,106,22301,5,10,0:0:0:0:
321,278,22468,1,0,3:0:0:0:
206,62,22634,1,8,0:0:0:0:
205,346,22801,1,10,0:2:0:0:
205,346,22884,1,8,0:0:0:0:
205,346,22967,6,0,P|221:265|167:135,1,195.999994018555,4|8,0:0|0:0,0:0:0:0:
75,88,23466,1,0,3:0:0:0:
75,88,23633,1,2,3:2:0:0:
262,118,23799,1,2,0:0:0:0:
16,181,23966,1,10,0:0:0:0:
158,0,24132,2,0,P|162:49|151:96,1,97.9999970092774,6|0,3:2|0:0,0:0:0:0:
54,268,24465,1,2,3:2:0:0:
0,41,24632,1,8,0:0:0:0:
248,238,24798,6,0,P|155:210|54:266,1,195.999994018555,4|0,0:0|3:0,0:0:0:0:
60,380,25298,1,10,0:0:0:0:
8,178,25464,1,2,0:0:0:0:
159,376,25631,6,0,L|163:272,1,97.9999970092774,4|0,3:2|3:0,0:0:0:0:
274,142,25964,2,0,L|277:239,1,97.9999970092774,8|0,3:2|3:0,0:0:0:0:
359,378,26297,1,0,3:0:0:0:
359,378,26463,1,0,3:0:0:0:
431,249,26630,1,8,3:2:0:0:
431,249,26796,1,0,3:0:0:0:
197,150,26963,5,12,0:0:0:0:
500,187,27129,1,0,3:0:0:0:
162,239,27296,1,8,0:0:0:0:
459,106,27462,1,0,3:0:0:0:
209,360,27628,5,8,0:0:0:0:
265,23,27795,2,8,L|282:90,1,48.9999985046387
381,374,27961,1,8,0:0:0:0:
9,193,28128,1,8,0:0:0:0:
438,18,28294,5,4,0:0:0:0:
96,303,28627,1,4,0:0:0:0:
416,152,28960,5,8,0:0:0:0:
64,167,29127,1,8,0:0:0:0:
355,23,29293,1,8,0:0:0:0:
84,346,29460,1,12,0:0:0:0:
256,192,29543,12,0,30459,0:0:0:0:
