osu file format v14

[General]
AudioFilename: audio.mp3
AudioLeadIn: 0
PreviewTime: 58728
Countdown: 0
SampleSet: Soft
StackLeniency: 0.5
Mode: 0
LetterboxInBreaks: 0
WidescreenStoryboard: 1

[Editor]
DistanceSpacing: 1.5
BeatDivisor: 4
GridSize: 4
TimelineZoom: 1

[Metadata]
Title:Utsukushiki Zankoku na Sekai (TV Size)
TitleUnicode:美しき残酷な世界 (TV Size)
Artist:Hikasa Youko
ArtistUnicode:日笠陽子
Creator:Yudragen
Version:Normal
Source:進撃の巨人
Tags:shingeki no kyojin attack on titan chaoticred yoko anime japanese ed ending
BeatmapID:2107222
BeatmapSetID:984990

[Difficulty]
HPDrainRate:3
CircleSize:2.5
OverallDifficulty:4
ApproachRate:5
SliderMultiplier:2
SliderTickRate:1

[Events]
//Background and Video events
0,0,"Konachan.com - 169255 sample.jpg",0,0
//Break Periods
//Storyboard Layer 0 (Background)
//Storyboard Layer 1 (Fail)
//Storyboard Layer 2 (Pass)
//Storyboard Layer 3 (Foreground)
//Storyboard Layer 4 (Overlay)
//Storyboard Sound Samples

[TimingPoints]
156,705.882352941176,4,2,1,15,1,0
156,-125,4,2,1,15,0,0
14273,-125,4,2,1,30,0,0
36861,-114.942528735632,4,2,1,40,0,0
56626,-166.666666666667,4,2,1,70,0,0
57861,-111.111111111111,4,2,1,60,0,0
59450,-95.2380952380952,4,2,1,70,0,0

[Colours]
Combo1 : 202,193,119
Combo2 : 177,154,58
Combo3 : 217,156,102
Combo4 : 196,96,70

[HitObjects]
123,80,156,6,0,P|78:38|-9:23,2,120,2|2|2,0:0|0:0|0:0,0:0:0:0:
88,207,1744,2,0,L|218:183,1,120,2|2,0:0|0:0,0:0:0:0:
285,222,2626,1,2,0:0:0:0:
343,155,2979,6,0,P|349:127|346:102,2,40,2|2|2,0:0|0:0|0:0,0:0:0:0:
376,184,3508,1,2,0:0:0:0:
388,276,5803,6,0,P|433:318|491:320,2,120,2|2|2,0:0|0:0|0:0,0:0:0:0:
307,170,7391,2,0,L|182:197,1,120,2|2,0:0|0:0,0:0:0:0:
109,158,8273,1,2,0:0:0:0:
167,91,8626,6,0,L|158:3,1,80,2|2,0:0|0:0,0:0:0:0:
77,45,9332,2,0,L|29:40,1,40,2|2,0:0|0:0,0:0:0:0:
4,70,9685,1,2,0:0:0:0:
49,151,10038,6,0,L|67:326,2,160,2|0|2,0:0|0:0|0:2,0:0:0:0:
458,46,14273,5,2,0:0:0:0:
398,110,14626,2,0,L|336:98,1,40,2|0,0:0|0:0,0:0:0:0:
323,128,14979,2,0,P|257:112|174:165,1,160,2|2,0:0|0:0,0:0:0:0:
156,240,16038,1,2,0:0:0:0:
228,289,16391,2,0,L|331:267,1,80,2|0,0:0|0:0,0:0:0:0:
384,313,17097,6,0,P|408:267|387:219,1,80,2|2,0:0|0:0,0:0:0:0:
341,178,17803,2,0,P|317:132|336:82,1,80,2|2,0:0|0:0,0:0:0:0:
354,24,18508,1,2,0:0:0:0:
354,24,19214,2,0,L|216:2,1,120,2|0,0:0|0:0,0:0:0:0:
208,39,19920,6,0,L|100:52,1,80,2|2,0:0|0:0,0:0:0:0:
62,106,20626,1,2,0:0:0:0:
128,163,20979,1,2,0:0:0:0:
68,227,21332,2,0,L|84:323,1,80,2|0,0:0|0:0,0:0:0:0:
161,342,22038,2,0,P|203:327|245:342,1,80,2|0,0:0|0:0,0:0:0:0:
314,376,22744,6,0,L|340:270,1,80,2|0,0:0|0:0,0:0:0:0:
376,221,23450,2,0,L|352:118,1,80,2|2,0:0|0:0,0:0:0:0:
287,90,24155,2,0,P|253:83|222:92,1,40,2|2,0:0|0:0,0:0:0:0:
213,111,24508,1,2,0:0:0:0:
161,182,24861,2,0,P|127:189|94:180,1,40,2|2,0:0|0:0,0:0:0:0:
87,161,25214,1,2,0:0:0:0:
15,211,25567,5,2,0:0:0:0:
78,271,25920,1,2,0:0:0:0:
34,347,26273,2,0,P|89:359|133:330,1,80,2|0,0:0|0:0,0:0:0:0:
177,294,26979,1,0,0:0:0:0:
247,347,27332,1,2,0:0:0:0:
308,283,27685,2,0,L|291:194,1,80,2|2,0:0|0:0,0:0:0:0:
330,124,28391,6,0,P|378:122|411:156,2,80,2|2|2,0:0|0:0|0:0,0:0:0:0:
261,67,29450,1,2,0:0:0:0:
197,127,29803,2,0,P|128:103|137:7,1,160,2|2,0:0|0:0,0:0:0:0:
17,166,31214,6,0,L|-2:263,1,80,2|0,0:0|0:0,0:0:0:0:
45,321,31920,1,2,0:0:0:0:
102,254,32273,1,2,0:0:0:0:
169,310,32626,2,0,P|239:296|336:284,1,160,2|2,0:0|0:0,0:0:0:0:
401,331,33685,1,2,0:0:0:0:
447,256,34038,6,0,L|424:197,1,40,2|2,0:0|0:0,0:0:0:0:
443,175,34391,1,2,0:0:0:0:
369,126,34744,1,2,0:0:0:0:
441,75,35097,1,2,0:0:0:0:
380,11,35450,1,2,0:0:0:0:
257,60,35979,2,0,L|190:45,2,40,2|2|2,2:3|2:3|2:3,0:0:0:0:
296,79,36508,1,2,2:3:0:0:
228,146,36861,6,0,L|92:128,1,130.5000010952,4|0,3:0|0:0,0:0:0:0:
68,160,37567,2,0,P|99:210|97:231,2,43.5000003650665,4|2|2,3:0|2:3|3:2,0:0:0:0:
17,241,38273,2,0,P|61:282|120:278,1,87.0000007301331,2|0,3:2|3:0,0:0:0:0:
143,362,38979,2,0,P|187:321|246:325,1,87.0000007301331,2|2,3:2|0:0,0:0:0:0:
303,360,39685,6,0,L|318:244,1,87.0000007301331,6|2,3:0|0:0,0:0:0:0:
372,197,40391,2,0,P|401:204|415:223,1,43.5000003650665,4|2,3:0|3:0,0:0:0:0:
485,91,41097,2,0,P|437:74|382:95,1,87.0000007301331,2|0,3:2|0:0,0:0:0:0:
362,106,41626,1,0,0:0:0:0:
362,106,41803,2,0,P|302:108|268:76,1,87.0000007301331,2|0,3:2|0:0,0:0:0:0:
192,58,42508,6,0,P|133:77|116:167,1,130.5000010952,4|0,3:0|0:0,0:0:0:0:
123,182,43214,2,0,P|146:217|136:256,2,43.5000003650665,4|2|2,3:0|2:3|3:2,0:0:0:0:
40,234,43920,2,0,L|22:354,1,87.0000007301331,0|0,3:0|3:0,0:0:0:0:
112,363,44626,2,0,P|228:341|256:337,1,130.5000010952,2|0,3:2|0:0,0:0:0:0:
283,360,45332,6,0,P|320:295|310:254,1,87.0000007301331,2|2,3:2|0:0,3:3:0:0:
359,198,46038,2,0,P|398:204|415:219,2,43.5000003650665,4|2|0,3:0|2:3|3:0,0:0:0:0:
292,129,46744,2,0,L|281:31,1,87.0000007301331,0|0,3:0|0:0,0:0:0:0:
193,6,47450,2,0,L|136:14,1,43.5000003650665,4|0,3:0|3:0,0:0:0:0:
109,37,47803,1,2,3:0:0:0:
33,95,48155,6,0,P|81:149|69:217,1,130.5000010952,4|0,3:0|0:0,0:0:0:0:
51,243,48861,2,0,P|26:289|26:317,1,43.5000003650665,6|0,3:0|0:0,0:0:0:0:
30,327,49214,1,2,0:0:0:0:
115,370,49567,2,0,L|239:348,1,87.0000007301331,4|0,3:0|3:0,0:0:0:0:
277,296,50273,2,0,L|401:318,1,87.0000007301331,2|0,3:2|3:0,0:0:0:0:
430,242,50979,6,0,P|443:168|384:113,1,130.5000010952,4|0,3:0|0:0,0:0:0:0:
372,99,51685,2,0,P|355:66|357:28,2,43.5000003650665,4|2|0,3:0|0:3|0:0,0:0:0:0:
307,169,52391,2,0,L|186:146,1,87.0000007301331,2|0,3:2|0:0,0:0:0:0:
173,151,52920,1,2,0:0:0:0:
173,151,53097,2,0,P|155:189|168:230,1,87.0000007301331,2|2,3:2|3:2,0:0:0:0:
214,314,53803,6,0,L|305:303,1,87.0000007301331,2|2,3:2|3:2,0:0:0:0:
375,363,54508,2,0,L|435:353,1,43.5000003650665,2|0,3:2|3:0,0:0:0:0:
465,348,54861,1,2,0:0:0:0:
493,256,55214,2,0,P|480:158|467:73,1,174.000001460266,4|4,3:0|3:0,0:0:0:0:
398,14,56273,1,2,3:0:0:0:
365,108,56626,6,0,B|258:88|301:169|188:155,1,179.999994506836,4|0,1:2|0:0,0:0:0:0:
178,59,58038,2,0,P|137:53|103:68,1,44.999998626709,2|0,3:0|3:0,0:0:0:0:
92,81,58391,2,0,P|51:87|17:72,1,44.999998626709,0|4,3:0|3:2,0:0:0:0:
16,124,58744,2,0,L|-3:227,1,89.9999972534181,2|2,3:2|3:2,0:0:0:0:
75,299,59450,6,0,L|135:281,1,52.4999983978272,6|2,1:2|0:2,0:0:0:0:
177,258,59803,2,0,L|237:276,1,52.4999983978272,2|2,0:2|0:2,0:0:0:0:
283,287,60155,1,2,1:2:0:0:
387,237,60508,1,2,0:0:0:0:
380,121,60861,2,0,L|400:51,1,52.4999983978272,2|2,1:2|3:2,0:0:0:0:
373,16,61214,1,2,3:2:0:0:
274,76,61567,2,0,P|226:54|142:55,1,104.999996795654,2|2,1:2|3:0,0:0:0:0:
123,81,62097,1,2,3:2:0:0:
123,81,62273,6,0,L|98:241,1,157.499995193482,4|0,3:2|3:0,0:0:0:0:
127,287,62979,2,0,P|200:269|237:293,1,104.999996795654,4|0,3:2|0:0,0:0:0:0:
311,356,63685,2,0,L|372:338,1,52.4999983978272,0|2,3:0|0:2,0:0:0:0:
393,292,64038,2,0,L|454:310,1,52.4999983978272,2|2,0:2|3:2,0:0:0:0:
496,283,64391,1,2,1:2:0:0:
436,183,64744,2,0,P|422:122|424:82,1,52.4999983978272,2|2,3:2|3:2,0:0:0:0:
454,84,65097,6,0,L|387:58,1,52.4999983978272,6|2,0:2|0:2,0:0:0:0:
357,31,65450,2,0,L|290:57,1,52.4999983978272,2|2,0:2|0:2,0:0:0:0:
252,34,65803,1,2,1:2:0:0:
170,115,66155,1,2,0:0:0:0:
170,115,66332,2,0,L|197:195,1,52.4999983978272,2|4,3:2|0:2,0:0:0:0:
218,213,66685,2,0,L|191:293,1,52.4999983978272,2|0,0:0|3:0,0:0:0:0:
262,360,67214,2,0,P|324:326|391:341,1,104.999996795654,2|2,1:2|3:2,0:0:0:0:
459,380,67920,6,0,L|477:291,1,52.4999983978272,6|2,1:2|0:0,0:0:0:0:
508,285,68273,2,0,L|490:196,1,52.4999983978272,2|2,0:0|0:0,0:0:0:0:
458,190,68626,1,2,1:2:0:0:
374,110,68979,2,0,L|322:104,1,52.4999983978272,2|2,0:0|0:2,0:0:0:0:
278,141,69332,1,2,1:2:0:0:
178,81,69685,1,0,1:0:0:0:
74,132,70038,2,0,L|98:199,1,52.4999983978272,2|0,1:2|1:0,0:0:0:0:
65,233,70391,1,2,1:2:0:0:
122,332,70744,6,0,P|162:327|196:336,1,52.4999983978272,6|2,1:2|0:0,0:0:0:0:
227,351,71097,2,0,P|267:356|301:347,1,52.4999983978272,2|2,0:0|0:0,0:0:0:0:
319,313,71450,2,0,L|297:186,1,104.999996795654,2|2,1:2|0:0,0:0:0:0:
356,108,72155,2,0,P|394:103|428:118,1,52.4999983978272,2|2,1:2|3:2,0:0:0:0:
453,140,72508,1,2,0:2:0:0:
509,39,72861,1,2,1:3:0:0:
401,7,73214,2,0,L|325:-4,1,52.4999983978272,0|2,0:0|3:2,0:0:0:0:
306,38,73567,6,0,L|179:59,1,104.999996795654,4|2,1:0|0:2,0:0:0:0:
92,17,74273,2,0,P|50:67|70:146,1,104.999996795654,0|0,1:0|0:0,0:0:0:0:
80,153,74803,1,2,0:2:0:0:
80,153,74979,2,0,P|96:192|91:227,1,52.4999983978272,2|2,1:2|0:2,0:0:0:0:
74,255,75332,1,2,0:2:0:0:
161,332,75685,2,0,L|272:311,1,104.999996795654,2|2,1:2|0:2,0:0:0:0:
376,341,76391,6,0,P|394:302|387:255,1,52.4999983978272,6|2,3:2|0:0,0:0:0:0:
363,244,76744,2,0,P|345:205|352:158,1,52.4999983978272,2|2,0:0|0:0,0:0:0:0:
373,146,77097,2,0,P|400:111|379:31,1,104.999996795654,2|2,1:2|0:2,0:0:0:0:
357,9,77626,1,2,3:2:0:0:
357,9,77803,2,0,L|231:33,1,104.999996795654,4|0,3:2|3:0,0:0:0:0:
170,108,78508,2,0,L|107:93,1,52.4999983978272,2|2,3:2|0:2,0:0:0:0:
78,54,78861,1,2,3:2:0:0:
13,149,79214,6,0,P|31:216|32:239,1,52.4999983978272,6|2,1:2|0:2,0:0:0:0:
71,237,79567,2,0,P|53:304|52:327,1,52.4999983978272,2|2,0:2|0:2,0:0:0:0:
88,334,79920,2,0,L|210:308,1,104.999996795654,2|2,1:2|0:2,0:0:0:0:
240,341,80450,1,2,3:2:0:0:
240,341,80626,1,4,1:0:0:0:
334,274,80979,1,0,3:0:0:0:
426,343,81332,2,0,L|447:274,1,52.4999983978272,2|0,3:2|3:0,0:0:0:0:
472,244,81685,2,0,L|451:175,1,52.4999983978272,0|0,3:0|3:0,0:0:0:0:
458,135,82038,6,0,P|493:129|514:145,2,52.4999983978272,6|2|2,3:2|0:2|3:2,0:0:0:0:
414,96,82567,1,6,3:2:0:0:
329,175,82920,1,2,3:0:0:0:
329,175,83097,1,4,3:0:0:0:
239,102,83450,2,0,L|249:31,1,52.4999983978272,6|2,3:2|0:2,0:0:0:0:
206,7,83803,1,2,3:2:0:0:
206,7,83979,2,0,L|124:25,1,52.4999983978272,6|2,3:2|0:2,0:0:0:0:
112,57,84332,1,2,3:2:0:0:
112,57,84508,1,4,1:2:0:0:
423,200,86273,5,2,0:2:0:0:
