osu file format v14

[General]
AudioFilename: audio.mp3
AudioLeadIn: 0
PreviewTime: 58728
Countdown: 0
SampleSet: Soft
StackLeniency: 0.5
Mode: 0
LetterboxInBreaks: 0
WidescreenStoryboard: 1

[Editor]
DistanceSpacing: 1.5
BeatDivisor: 4
GridSize: 4
TimelineZoom: 1

[Metadata]
Title:Utsukushiki Zankoku na Sekai (TV Size)
TitleUnicode:美しき残酷な世界 (TV Size)
Artist:Hikasa Youko
ArtistUnicode:日笠陽子
Creator:Yudragen
Version:Hard
Source:進撃の巨人
Tags:shingeki no kyojin attack on titan chaoticred yoko anime japanese ed ending
BeatmapID:2107221
BeatmapSetID:984990

[Difficulty]
HPDrainRate:4
CircleSize:3.5
OverallDifficulty:6
ApproachRate:8
SliderMultiplier:2
SliderTickRate:1

[Events]
//Background and Video events
0,0,"Konachan.com - 169255 sample.jpg",0,0
//Break Periods
//Storyboard Layer 0 (Background)
//Storyboard Layer 1 (Fail)
//Storyboard Layer 2 (Pass)
//Storyboard Layer 3 (Foreground)
//Storyboard Layer 4 (Overlay)
//Storyboard Sound Samples

[TimingPoints]
156,705.882352941176,4,2,1,15,1,0
156,-133.333333333333,4,2,1,15,0,0
10038,-166.666666666667,4,2,1,25,0,0
14273,-111.111111111111,4,2,1,30,0,0
36861,-76.9230769230769,4,2,1,40,0,0
56626,-166.666666666667,4,2,1,70,0,0
57861,-166.666666666667,4,2,1,60,0,0
58038,-62.5,4,2,1,60,0,0
59450,-57.1428571428571,4,2,1,60,0,0

[Colours]
Combo1 : 202,193,119
Combo2 : 177,154,58
Combo3 : 217,156,102
Combo4 : 196,96,70

[HitObjects]
136,157,156,6,0,P|137:132|126:107,2,37.5000014305115,2|2|2,0:0|0:0|0:0,0:0:0:0:
179,222,685,2,0,P|200:235|227:238,2,37.5000014305115,2|2|2,0:0|0:0|0:0,0:0:0:0:
101,226,1214,2,0,P|78:237|62:259,2,37.5000014305115,2|2|2,0:0|0:0|0:0,0:0:0:0:
138,299,1744,6,0,L|126:340,2,37.5000014305115,2|2|2,0:0|0:0|0:0,0:0:0:0:
212,238,2273,2,0,L|201:202,1,37.5000014305115,2|2,0:0|0:0,0:0:0:0:
255,133,2626,2,0,L|265:97,1,37.5000014305115,2|2,0:0|0:0,0:0:0:0:
329,41,2979,5,2,0:0:0:0:
338,51,3155,1,2,0:0:0:0:
414,86,3332,1,2,0:0:0:0:
422,71,3508,1,2,0:0:0:0:
376,227,5803,6,0,P|375:252|386:277,2,37.5000014305115,2|2|2,0:0|0:0|0:0,0:0:0:0:
333,162,6332,2,0,P|311:148|284:145,2,37.5000014305115,2|2|2,0:0|0:0|0:0,0:0:0:0:
411,158,6861,2,0,P|433:146|449:124,2,37.5000014305115,2|2|2,0:0|0:0|0:0,0:0:0:0:
374,85,7391,6,0,L|386:44,2,37.5000014305115,2|2|2,0:0|0:0|0:0,0:0:0:0:
300,146,7920,2,0,L|310:181,1,37.5000014305115,2|2,0:0|0:0,0:0:0:0:
257,251,8273,2,0,L|246:286,1,37.5000014305115,2|2,0:0|0:0,0:0:0:0:
247,372,8626,6,0,L|173:383,1,75.0000028610231,2|2,0:0|0:0,0:0:0:0:
0,273,9332,5,2,0:0:0:0:
73,247,9508,1,2,0:0:0:0:
92,253,9685,1,2,0:0:0:0:
267,197,10038,6,0,B|127:229|175:129|40:156,1,239.999992675781,2|2,0:0|0:0,0:0:0:0:
66,330,14273,5,2,0:0:0:0:
66,330,14626,2,0,L|77:267,1,44.999998626709,2|2,0:0|0:0,0:0:0:0:
125,224,14979,2,0,P|192:226|216:261,1,89.9999972534181,2|2,0:0|0:0,0:0:0:0:
260,304,15508,6,0,P|314:304|328:294,1,44.999998626709,2|0,0:0|0:0,0:0:0:0:
368,253,15861,1,2,0:0:0:0:
359,243,16038,2,0,L|373:170,1,44.999998626709,2|0,0:0|0:0,0:0:0:0:
427,135,16391,2,0,L|408:14,1,89.9999972534181,2|2,0:0|0:0,0:0:0:0:
335,1,16920,6,0,P|292:3|278:17,1,44.999998626709,2|0,0:0|0:0,0:0:0:0:
230,65,17273,1,2,0:0:0:0:
220,73,17450,2,0,P|177:71|163:57,1,44.999998626709,2|0,0:0|0:0,0:0:0:0:
87,34,17803,2,0,P|94:78|100:122,1,89.9999972534181,2|2,0:0|0:0,0:0:0:0:
0,236,18508,6,0,P|67:231|113:324,1,179.999994506836,2|2,0:0|0:0,0:0:0:0:
212,370,19567,1,2,0:0:0:0:
218,364,19744,1,2,0:0:0:0:
224,357,19920,6,0,L|325:346,1,89.9999972534181,2|2,0:0|0:0,0:0:0:0:
364,279,20450,2,0,L|347:212,1,44.999998626709,2|0,0:0|0:0,0:0:0:0:
491,160,20979,1,2,0:0:0:0:
479,153,21155,6,0,L|322:133,1,134.999995880127,2|2,0:0|0:0,0:0:0:0:
216,2,22038,2,0,P|201:31|196:58,1,44.999998626709,2|0,0:0|0:0,0:0:0:0:
134,103,22391,2,0,P|149:132|154:159,1,44.999998626709,2|0,0:0|0:0,0:0:0:0:
96,221,22744,6,0,L|220:238,1,89.9999972534181,2|2,0:0|0:0,0:0:0:0:
246,290,23273,2,0,L|301:279,1,44.999998626709,2|0,0:0|0:0,0:0:0:0:
396,156,23803,1,0,0:0:0:0:
396,156,24155,6,0,L|418:216,1,44.999998626709,2|2,0:0|0:0,0:0:0:0:
461,102,24508,2,0,L|476:59,1,44.999998626709,2|2,0:0|0:0,0:0:0:0:
404,13,24861,2,0,L|333:2,1,44.999998626709,2|2,0:0|0:0,0:0:0:0:
297,67,25214,2,0,L|226:78,1,44.999998626709,2|2,0:0|0:0,0:0:0:0:
180,30,25567,5,2,0:0:0:0:
180,30,25920,2,0,P|167:91|160:112,1,44.999998626709,2|0,0:0|0:0,0:0:0:0:
129,146,26273,2,0,P|80:138|27:132,1,89.9999972534181,2|2,0:0|0:0,0:0:0:0:
0,210,26803,6,0,P|17:244|16:277,1,44.999998626709,2|0,0:0|0:0,0:0:0:0:
80,312,27155,1,2,0:0:0:0:
85,305,27332,2,0,L|170:296,1,44.999998626709,2|0,0:0|0:0,0:0:0:0:
195,246,27685,2,0,L|297:256,1,89.9999972534181,2|2,0:0|0:0,0:0:0:0:
351,308,28214,6,0,P|376:273|375:249,1,44.999998626709,2|0,0:0|0:0,0:0:0:0:
429,209,28567,1,2,0:0:0:0:
418,202,28744,2,0,P|393:167|394:143,1,44.999998626709,2|0,0:0|0:0,0:0:0:0:
409,81,29097,2,0,P|468:84|486:126,2,89.9999972534181,2|2|2,0:0|0:0|0:0,0:0:0:0:
217,9,30508,6,0,L|199:121,1,89.9999972534181,2|2,0:0|0:0,0:0:0:0:
94,220,31214,6,0,P|106:147|152:130,2,89.9999972534181,2|2|2,0:0|0:0|0:0,0:0:0:0:
177,312,32273,1,2,0:0:0:0:
274,241,32626,6,0,B|371:214|347:295|453:269,1,179.999994506836,2|2,0:0|0:0,0:0:0:0:
512,189,33685,1,2,0:0:0:0:
428,112,34038,6,0,P|440:81|446:33,2,44.999998626709,2|2|2,0:0|0:0|0:0,0:0:0:0:
282,19,34744,2,0,L|385:7,2,89.9999972534181,2|2|2,0:0|0:0|0:0,0:0:0:0:
164,146,35979,6,0,P|143:93|144:67,1,44.999998626709,2|2,2:3|2:3,0:0:0:0:
183,32,36332,1,2,2:3:0:0:
189,39,36508,1,2,2:3:0:0:
313,201,36861,6,0,P|245:206|206:255,2,129.999994049073,4|2|4,3:0|0:0|3:0,0:0:0:0:
375,260,37744,1,2,2:3:0:0:
381,254,37920,2,0,L|453:245,1,64.9999970245363,2|0,3:2|0:0,0:0:0:0:
498,179,38273,5,2,3:2:0:0:
498,179,38626,1,0,3:0:0:0:
498,179,38979,2,0,P|471:117|459:50,1,129.999994049073,2|2,3:2|0:0,0:0:0:0:
394,10,39508,1,2,0:0:0:0:
385,21,39685,6,0,L|305:10,1,64.9999970245363,6|2,3:0|0:0,0:0:0:0:
255,71,40038,2,0,L|175:82,1,64.9999970245363,2|0,0:0|0:0,0:0:0:0:
115,32,40391,1,4,3:0:0:0:
103,39,40567,2,0,P|65:90|100:181,1,129.999994049073,2|0,3:0|0:0,0:0:0:0:
32,241,41097,6,0,B|175:279|131:140|263:159,2,259.999988098145,2|2|4,3:2|3:2|3:0,0:0:0:0:
148,352,42861,6,0,L|225:338,1,64.9999970245363,2|0,0:0|0:0,0:0:0:0:
270,271,43214,2,0,L|415:293,1,129.999994049073,4|2,3:0|3:2,0:0:0:0:
470,242,43744,1,2,0:0:0:0:
459,232,43920,6,0,P|429:173|468:109,1,129.999994049073,0|0,3:0|3:0,0:0:0:0:
329,39,44626,2,0,P|264:37|204:12,1,129.999994049073,2|0,3:2|3:0,0:0:0:0:
92,97,45332,6,0,L|111:237,1,129.999994049073,2|2,3:2|0:0,3:3:0:0:
169,282,45861,1,2,0:0:0:0:
179,275,46038,2,0,P|223:271|256:296,1,64.9999970245363,4|2,3:0|2:3,0:0:0:0:
292,350,46391,1,0,3:0:0:0:
292,350,46744,5,0,3:0:0:0:
292,350,47097,2,0,L|370:332,1,64.9999970245363,0|2,0:0|0:0,0:0:0:0:
414,273,47450,2,0,P|389:228|394:182,1,64.9999970245363,4|0,3:0|3:0,0:0:0:0:
421,137,47803,1,2,3:0:0:0:
283,12,48155,5,4,3:0:0:0:
283,12,48508,2,0,L|204:24,1,64.9999970245363,2|0,0:0|0:0,0:0:0:0:
181,97,48861,2,0,L|36:74,1,129.999994049073,6|2,3:0|0:0,0:0:0:0:
5,154,49391,1,2,0:0:0:0:
19,159,49567,6,0,P|52:216|4:283,2,129.999994049073,4|0|2,3:0|3:0|3:2,0:0:0:0:
139,288,50626,2,0,L|221:276,1,64.9999970245363,0|2,3:0|0:0,0:0:0:0:
259,216,50979,6,0,L|403:241,1,129.999994049073,4|2,3:0|0:0,0:0:0:0:
494,161,51685,1,4,3:0:0:0:
482,147,51861,2,0,L|468:74,1,64.9999970245363,2|0,0:3|0:0,0:0:0:0:
366,8,52391,6,0,P|301:5|251:70,1,129.999994049073,2|0,3:2|0:0,0:0:0:0:
237,129,52920,1,2,0:0:0:0:
227,136,53097,2,0,L|141:120,1,64.9999970245363,2|0,3:2|0:2,0:0:0:0:
116,61,53450,2,0,L|30:77,1,64.9999970245363,2|0,3:2|0:0,0:0:0:0:
5,151,53803,6,0,P|60:199|54:290,1,129.999994049073,2|2,3:2|3:2,0:0:0:0:
161,339,54508,2,0,L|239:328,1,64.9999970245363,2|0,3:2|3:0,0:0:0:0:
281,261,54861,2,0,L|359:272,1,64.9999970245363,2|0,0:0|0:0,0:0:0:0:
412,342,55214,6,0,P|458:277|402:167,1,194.999991073609,4|2,3:0|0:2,0:0:0:0:
352,124,55920,2,0,P|331:77|363:32,2,64.9999970245363,4|0|2,3:0|3:0|3:0,0:0:0:0:
401,9,56626,5,4,1:2:0:0:
56,67,57861,5,0,2:0:0:0:
56,67,57950,1,0,2:0:0:0:
56,67,58038,2,0,L|79:151,1,80,2|0,3:0|3:0,0:0:0:0:
34,216,58391,1,0,3:0:0:0:
41,226,58567,1,4,3:2:0:0:
107,286,58744,2,0,L|221:262,1,80,2|0,3:2|1:0,0:0:0:0:
247,205,59097,2,0,P|232:161|255:103,1,80,2|0,3:2|1:0,0:0:0:0:
302,61,59450,5,6,1:2:0:0:
312,72,59626,1,2,0:2:0:0:
383,118,59803,1,2,0:2:0:0:
369,134,59979,1,2,0:2:0:0:
413,214,60155,2,0,L|563:180,1,87.500000834465,2|0,1:2|0:0,0:0:0:0:
381,303,60508,2,0,L|254:275,1,87.500000834465,2|0,0:0|0:0,0:0:0:0:
194,311,60861,5,2,1:2:0:0:
203,327,61038,1,2,3:2:0:0:
117,257,61214,2,0,P|101:205|158:133,1,87.500000834465,2|0,3:2|0:0,0:0:0:0:
83,71,61567,2,0,B|199:49|155:136|268:118,1,175.00000166893,2|2,1:2|3:0,0:0:0:0:
333,53,62097,1,2,3:2:0:0:
400,113,62273,6,0,L|382:218,1,87.500000834465,4|2,3:2|0:2,0:0:0:0:
434,279,62626,1,2,0:2:0:0:
376,340,62803,1,0,3:0:0:0:
376,340,62891,1,0,3:0:0:0:
376,340,62979,2,0,P|286:307|213:386,1,175.00000166893,4|0,3:2|0:0,0:0:0:0:
155,298,63508,1,0,3:0:0:0:
155,298,63597,1,0,3:0:0:0:
155,298,63685,6,0,L|50:328,1,87.500000834465,0|2,3:0|0:2,0:0:0:0:
0,268,64038,1,2,0:2:0:0:
0,268,64214,1,2,3:2:0:0:
57,204,64391,2,0,P|77:160|42:102,1,87.500000834465,2|2,1:2|0:2,0:0:0:0:
99,44,64744,1,2,3:2:0:0:
110,50,64920,1,2,3:2:0:0:
175,107,65097,5,6,0:2:0:0:
185,93,65273,1,2,0:2:0:0:
262,53,65450,1,2,0:2:0:0:
327,105,65626,1,2,0:2:0:0:
413,110,65803,2,0,P|399:57|404:-10,1,87.500000834465,2|0,1:2|0:0,0:0:0:0:
512,144,66155,1,2,0:0:0:0:
468,219,66332,6,0,L|352:201,1,87.500000834465,2|4,3:2|0:2,0:0:0:0:
303,265,66685,1,2,0:0:0:0:
226,225,66861,2,0,P|217:273|234:319,1,87.500000834465,0|0,3:0|0:0,0:0:0:0:
164,163,67214,2,0,L|44:142,1,87.500000834465,2|0,1:2|0:0,0:0:0:0:
231,99,67567,2,0,L|351:78,1,87.500000834465,2|0,3:2|3:0,0:0:0:0:
407,33,67920,5,6,1:2:0:0:
394,19,68097,1,2,0:0:0:0:
482,6,68273,1,2,0:0:0:0:
509,86,68450,1,2,0:0:0:0:
500,94,68626,2,0,L|514:206,1,87.500000834465,2|0,1:2|0:0,0:0:0:0:
467,275,68979,1,2,0:0:0:0:
393,226,69155,1,2,0:2:0:0:
393,226,69244,1,2,0:2:0:0:
393,226,69332,6,0,P|326:217|258:274,1,87.500000834465,2|0,1:2|1:0,0:0:0:0:
236,301,69685,2,0,P|169:310|101:253,1,87.500000834465,0|0,1:0|1:0,0:0:0:0:
87,222,70038,1,2,1:2:0:0:
100,211,70214,1,0,1:0:0:0:
55,136,70391,1,2,1:2:0:0:
112,76,70567,1,0,1:0:0:0:
192,123,70744,6,0,L|317:99,1,87.500000834465,6|2,1:2|0:0,0:0:0:0:
360,53,71097,1,2,0:0:0:0:
351,39,71273,1,2,0:0:0:0:
437,88,71450,2,0,P|460:139|427:209,1,87.500000834465,2|0,1:2|0:0,0:0:0:0:
399,248,71803,1,2,0:0:0:0:
388,236,71979,1,2,3:2:0:0:
314,296,72155,5,2,1:2:0:0:
236,249,72332,1,2,3:2:0:0:
175,313,72508,2,0,P|125:324|52:340,1,87.500000834465,2|0,0:2|0:0,0:0:0:0:
11,276,72861,2,0,P|3:182|95:122,1,175.00000166893,2|0,1:3|0:0,0:0:0:0:
154,159,73391,1,2,3:2:0:0:
223,111,73567,6,0,P|204:47|199:-13,1,87.500000834465,4|0,1:0|0:0,0:0:0:0:
294,47,73920,1,2,0:2:0:0:
383,20,74097,1,2,3:2:0:0:
373,8,74273,2,0,P|463:19|464:155,1,175.00000166893,0|0,1:0|0:0,0:0:0:0:
431,173,74803,1,2,0:2:0:0:
440,182,74979,6,0,L|462:285,1,87.500000834465,2|2,1:2|0:2,0:0:0:0:
400,340,75332,1,2,0:2:0:0:
336,292,75508,1,0,3:0:0:0:
336,292,75597,1,0,3:0:0:0:
336,292,75685,2,0,L|224:316,1,87.500000834465,2|0,1:2|3:0,0:0:0:0:
157,354,76038,1,2,0:2:0:0:
122,281,76214,1,0,3:0:0:0:
122,281,76303,1,0,3:0:0:0:
122,281,76391,6,0,L|24:259,1,87.500000834465,6|2,3:2|0:0,0:0:0:0:
0,174,76744,1,2,0:0:0:0:
10,162,76920,1,2,0:0:0:0:
92,138,77097,2,0,P|115:94|74:24,1,87.500000834465,2|0,1:2|0:0,0:0:0:0:
171,3,77450,1,2,0:2:0:0:
230,59,77626,6,0,L|364:37,1,87.500000834465,2|4,3:2|3:2,0:0:0:0:
436,104,77979,1,2,3:2:0:0:
373,157,78155,2,0,P|398:205|382:270,1,87.500000834465,0|0,3:0|0:0,0:0:0:0:
338,316,78508,1,2,3:2:0:0:
327,307,78685,1,2,0:2:0:0:
260,364,78861,1,2,3:2:0:0:
187,326,79038,1,2,3:2:0:0:
102,345,79214,6,0,P|79:209|77:196,1,87.500000834465,6|2,1:2|0:2,0:0:0:0:
142,168,79567,1,2,0:2:0:0:
128,160,79744,1,2,0:2:0:0:
52,106,79920,2,0,P|135:64|186:96,1,87.500000834465,2|0,1:2|0:0,0:0:0:0:
213,105,80273,1,2,0:2:0:0:
281,45,80450,1,2,3:2:0:0:
281,45,80538,1,0,0:0:0:0:
281,45,80626,6,0,L|384:80,1,87.500000834465,4|0,1:0|3:0,0:0:0:0:
451,37,80979,1,0,3:0:0:0:
506,113,81155,1,0,3:0:0:0:
506,113,81244,1,0,3:0:0:0:
506,113,81332,2,0,P|468:180|497:250,1,87.500000834465,2|0,3:2|3:0,0:0:0:0:
509,272,81685,1,0,3:0:0:0:
499,283,81861,1,0,3:0:0:0:
432,350,82038,5,6,3:2:0:0:
358,307,82214,1,2,0:2:0:0:
344,316,82391,1,2,3:2:0:0:
230,348,82567,5,6,3:2:0:0:
218,334,82744,1,2,0:0:0:0:
239,252,82920,1,2,3:0:0:0:
171,194,83097,1,4,3:0:0:0:
14,69,83450,5,6,3:2:0:0:
85,19,83626,1,2,0:2:0:0:
100,29,83803,1,2,3:2:0:0:
202,84,83979,5,6,3:2:0:0:
278,34,84155,1,2,0:2:0:0:
290,41,84332,1,2,3:2:0:0:
386,94,84508,1,4,1:2:0:0:
86,248,86097,6,2,P|72:219|72:206,3,29.1666669448217,2|2|2|2,0:0|0:0|0:0|0:2,0:0:0:0:
