osu file format v14

[General]
AudioFilename: ShingekiED.mp3
AudioLeadIn: 0
PreviewTime: 56311
Countdown: 0
SampleSet: Soft
StackLeniency: 0.7
Mode: 0
LetterboxInBreaks: 0
WidescreenStoryboard: 1

[Editor]
DistanceSpacing: 0.8
BeatDivisor: 8
GridSize: 32
TimelineZoom: 2.899999

[Metadata]
Title:Utsukushiki Zankoku na Sekai (TV Size)
TitleUnicode:美しき残酷な世界 (TV Size)
Artist:Hikasa Youko
ArtistUnicode:日笠陽子
Creator:Net0
Version:Insane
Source:進撃の巨人
Tags:Enerugi Edu Edward Ataraxia Lafayla Trynna shingeki no kyojin attack on titan anime japanese ed ending yoko
BeatmapID:2069823
BeatmapSetID:989457

[Difficulty]
HPDrainRate:6
CircleSize:4.5
OverallDifficulty:8
ApproachRate:9
SliderMultiplier:1.8
SliderTickRate:2

[Events]
//Background and Video events
0,0,"bgcolor.jpg",0,0
Video,0,"S01E01redux.mp4"
//Break Periods
2,12041,13514
//Storyboard Layer 0 (Background)
//Storyboard Layer 1 (Fail)
//Storyboard Layer 2 (Pass)
//Storyboard Layer 3 (Foreground)
//Storyboard Layer 4 (Overlay)
//Storyboard Sound Samples

[TimingPoints]
547,705.882352941176,4,2,1,60,1,0
547,-133.333333333333,4,2,1,60,0,0
10429,-270.27027027027,4,2,1,60,0,0
14664,-125,4,2,1,40,0,0
19605,-83.3333333333333,4,2,1,40,0,0
20311,-125,4,2,1,40,0,0
30899,-117.647058823529,4,2,1,40,0,0
31252,-105.263157894737,4,2,1,40,0,0
31605,-95.2380952380952,4,2,1,40,0,0
32311,-90.9090909090909,4,2,1,40,0,0
33017,-86.9565217391304,4,2,1,40,0,0
33723,-90.9090909090909,4,2,1,40,0,0
34429,-250,4,2,1,40,0,0
36546,-125,4,2,1,40,0,0
37252,-83.3333333333333,4,2,1,60,0,0
42899,-83.3333333333333,4,2,1,60,0,0
51988,-83.3333333333333,4,2,1,5,0,0
52076,-83.3333333333333,4,2,1,60,0,0
52694,-83.3333333333333,4,2,1,5,0,0
52782,-83.3333333333333,4,2,1,60,0,0
53399,-83.3333333333333,4,2,1,5,0,0
53488,-83.3333333333333,4,2,1,60,0,0
56223,-83.3333333333333,4,2,1,5,0,0
56311,-83.3333333333333,4,2,1,60,0,0
58164,-83.3333333333333,4,2,1,5,0,0
58252,-83.3333333333333,4,2,1,60,0,0
59399,-83.3333333333333,4,2,1,5,0,0
59488,-71.4285714285714,4,2,1,60,0,0
59752,-71.4285714285714,4,2,1,5,0,0
59841,-62.5,4,2,2,80,0,0
61958,-62.5,4,2,2,80,0,0
62223,-62.5,4,2,2,5,0,0
62311,-62.5,4,2,2,80,0,0
62929,-62.5,4,2,2,5,0,0
63017,-62.5,4,2,2,80,0,0
65046,-62.5,4,2,2,5,0,0
65135,-62.5,4,2,2,80,0,0
66635,-62.5,4,2,2,5,0,0
66723,-62.5,4,2,2,80,0,0
67870,-62.5,4,2,2,5,0,0
67958,-62.5,4,2,2,80,0,0
70429,-55.5555555555556,4,2,2,80,0,0
70694,-83.3333333333333,4,2,2,5,0,0
70782,-71.4285714285714,4,2,2,80,0,0
71046,-71.4285714285714,4,2,2,5,0,0
71135,-62.5,4,2,2,80,0,0
73164,-62.5,4,2,2,5,0,0
73252,-62.5,4,2,2,80,0,0
73517,-62.5,4,2,2,5,0,0
73605,-62.5,4,2,2,80,0,0
81017,-90.9090909090909,4,2,2,80,0,0
81723,-62.5,4,2,2,80,0,0
84899,-62.5,4,2,3,80,0,0
88076,-62.5,4,2,3,50,0,0
88429,-62.5,4,2,3,40,0,0
88782,-62.5,4,2,3,30,0,0
89135,-62.5,4,2,3,20,0,0

[Colours]
Combo1 : 238,20,20
Combo2 : 106,106,106
Combo3 : 145,145,145
Combo4 : 211,211,211
Combo5 : 134,128,104
Combo6 : 160,18,14

[HitObjects]
209,341,547,6,0,L|172:332,2,33.7500012874604,2|0|0,0:0|0:0|0:0,0:0:0:0:
303,291,1076,2,0,L|339:282,2,33.7500012874604,2|0|0,0:0|0:0|0:0,0:0:0:0:
190,231,1605,2,0,L|153:222,2,33.7500012874604,2|0|0,0:0|0:0|0:0,0:0:0:0:
325,159,2135,2,0,L|361:150,2,33.7500012874604,2|0|0,0:0|0:0|0:0,0:0:0:0:
163,72,2664,2,0,L|126:63,2,33.7500012874604,2|0|0,0:0|0:0|0:0,0:0:0:0:
163,72,3194,5,2,0:0:0:0:
245,116,3370,1,0,0:0:0:0:
258,196,3546,1,0,0:0:0:0:
246,261,3723,1,0,0:0:0:0:
256,316,3899,1,2,0:0:0:0:
107,145,6194,70,0,L|116:108,2,33.7500012874604,2|0|0,0:0|0:0|0:0,0:0:0:0:
157,239,6723,2,0,L|166:275,2,33.7500012874604,2|0|0,0:0|0:0|0:0,0:0:0:0:
217,126,7252,2,0,L|226:89,2,33.7500012874604,2|0|0,0:0|0:0|0:0,0:0:0:0:
289,261,7782,2,0,L|298:297,2,33.7500012874604,2|0|0,0:0|0:0|0:0,0:0:0:0:
376,99,8311,1,2,0:0:0:0:
332,181,8487,1,0,0:0:0:0:
252,194,8663,1,0,0:0:0:0:
187,182,8840,1,0,0:0:0:0:
132,192,9016,1,2,0:0:0:0:
255,328,9370,5,0,0:0:0:0:
255,56,9723,1,0,0:0:0:0:
281,85,9899,2,0,P|289:99|295:115,1,33.7500012874604
255,328,10429,70,0,P|260:294|275:264,1,66.6000016259766,2|0,0:0|0:0,0:0:0:0:
274,265,11841,5,2,0:0:0:0:
153,153,14664,69,2,0:1:0:0:
40,240,15017,1,2,0:0:0:0:
100,279,15194,1,2,0:0:0:0:
126,345,15370,2,0,P|138:311|167:290,1,72,2|2,0:1|0:0,0:0:0:0:
270,351,15899,2,0,L|199:359,1,72,2|2,0:0|0:0,0:0:0:0:
286,278,16429,1,2,0:0:0:0:
337,322,16605,1,0,0:0:0:0:
386,374,16782,2,0,L|426:369,1,36,2|0,0:1|0:0,0:0:0:0:
419,239,17135,1,2,0:0:0:0:
446,217,17488,6,0,P|416:196|376:176,1,72,2|2,0:3|0:0,0:0:0:0:
305,134,18017,1,0,0:0:0:0:
163,135,18194,2,0,L|198:114,1,36,2|0,0:0|0:0,0:0:0:0:
263,41,18546,2,0,L|228:20,1,36,2|0,0:0|0:0,0:0:0:0:
236,208,18899,2,0,P|221:237|225:316,1,108,2|0,0:1|0:0,0:0:0:0:
232,382,19605,2,0,P|214:354|143:318,1,108,2|2,0:1|0:0,0:0:0:0:
75,325,20135,1,2,0:0:0:0:
194,240,20311,70,0,B|197:203|197:203|194:158,1,72,2|2,0:1|0:0,0:0:0:0:
184,128,20841,1,2,0:0:0:0:
167,97,21017,1,2,0:1:0:0:
52,190,21370,1,2,0:0:0:0:
305,150,21723,1,0,0:0:0:0:
326,167,22076,2,0,P|330:135|335:120,1,36,2|0,0:0|0:0,0:0:0:0:
435,184,22429,2,0,P|409:164|399:151,1,36,2|0,0:1|0:0,0:0:0:0:
505,98,22782,2,0,P|475:109|459:112,1,36,2|0,0:0|0:0,0:0:0:0:
331,48,23135,6,0,P|365:56|395:77,1,72,2|2,0:3|0:0,0:0:0:0:
274,172,23664,2,0,P|298:145|331:131,1,72,2|0,0:0|0:0,0:0:0:0:
195,60,24194,1,2,0:0:0:0:
176,47,24546,2,0,L|171:10,2,36,2|2|2,0:0|0:0|0:0,0:0:0:0:
195,60,25076,1,2,0:0:0:0:
178,83,25252,1,2,0:0:0:0:
209,120,25429,1,2,0:0:0:0:
164,173,25605,1,2,0:0:0:0:
204,254,25782,1,2,0:0:0:0:
164,173,25958,1,2,0:1:0:0:
329,288,26311,69,2,0:0:0:0:
400,290,26488,1,0,0:0:0:0:
455,335,26664,2,0,P|448:298|462:265,1,72,2|2,0:1|0:0,0:0:0:0:
481,197,27194,2,0,L|512:176,2,36,2|0|2,0:0|0:0|0:0,0:0:0:0:
346,163,27723,1,2,0:0:0:0:
410,186,27899,1,0,0:0:0:0:
280,138,28076,2,0,P|298:108|331:94,1,72,2|2,0:1|0:0,0:0:0:0:
297,33,28605,1,2,0:0:0:0:
292,213,28782,6,0,P|279:257|259:300,2,72,2|2|2,0:3|0:0|0:0,0:0:0:0:
204,120,29841,1,2,0:0:0:0:
78,149,30194,2,0,P|62:191|52:237,1,72,2|0,0:1|0:0,0:0:0:0:
55,217,30899,70,0,L|120:205,1,38.2500007295609,2|0,0:1|0:0,0:0:0:0:
269,281,31252,6,0,L|226:230,1,42.7499988584519,2|0,0:0|0:0,0:0:0:0:
213,64,31605,6,0,L|190:126,1,47.2499985580445,2|0,0:1|0:0,0:0:0:0:
176,192,31958,1,2,0:0:0:0:
297,41,32311,54,0,P|314:82|317:104,1,49.5000015106202,2|0,0:1|0:0,0:0:0:0:
272,266,32664,2,0,P|278:243|290:221,1,49.5000015106202,2|0,0:0|0:0,0:0:0:0:
512,138,33017,2,0,B|436:121|443:173|364:165,1,155.250002961159,2|0,0:3|0:0,0:0:0:0:
328,28,33723,2,0,P|393:23|388:88,1,148.50000453186,2|0,0:1|0:0,0:0:0:0:
363,165,34429,1,2,0:3:0:0:
363,165,34605,1,2,0:0:0:0:
386,239,34782,6,0,P|350:178|285:152,1,144,2|0,0:0|0:0,0:0:0:0:
246,161,36370,1,2,0:3:0:0:
208,170,36546,2,0,L|163:167,1,36,2|2,0:3|0:0,0:0:0:0:
215,62,36899,1,2,0:3:0:0:
166,313,37252,6,0,P|176:283|181:249,1,53.9999983520508,0|0,3:0|0:0,0:0:0:0:
172,167,37605,1,2,0:0:0:0:
381,286,37958,2,0,P|360:262|333:241,1,53.9999983520508,0|0,3:0|0:0,0:0:0:0:
257,207,38311,1,2,0:0:0:0:
412,99,38664,2,0,P|438:90|465:86,1,53.9999983520508,0|0,3:0|0:0,0:0:0:0:
334,154,39017,1,2,0:0:0:0:
309,193,39370,2,0,P|282:197|256:206,1,53.9999983520508,0|0,3:0|0:0,0:0:0:0:
127,247,39723,2,0,P|152:255|179:260,1,53.9999983520508,2|2,0:0|0:0,0:0:0:0:
35,194,40076,5,0,3:0:0:0:
92,58,40252,1,0,0:0:0:0:
111,80,40429,2,0,P|96:120|69:155,1,80.9999975280763,2|0,0:0|0:0,0:0:0:0:
54,172,40782,2,0,P|89:143|206:138,1,161.999995056153,0|0,3:0|0:0,0:0:0:0:
340,376,41488,2,0,P|297:360|234:261,1,161.999995056153,2|0,3:2|0:0,0:0:0:0:
373,26,42194,2,0,P|381:72|326:175,1,161.999995056153,2|0,3:2|0:0,0:0:0:0:
203,205,42899,70,0,P|229:197|256:192,1,53.9999983520508,0|0,3:0|0:0,0:0:0:0:
386,225,43252,1,2,0:0:0:0:
217,80,43605,2,0,P|241:92|263:108,1,53.9999983520508,0|0,3:0|0:0,0:0:0:0:
386,225,43958,1,2,0:0:0:0:
315,0,44311,2,0,P|323:26|328:53,1,53.9999983520508,0|0,3:0|0:0,0:0:0:0:
386,225,44664,1,2,0:0:0:0:
392,258,45017,2,0,P|334:202|255:192,1,161.999995056153,0|0,3:0|0:0,0:0:0:0:
126,306,45723,6,0,P|146:288|164:268,1,53.9999983520508,0|0,3:0|0:0,0:0:0:0:
143,149,46076,1,2,0:0:0:0:
160,183,46429,2,0,P|166:209|174:234,1,53.9999983520508,0|2,3:0|0:3,0:0:0:0:
287,276,46782,1,0,0:0:0:0:
250,273,47135,2,0,P|224:265|197:260,1,53.9999983520508,0|0,3:0|0:0,0:0:0:0:
106,337,47488,1,2,0:0:0:0:
82,365,47841,1,0,3:0:0:0:
82,365,48017,1,0,0:0:0:0:
143,149,48194,1,2,0:3:0:0:
110,159,48546,70,0,P|100:189|95:223,1,53.9999983520508,0|0,3:0|0:0,0:0:0:0:
41,295,48899,1,2,0:0:0:0:
263,151,49252,2,0,P|232:157|200:170,1,53.9999983520508,0|0,3:0|0:0,0:0:0:0:
110,159,49605,1,2,0:0:0:0:
307,240,49958,2,0,P|328:258|346:279,1,53.9999983520508,0|0,3:0|0:0,0:0:0:0:
263,151,50311,1,0,0:0:0:0:
291,136,50664,2,0,P|311:118|329:97,1,53.9999983520508,0|0,3:0|0:0,0:0:0:0:
419,60,51017,2,0,P|398:42|380:21,1,53.9999983520508,2|0,0:0|0:0,0:0:0:0:
291,15,51370,1,0,3:0:0:0:
263,33,51546,1,2,0:0:0:0:
196,59,51723,2,0,P|154:54|110:38,1,80.9999975280763,2|0,0:0|0:0,0:0:0:0:
87,29,52076,6,0,P|151:96|155:189,1,188.999994232178,0|0,3:0|0:0,0:0:0:0:
77,204,52782,2,0,P|154:189|232:228,1,161.999995056153,0|0,3:0|0:0,0:0:0:0:
278,328,53488,1,2,3:0:0:0:
396,115,53841,1,2,0:3:0:0:
65,211,54194,70,0,L|5:228,1,53.9999983520508,4|0,3:2|0:0,0:0:0:0:
258,259,54546,2,0,L|317:241,1,53.9999983520508,2|0,0:3|0:0,0:0:0:0:
176,183,54899,2,0,L|158:242,1,53.9999983520508,0|0,3:0|0:0,0:0:0:0:
137,331,55252,1,2,0:3:0:0:
43,356,55605,2,0,P|134:343|224:389,1,188.999994232178,0|0,3:0|0:0,0:0:0:0:
271,379,56311,2,0,L|339:373,2,53.9999983520508,0|0|2,3:0|0:0|0:3,0:0:0:0:
271,379,57017,6,0,B|259:299|295:237|328:303|368:196|345:141|293:114|247:144|247:213,1,350.99998928833,0|2,3:0|0:0,0:0:0:0:
235,251,58252,1,8,0:1:0:0:
235,251,58341,1,8,0:1:0:0:
235,251,58429,1,8,0:1:0:0:
184,176,58605,1,0,1:1:0:0:
199,311,58782,1,8,0:1:0:0:
197,107,58958,1,0,1:1:0:0:
168,375,59135,70,0,P|207:381|244:366,1,80.9999975280763,2|0,3:0|0:0,0:0:0:0:
130,295,59488,6,0,P|136:341|167:374,1,94.499997116089,2|0,3:0|0:0,0:0:0:0:
148,257,59841,5,4,3:1:0:0:
6,151,60017,1,2,0:0:0:0:
184,153,60194,1,2,0:1:0:0:
38,258,60370,1,2,0:0:0:0:
96,87,60546,1,8,0:1:0:0:
105,51,60899,5,2,0:1:0:0:
184,153,61076,1,0,3:0:0:0:
217,50,61252,1,2,0:3:0:0:
243,237,61429,1,2,1:2:0:0:
357,131,61605,2,0,P|304:125|252:139,1,108,2|0,3:1|0:0,0:0:0:0:
184,153,61958,2,0,P|207:102|215:50,1,108,8|0,0:1|0:0,0:0:0:0:
202,17,62311,1,2,3:1:0:0:
252,139,62488,1,8,0:1:0:0:
383,157,62664,70,0,P|335:178|297:216,1,108,4|0,3:2|0:0,0:0:0:0:
277,242,63017,1,2,3:1:0:0:
165,296,63194,1,0,0:0:0:0:
153,268,63282,1,0,0:0:0:0:
172,243,63370,2,0,P|244:227|311:247,1,144,8|0,0:1|0:0,0:0:0:0:
357,361,63899,1,0,3:0:0:0:
357,361,63988,1,0,0:0:0:0:
357,361,64076,1,2,0:3:0:0:
342,376,64252,6,0,P|359:381|377:384,1,36,2|0,0:0|0:0,0:0:0:0:
309,246,64429,2,0,P|305:228|298:211,1,36,2|0,0:1|0:0,0:0:0:0:
213,341,64605,2,0,P|200:353|187:366,1,36,2|0,0:0|0:0,0:0:0:0:
85,387,64782,2,0,P|111:340|117:287,1,108,8|0,0:1|0:0,0:0:0:0:
116,254,65135,1,0,3:0:0:0:
0,302,65311,1,8,0:1:0:0:
85,163,65488,69,4,0:1:0:0:
248,168,65664,1,2,0:0:0:0:
326,312,65841,1,2,0:1:0:0:
270,137,66017,1,2,0:0:0:0:
163,249,66194,2,0,B|151:301|151:301|225:198,1,180,8|0,0:1|0:0,0:0:0:0:
248,168,66723,1,2,3:3:0:0:
329,253,66899,5,4,0:0:0:0:
346,268,66987,1,0,0:0:0:0:
362,286,67075,1,8,0:1:0:0:
373,308,67163,1,0,0:0:0:0:
381,331,67251,1,8,0:3:0:0:
399,315,67341,1,0,0:0:0:0:
421,305,67429,1,4,0:3:0:0:
445,299,67517,1,0,0:0:0:0:
466,295,67605,2,0,P|433:253|420:201,1,108,8|0,1:3|0:0,0:0:0:0:
399,153,67958,1,8,3:0:0:0:
512,203,68135,1,0,3:0:0:0:
329,253,68311,69,4,0:0:0:0:
399,153,68488,1,2,0:3:0:0:
210,170,68664,1,2,0:3:0:0:
296,287,68841,1,2,3:3:0:0:
66,186,69017,2,0,P|101:128|176:132,1,144,8|8,0:1|0:3,0:0:0:0:
240,57,69546,1,4,0:3:0:0:
141,40,69723,5,8,1:3:0:0:
144,62,69811,1,0,0:0:0:0:
148,85,69899,1,0,3:0:0:0:
157,107,69987,1,0,0:0:0:0:
171,129,70075,1,8,0:3:0:0:
141,134,70164,1,0,0:0:0:0:
112,147,70252,1,8,1:3:0:0:
88,163,70340,1,0,0:0:0:0:
66,186,70429,70,0,P|60:147|75:110,1,80.9999975280763,8|8,0:1|0:3,0:0:0:0:
146,224,70782,6,0,P|100:218|67:187,1,94.499997116089,4|0,3:0|0:0,0:0:0:0:
184,206,71135,69,4,3:1:0:0:
290,348,71311,1,2,0:0:0:0:
288,170,71488,1,2,0:1:0:0:
183,316,71664,1,2,0:0:0:0:
354,258,71840,1,8,0:1:0:0:
376,257,72194,5,2,0:1:0:0:
297,368,72370,1,0,3:0:0:0:
295,149,72546,1,2,0:3:0:0:
166,328,72723,1,2,1:2:0:0:
167,193,72899,2,0,P|173:140|159:88,1,108,2|0,3:1|0:0,0:0:0:0:
123,27,73252,2,0,P|174:50|226:58,1,108,8|0,0:1|0:0,0:0:0:0:
295,54,73605,1,2,3:1:0:0:
158,87,73782,1,8,0:1:0:0:
56,185,73958,70,0,P|50:238|62:285,1,72,4|2,3:2|0:0,0:0:0:0:
188,316,74311,2,0,B|117:300|124:348|50:341,2,144,2|8|0,3:1|0:1|0:0,0:0:0:0:
272,267,75194,6,0,L|279:306,1,36,0|0,3:0|0:0,0:0:0:0:
341,216,75371,2,0,L|380:223,1,36,2|0,0:3|0:0,0:0:0:0:
314,136,75547,2,0,L|333:101,1,36,2|0,0:0|0:0,0:0:0:0:
230,136,75724,2,0,L|201:108,1,36,2|0,0:1|0:0,0:0:0:0:
203,216,75900,2,0,L|169:235,1,36,2|0,0:0|3:0,0:0:0:0:
272,194,76076,1,8,0:1:0:0:
376,222,76252,1,4,0:3:0:0:
278,302,76429,1,8,3:3:0:0:
388,336,76605,69,8,0:1:0:0:
388,336,76694,1,8,0:1:0:0:
388,336,76782,2,0,P|419:367|439:398,2,72,4|2|2,1:2|0:0|0:1,0:0:0:0:
278,302,77311,1,2,0:0:0:0:
166,327,77488,2,0,P|132:355|109:384,1,72,8|2,0:1|0:3,0:0:0:0:
201,218,77841,1,2,0:3:0:0:
369,230,78017,1,2,3:3:0:0:
369,230,78105,1,0,0:0:0:0:
369,230,78193,2,0,P|392:192|411:72,1,144,4|8,0:0|3:3,0:0:0:0:
15,23,78899,5,2,1:3:0:0:
120,70,79076,1,2,0:0:0:0:
9,179,79252,1,8,3:1:0:0:
159,220,79429,1,8,0:1:0:0:
88,149,79605,70,0,B|134:151|172:141|172:141|215:160|215:160|258:151|304:153,1,216,4|2,3:1|3:2,0:0:0:0:
248,15,80311,2,0,P|232:47|226:82,1,72,8|0,0:1|0:0,0:0:0:0:
270,236,80664,1,2,1:3:0:0:
298,152,80841,1,8,0:1:0:0:
497,212,81017,6,0,P|427:234|356:218,1,148.50000453186,12|8,0:1|0:1,0:0:0:0:
195,120,81723,2,0,P|247:167|269:235,1,144,8|4,0:1|3:0,0:0:0:0:
235,320,82252,1,8,0:1:0:0:
149,283,82429,70,0,P|117:265|82:261,1,72,4|0,3:2|3:0,0:0:0:0:
269,235,82782,1,0,3:0:0:0:
389,187,82958,2,0,P|420:169|455:165,2,72,4|0|0,1:2|3:0|3:0,0:0:0:0:
221,115,83488,1,2,1:3:0:0:
205,78,83841,6,0,P|222:46|226:11,1,72,4|0,3:2|0:0,0:0:0:0:
253,198,84194,1,0,3:0:0:0:
301,318,84370,2,0,P|318:349|322:384,1,72,4|8,1:2|3:0,0:0:0:0:
253,198,84723,1,4,3:0:0:0:
253,198,84899,1,4,3:1:0:0:
256,192,85076,12,0,86664,0:0:0:0:
256,192,86752,12,0,89135,0:0:0:0:
