osu file format v14

[General]
AudioFilename: 01 .mp3
AudioLeadIn: 1000
PreviewTime: 47782
Countdown: 1
SampleSet: Soft
StackLeniency: 0.7
Mode: 0
LetterboxInBreaks: 1
WidescreenStoryboard: 1

[Editor]
DistanceSpacing: 1
BeatDivisor: 4
GridSize: 4
TimelineZoom: 2.2

[Metadata]
Title:Kanpeki Shinakya!
TitleUnicode:Canペキしなきゃ!
Artist:Hikasa Yoko
ArtistUnicode:日笠陽子
Creator:UnitedWeSin
Version:Insane
Source:RO-KYU-BU!
Tags:Nagatsuka Saki uws
BeatmapID:514275
BeatmapSetID:219647

[Difficulty]
HPDrainRate:7
CircleSize:4
OverallDifficulty:7
ApproachRate:9
SliderMultiplier:1.69999990463257
SliderTickRate:1

[Events]
//Background and Video events
0,0,"bg.jpg",0,0
//Break Periods
2,142374,144945
//Storyboard Layer 0 (Background)
//Storyboard Layer 1 (Fail)
//Storyboard Layer 2 (Pass)
//Storyboard Layer 3 (Foreground)
//Storyboard Sound Samples

[TimingPoints]
1276,337.078651685393,4,2,1,60,1,0
2287,-80,4,2,1,60,0,0
2624,-100,4,2,1,70,0,0
13410,-133.333333333333,4,2,1,50,0,0
24197,-100,4,2,1,60,0,0
34983,-100,4,2,1,60,0,0
40377,-133.333333333333,4,2,1,60,0,0
43073,-133.333333333333,4,2,1,60,0,0
47792,-100,4,2,1,60,0,0
48129,-80,4,2,1,60,0,0
48467,-100,4,2,1,70,0,1
58747,-100,4,2,1,60,0,0
59253,-100,4,2,1,70,0,1
72399,-80,4,2,1,70,0,1
72736,-100,4,2,1,70,0,0
83523,-200,4,2,1,60,0,0
84871,-133.333333333333,4,2,1,60,0,0
86219,-100,4,2,1,60,0,0
91613,-133.333333333333,4,2,1,60,0,0
94309,-100,4,2,1,60,0,0
105096,-100,4,2,1,60,0,0
110489,-133.333333333333,4,2,1,60,0,0
117905,-100,4,2,1,60,0,0
118242,-80,4,2,1,60,0,0
118579,-100,4,2,1,70,0,1
129028,-100,4,2,1,60,0,0
129365,-100,4,2,1,70,0,1
138804,-133.333333333333,4,2,1,60,0,0
140152,-133.333333333333,4,2,1,60,0,0
150938,-100,4,2,1,70,0,0
165770,-133.333333333333,4,2,1,70,0,0
167118,-200,4,2,1,60,0,0
171837,-133.333333333333,4,2,1,60,0,0
176556,-100,4,2,1,60,0,0
177905,-133.333333333333,4,2,1,60,0,0
178916,-80,4,2,1,60,0,0
179253,-100,4,2,1,70,0,1
189702,-100,4,2,1,60,0,0
190040,-100,4,2,1,70,0,1
203186,-80,4,2,1,70,0,1
203523,-100,4,2,1,70,0,0

[Colours]
Combo1 : 255,128,192
Combo2 : 0,249,0
Combo3 : 13,255,255

[HitObjects]
272,12,1276,5,8,0:0:0:0:
272,12,1360,1,8,0:0:0:0:
272,12,1444,2,0,L|284:64,1,42.4999976158143,2|2,0:0|0:0,0:0:0:0:
180,64,1613,5,8,0:3:0:0:
180,64,1697,1,8,0:3:0:0:
180,64,1781,2,0,L|153:125,1,42.4999976158143,2|2,0:0|0:0,0:0:0:0:
192,224,1950,6,0,L|218:162,1,42.4999976158143,4|0,0:3|0:0,0:0:0:0:
324,148,2118,2,0,L|297:209,1,42.4999976158143,2|2,0:0|0:0,0:0:0:0:
208,272,2287,6,0,P|271:226|349:230,1,159.374991059303,4|0,0:0|0:0,0:0:0:0:
424,376,2624,6,0,B|415:291|467:291|452:211,1,169.999990463257,4|8,0:0|0:0,0:0:0:0:
392,100,3129,1,2,0:0:0:0:
392,100,3214,1,8,0:0:0:0:
392,100,3298,2,0,P|360:132|324:148,1,84.9999952316285,2|2,0:0|0:0,0:0:0:0:
216,88,3635,1,8,0:0:0:0:
392,100,3804,6,0,L|372:184,1,84.9999952316285,4|0,0:0|0:0,0:0:0:0:
256,320,4141,2,0,L|236:237,1,84.9999952316285,2|8,0:0|0:0,0:0:0:0:
256,124,4478,1,0,0:0:0:0:
140,320,4646,1,2,0:0:0:0:
156,204,4815,1,2,0:0:0:0:
52,364,4983,2,0,P|44:320|60:268,1,84.9999952316285,8|0,0:0|0:0,0:0:0:0:
204,96,5320,6,0,P|162:143|53:168,1,169.999990463257,4|8,0:0|0:0,0:0:0:0:
248,184,5826,1,2,0:0:0:0:
248,184,5910,1,8,0:0:0:0:
248,184,5995,2,0,P|292:204|336:208,1,84.9999952316285,2|2,0:0|0:0,0:0:0:0:
436,128,6332,1,8,0:0:0:0:
328,248,6500,6,0,L|356:340,1,84.9999952316285,4|0,0:0|0:0,0:0:0:0:
348,104,6837,2,0,L|368:12,1,84.9999952316285,2|8,0:0|0:0,0:0:0:0:
236,160,7174,2,0,P|188:172|144:168,1,84.9999952316285,0|2,0:0|0:0,0:0:0:0:
276,28,7511,1,2,0:0:0:0:
276,28,7596,1,8,0:0:0:0:
276,28,7680,1,2,0:0:0:0:
256,248,7849,1,8,0:3:0:0:
168,72,8017,6,0,B|120:24|120:24|112:96|64:112,1,169.999990463257,4|8,0:0|0:0,0:0:0:0:
168,180,8523,1,2,0:0:0:0:
168,180,8607,1,8,0:0:0:0:
168,180,8691,1,2,0:0:0:0:
24,24,8860,2,0,L|24:116,1,84.9999952316285,2|8,0:0|0:0,0:0:0:0:
68,328,9197,6,0,P|88:288|132:252,1,84.9999952316285,4|0,0:0|0:0,0:0:0:0:
244,344,9534,2,0,P|286:329|342:335,1,84.9999952316285,2|8,0:0|0:0,0:0:0:0:
480,224,9871,1,2,0:0:0:0:
492,256,9955,1,8,0:0:0:0:
504,288,10040,1,2,0:0:0:0:
384,372,10208,1,2,0:0:0:0:
296,220,10377,1,8,0:0:0:0:
464,184,10545,1,8,0:3:0:0:
296,340,10714,6,0,P|226:322|182:229,1,169.999990463257,4|8,0:0|0:0,0:0:0:0:
228,136,11219,1,0,0:0:0:0:
296,220,11388,1,8,0:3:0:0:
176,348,11556,1,2,0:0:0:0:
176,348,11641,1,8,0:0:0:0:
176,348,11725,1,2,0:0:0:0:
84,160,11893,6,0,L|60:248,1,84.9999952316285,4|0,0:0|0:0,0:0:0:0:
184,112,12231,2,0,P|154:74|116:60,1,84.9999952316285,2|0,0:0|0:0,0:0:0:0:
232,220,12568,2,0,B|308:191|339:258|420:224,1,169.999990463257,2|8,0:0|0:0,0:0:0:0:
376,128,13073,1,8,0:0:0:0:
400,331,13242,1,8,0:3:0:0:
484,168,13410,6,0,P|503:228|491:290,2,127.499997711182,4|2|2,0:0|0:0|0:0,0:0:0:0:
412,116,14253,1,0,0:0:0:0:
368,196,14422,2,0,P|336:216|296:228,1,63.7499988555908,2|0,0:0|0:0,0:0:0:0:
148,152,14759,6,0,P|200:136|276:172,1,127.499997711182,2|2,0:0|0:0,0:0:0:0:
296,248,15264,1,0,0:0:0:0:
296,248,15433,1,2,0:0:0:0:
200,232,15601,1,8,0:3:0:0:
192,336,15770,2,0,P|160:328|128:308,1,63.7499988555908,4|0,0:0|0:0,0:0:0:0:
296,216,16107,6,0,L|328:292,1,63.7499988555908,2|0,0:0|0:0,0:0:0:0:
364,156,16444,2,0,L|396:232,1,63.7499988555908,2|0,0:0|0:0,0:0:0:0:
416,88,16781,1,2,0:0:0:0:
456,164,16950,1,0,0:0:0:0:
328,72,17118,2,0,P|300:56|276:20,1,63.7499988555908,2|0,0:0|0:0,0:0:0:0:
276,136,17455,6,0,P|220:128|152:176,2,127.499997711182,2|2|2,0:0|0:0|0:0,0:0:0:0:
244,280,18298,1,8,0:3:0:0:
160,248,18467,2,0,P|128:244|80:248,1,63.7499988555908,4|0,0:0|0:0,0:0:0:0:
272,320,18804,6,0,P|316:304|400:320,1,127.499997711182,2|2,0:0|0:0,0:0:0:0:
472,360,19309,1,0,0:0:0:0:
396,268,19478,2,0,P|376:208|388:132,1,127.499997711182,2|2,0:0|0:0,0:0:0:0:
460,96,19983,2,0,P|472:124|472:164,2,63.7499988555908,0|2|0,0:0|0:0|0:0,0:0:0:0:
376,44,20489,1,2,0:0:0:0:
272,156,20658,6,0,L|184:124,1,63.7499988555908,0|2,0:0|0:0,0:0:0:0:
256,32,20995,1,8,0:3:0:0:
288,244,21163,1,2,0:0:0:0:
196,104,21332,1,0,0:0:0:0:
224,304,21500,6,0,L|204:384,1,63.7499988555908,2|0,0:0|0:0,0:0:0:0:
352,176,21837,2,0,L|336:104,1,63.7499988555908,2|0,0:0|0:0,0:0:0:0:
182,203,22174,1,8,0:0:0:0:
366,211,22343,1,8,0:3:0:0:
270,367,22511,1,4,0:3:0:0:
264,160,22680,6,0,B|244:128|244:128|248:64|248:64|232:12,1,127.499997711182,4|8,0:0|0:0,0:0:0:0:
152,163,23186,1,8,0:0:0:0:
333,76,23354,1,2,0:0:0:0:
316,260,23523,1,4,0:3:0:0:
264,160,23691,1,2,0:0:0:0:
264,160,23775,1,8,0:0:0:0:
264,160,23860,2,0,P|221:149|192:128,1,63.7499988555908,4|0,0:0|0:0,0:0:0:0:
56,248,24197,6,0,P|116:252|196:336,1,169.999990463257,4|8,0:0|0:0,0:0:0:0:
308,380,24702,1,0,0:0:0:0:
280,224,24871,2,0,L|368:260,1,84.9999952316285,2|0,0:0|0:0,0:0:0:0:
464,368,25208,2,0,P|448:288|464:232,1,127.499992847443,8|0,0:0|0:0,0:0:0:0:
500,184,25545,6,0,L|488:88,1,84.9999952316285,2|0,0:0|0:0,0:0:0:0:
372,200,25882,1,8,0:0:0:0:
280,80,26051,1,0,0:0:0:0:
440,12,26219,2,0,P|409:40|391:84,1,84.9999952316285,2|2,0:0|0:0,0:0:0:0:
204,272,26556,2,0,P|234:243|252:199,1,84.9999952316285,8|2,0:0|0:0,0:0:0:0:
136,88,26893,6,0,L|168:176,1,84.9999952316285,2|0,0:0|0:0,0:0:0:0:
88,0,27231,2,0,P|57:28|39:72,1,84.9999952316285,8|0,0:0|0:0,0:0:0:0:
92,280,27568,1,2,0:0:0:0:
236,136,27736,1,2,0:0:0:0:
80,112,27905,1,8,0:0:0:0:
248,256,28073,6,0,L|436:228,1,169.999990463257,4|2,0:0|0:0,0:0:0:0:
432,128,28579,1,8,0:0:0:0:
372,312,28747,2,0,P|340:283|327:236,1,84.9999952316285,0|2,0:0|0:0,0:0:0:0:
496,228,29084,5,8,0:0:0:0:
340,148,29253,1,8,0:0:0:0:
476,40,29422,1,2,0:0:0:0:
409,191,29590,6,0,P|380:160|340:148,1,84.9999952316285,4|0,0:0|0:0,0:0:0:0:
191,143,29927,2,0,P|178:183|147:212,1,84.9999952316285,8|0,0:0|0:0,0:0:0:0:
95,87,30264,2,0,P|139:47|247:47,1,169.999990463257,2|2,0:0|0:0,0:0:0:0:
328,115,30770,1,0,0:0:0:0:
193,203,30938,5,2,0:0:0:0:
259,305,31107,1,2,0:0:0:0:
274,105,31275,1,8,0:0:0:0:
364,267,31444,2,0,P|344:231|308:203,1,84.9999952316285,0|2,0:0|0:0,0:0:0:0:
147,291,31781,1,2,0:0:0:0:
143,327,31865,1,8,0:0:0:0:
159,363,31950,1,4,0:3:0:0:
276,183,32118,1,2,0:0:0:0:
147,292,32287,6,0,P|111:256|111:124,1,169.999990463257,4|8,0:0|0:0,0:0:0:0:
264,52,32792,2,0,P|300:88|300:220,1,169.999990463257,4|2,0:0|0:0,0:0:0:0:
168,60,33298,1,8,0:0:0:0:
224,248,33467,5,2,0:0:0:0:
236,284,33551,1,8,0:0:0:0:
248,320,33635,1,4,0:0:0:0:
108,264,33804,1,2,0:0:0:0:
224,144,33972,1,8,0:3:0:0:
185,349,34141,2,0,P|203:311|236:284,1,84.9999952316285,4|0,0:0|0:0,0:0:0:0:
453,223,34478,5,8,0:0:0:0:
466,262,34562,1,2,0:0:0:0:
449,300,34646,1,8,0:0:0:0:
410,318,34731,1,8,0:0:0:0:
368,306,34815,1,8,0:0:0:0:
356,265,34899,1,8,0:0:0:0:
371,225,34983,6,0,P|386:183|380:134,1,84.9999952316285,4|0,0:0|0:0,0:0:0:0:
190,150,35320,2,0,L|287:173,1,84.9999952316285,8|2,0:0|0:0,0:0:0:0:
394,27,35658,2,0,L|311:47,1,84.9999952316285,8|2,0:0|0:0,0:0:0:0:
124,203,35995,2,0,P|166:180|191:145,1,84.9999952316285,8|2,0:0|0:0,0:0:0:0:
86,93,36332,5,4,0:0:0:0:
33,186,36500,1,2,0:0:0:0:
36,12,36669,1,8,0:0:0:0:
195,82,36837,2,0,L|216:-2,1,84.9999952316285,2|8,0:0|0:0,0:0:0:0:
125,204,37174,1,2,0:0:0:0:
125,204,37259,1,2,0:0:0:0:
125,204,37343,2,0,L|137:247,2,42.4999976158143,8|8|4,0:3|0:0|0:3,0:0:0:0:
257,253,37680,6,0,L|228:344,1,84.9999952316285,4|0,0:0|0:0,0:0:0:0:
261,147,38017,2,0,P|307:125|356:126,1,84.9999952316285,8|2,0:0|0:0,0:0:0:0:
459,327,38354,2,0,P|413:349|364:348,1,84.9999952316285,8|2,0:0|0:0,0:0:0:0:
433,151,38691,2,0,P|435:108|421:69,1,84.9999952316285,8|2,0:0|0:0,0:0:0:0:
340,245,39028,5,4,0:0:0:0:
235,110,39197,1,0,0:0:0:0:
419,177,39365,1,8,0:0:0:0:
277,333,39534,2,0,L|362:345,1,84.9999952316285,4|8,0:0|0:0,0:0:0:0:
336,141,39871,1,2,0:0:0:0:
319,162,39955,1,8,0:0:0:0:
302,183,40040,2,0,L|292:226,2,42.4999976158143,2|8|8,0:0|0:0|0:0,0:0:0:0:
188,41,40377,6,0,P|161:77|126:95,1,63.7499988555908,4|8,0:0|0:0,0:0:0:0:
50,75,40714,1,2,0:0:0:0:
101,2,40882,1,2,0:0:0:0:
137,170,41051,2,0,L|158:316,1,127.499997711182,8|2,0:0|0:0,0:0:0:0:
42,158,41556,1,0,0:0:0:0:
227,159,41725,6,0,P|259:151|288:128,1,63.7499988555908,2|8,0:0|0:0,0:0:0:0:
332,62,42062,1,8,0:3:0:0:
353,203,42231,1,2,0:0:0:0:
366,184,42315,1,8,0:0:0:0:
381,165,42399,2,0,P|406:146|437:139,1,63.7499988555908,4|0,0:0|0:0,0:0:0:0:
364,284,42736,2,0,P|332:282|303:268,1,63.7499988555908,8|0,0:0|0:0,0:0:0:0:
194,166,43073,6,0,L|202:229,1,63.7499988555908,4|8,0:0|0:0,0:0:0:0:
116,91,43410,2,0,L|91:157,1,63.7499988555908,2|2,0:0|0:0,0:0:0:0:
222,62,43747,1,8,0:0:0:0:
192,178,43916,1,8,0:0:0:0:
101,89,44084,1,2,0:0:0:0:
288,151,44253,6,0,P|341:138|394:70,1,127.499997711182,4|0,0:0|0:0,0:0:0:0:
292,49,44759,1,2,0:0:0:0:
280,234,44927,1,2,0:0:0:0:
280,234,45011,1,2,0:0:0:0:
280,234,45096,2,0,P|248:241|218:267,1,63.7499988555908,4|2,0:0|0:0,0:0:0:0:
202,370,45433,1,8,0:3:0:0:
310,334,45601,1,4,0:3:0:0:
200,172,45770,6,0,P|174:191|144:198,1,63.7499988555908,4|0,0:0|0:0,0:0:0:0:
119,41,46107,2,0,L|142:101,1,63.7499988555908,8|0,0:0|0:0,0:0:0:0:
21,35,46444,1,2,0:0:0:0:
63,183,46613,2,0,P|63:223|46:262,1,63.7499988555908,2|8,0:0|0:0,0:0:0:0:
178,349,46950,6,0,B|233:330|254:368|308:347,1,127.499997711182,4|8,0:0|0:3,0:0:0:0:
371,245,47455,1,4,0:3:0:0:
417,355,47624,1,2,0:0:0:0:
272,268,47792,6,0,P|258:219|256:181,1,84.9999952316285,2|0,0:0|0:0,0:0:0:0:
296,31,48129,6,0,B|318:68|294:113|294:113|337:140|341:198,1,159.374991059303,6|0,0:0|0:0,0:0:0:0:
256,186,48467,6,0,P|213:178|163:187,1,84.9999952316285,4|0,0:0|0:0,0:0:0:0:
48,337,48804,2,0,P|89:322|128:289,1,84.9999952316285,8|0,0:0|0:0,0:0:0:0:
78,125,49141,1,2,0:0:0:0:
42,232,49309,1,2,0:0:0:0:
175,180,49478,2,0,L|195:98,1,84.9999952316285,8|0,0:0|0:0,0:0:0:0:
0,63,49815,6,0,P|36:35|81:24,1,84.9999952316285,2|0,0:0|0:0,0:0:0:0:
208,61,50152,1,8,0:0:0:0:
135,204,50320,1,2,0:0:0:0:
142,241,50405,1,8,0:0:0:0:
149,278,50489,1,2,0:0:0:0:
280,122,50658,1,2,0:0:0:0:
116,170,50826,2,0,P|66:170|26:153,1,84.9999952316285,8|0,0:0|0:0,0:0:0:0:
240,349,51163,6,0,P|284:326|327:323,1,84.9999952316285,2|0,0:0|0:0,0:0:0:0:
449,181,51500,2,0,L|424:267,1,84.9999952316285,8|0,0:0|0:0,0:0:0:0:
356,88,51837,1,2,0:0:0:0:
480,60,52006,1,2,0:0:0:0:
328,192,52174,2,0,P|292:176|258:137,1,84.9999952316285,8|0,0:0|0:0,0:0:0:0:
40,72,52511,6,0,B|112:97|132:43|206:72,1,169.999990463257,2|8,0:0|0:0,0:0:0:0:
328,192,53017,2,0,P|348:150|344:96,1,84.9999952316285,4|2,0:0|0:0,0:0:0:0:
192,224,53354,1,8,0:0:0:0:
198,267,53439,1,2,0:0:0:0:
223,301,53523,1,2,0:0:0:0:
236,132,53691,1,8,0:3:0:0:
296,352,53860,6,0,P|311:304|305:271,1,84.9999952316285,4|0,0:0|0:0,0:0:0:0:
132,328,54197,2,0,P|92:357|47:363,1,84.9999952316285,8|0,0:0|0:0,0:0:0:0:
136,192,54534,1,2,0:0:0:0:
224,300,54702,1,2,0:0:0:0:
56,264,54871,2,0,P|34:227|29:185,1,84.9999952316285,8|2,0:0|0:0,0:0:0:0:
288,194,55208,6,0,P|281:145|259:113,1,84.9999952316285,2|2,0:0|0:0,0:0:0:0:
251,298,55545,1,8,0:0:0:0:
397,178,55714,2,0,P|395:228|374:270,1,84.9999952316285,4|0,0:0|0:0,0:0:0:0:
185,218,56051,1,2,0:0:0:0:
342,93,56219,1,8,0:0:0:0:
314,328,56388,1,2,0:0:0:0:
331,356,56472,1,8,0:0:0:0:
360,371,56556,6,0,P|401:370|447:351,1,84.9999952316285,4|0,0:0|0:0,0:0:0:0:
332,168,56893,2,0,P|367:202|377:245,1,84.9999952316285,8|0,0:0|0:0,0:0:0:0:
264,256,57231,2,0,L|223:246,2,42.4999976158143,2|8|2,0:0|0:0|0:0,0:0:0:0:
314,122,57568,1,4,0:3:0:0:
255,376,57736,1,8,0:3:0:0:
142,195,57905,6,0,L|115:112,1,84.9999952316285,4|8,0:0|0:0,0:0:0:0:
276,13,58242,1,2,0:0:0:0:
142,195,58410,2,0,P|191:183|231:192,1,84.9999952316285,4|2,0:0|0:0,0:0:0:0:
434,364,58747,1,8,0:0:0:0:
393,379,58832,1,2,0:0:0:0:
352,367,58916,1,8,0:0:0:0:
324,334,59000,1,2,0:0:0:0:
319,291,59084,1,8,0:0:0:0:
341,254,59169,1,8,0:0:0:0:
379,235,59253,6,0,P|405:203|407:148,1,84.9999952316285,4|0,0:0|0:0,0:0:0:0:
204,72,59590,2,0,L|301:59,1,84.9999952316285,8|0,0:0|0:0,0:0:0:0:
404,48,59927,1,2,0:0:0:0:
312,164,60096,1,2,0:0:0:0:
204,72,60264,2,0,L|187:156,1,84.9999952316285,8|0,0:0|0:0,0:0:0:0:
130,283,60601,6,0,P|97:247|61:230,1,84.9999952316285,2|0,0:0|0:0,0:0:0:0:
208,344,60938,2,0,P|249:327|297:326,1,84.9999952316285,8|2,0:0|0:0,0:0:0:0:
289,324,61191,1,8,0:0:0:0:
289,324,61275,1,2,0:0:0:0:
112,372,61444,1,2,0:0:0:0:
249,238,61613,2,0,L|226:151,1,84.9999952316285,8|0,0:0|0:0,0:0:0:0:
31,97,61950,6,0,P|86:109|122:101,1,84.9999952316285,2|0,0:0|0:0,0:0:0:0:
281,43,62287,2,0,L|302:125,1,84.9999952316285,8|0,0:0|0:0,0:0:0:0:
99,234,62624,1,2,0:0:0:0:
203,109,62792,1,2,0:0:0:0:
316,219,62961,2,0,P|353:238|401:243,1,84.9999952316285,8|0,0:0|0:0,0:0:0:0:
224,357,63298,6,0,L|174:176,1,169.999990463257,2|8,0:0|0:0,0:0:0:0:
88,112,63804,2,0,P|63:147|59:197,1,84.9999952316285,2|0,0:0|0:0,0:0:0:0:
232,264,64141,5,4,0:0:0:0:
29,202,64309,1,4,0:0:0:0:
186,53,64478,1,2,0:0:0:0:
141,235,64646,6,0,P|166:200|204:179,1,84.9999952316285,4|0,0:0|0:0,0:0:0:0:
360,174,64983,1,8,0:0:0:0:
282,344,65152,1,2,0:0:0:0:
314,317,65236,1,8,0:0:0:0:
330,278,65320,1,2,0:0:0:0:
289,105,65489,1,2,0:0:0:0:
232,264,65658,1,8,0:0:0:0:
359,175,65826,5,2,0:0:0:0:
359,175,65910,1,8,0:0:0:0:
359,175,65995,1,2,0:0:0:0:
199,171,66163,1,8,0:0:0:0:
348,39,66332,1,8,0:0:0:0:
312,253,66500,2,0,P|351:184|434:157,1,169.999990463257,2|8,0:0|0:0,0:0:0:0:
436,280,67006,1,8,0:0:0:0:
281,109,67174,1,4,0:0:0:0:
285,348,67343,6,0,P|242:323|219:282,1,84.9999952316285,2|0,0:0|0:0,0:0:0:0:
144,80,67680,2,0,P|187:105|210:146,1,84.9999952316285,8|2,0:0|0:0,0:0:0:0:
56,292,68017,2,0,P|81:249|122:226,1,84.9999952316285,8|2,0:0|0:0,0:0:0:0:
292,184,68354,1,8,0:0:0:0:
154,322,68523,1,2,0:0:0:0:
62,123,68691,6,0,P|37:166|-4:189,1,84.9999952316285,4|2,0:0|0:0,0:0:0:0:
131,18,69028,1,8,0:0:0:0:
192,204,69197,1,2,0:0:0:0:
207,169,69281,1,2,0:0:0:0:
229,138,69365,1,8,0:0:0:0:
228,308,69534,1,8,0:0:0:0:
88,232,69702,2,0,P|108:276|140:300,1,84.9999952316285,8|0,0:3|0:0,0:0:0:0:
328,260,70040,5,8,0:0:0:0:
156,120,70208,1,8,0:0:0:0:
360,24,70377,1,4,0:0:0:0:
252,212,70545,2,0,P|280:180|324:168,1,84.9999952316285,2|8,0:0|0:0,0:0:0:0:
468,263,70882,5,8,0:0:0:0:
468,263,70967,1,2,0:0:0:0:
468,263,71051,2,0,L|488:311,3,42.4999976158143,8|2|2|2,0:0|0:0|0:0|0:0,0:0:0:0:
424,187,71388,5,8,0:0:0:0:
392,214,71472,1,2,0:0:0:0:
376,253,71556,1,2,0:0:0:0:
379,295,71641,1,2,0:0:0:0:
395,333,71725,2,0,L|413:379,1,42.4999976158143,8|2,0:0|0:0,0:0:0:0:
300,328,71893,2,0,L|284:288,1,42.4999976158143,2|2,0:0|0:0,0:0:0:0:
286,165,72062,2,0,L|301:204,2,42.4999976158143,8|2|2,0:3|0:0|0:0,0:0:0:0:
132,327,72399,6,0,B|189:301|192:241|192:241|172:196,1,159.374991059303,4|0,0:0|0:0,0:0:0:0:
105,246,72736,6,0,P|42:201|24:108,1,169.999990463257,4|8,0:0|0:0,0:0:0:0:
171,114,73242,1,2,0:0:0:0:
171,114,73326,1,8,0:0:0:0:
171,114,73410,2,0,P|216:112|259:93,1,84.9999952316285,2|2,0:0|0:0,0:0:0:0:
332,8,73747,1,8,0:0:0:0:
268,143,73916,6,0,P|271:179|295:228,1,84.9999952316285,4|0,0:0|0:0,0:0:0:0:
434,65,74253,2,0,P|430:101|407:150,1,84.9999952316285,2|8,0:0|0:0,0:0:0:0:
291,36,74590,1,2,0:0:0:0:
291,36,74674,1,8,0:0:0:0:
291,36,74759,1,2,0:0:0:0:
324,235,74927,1,2,0:0:0:0:
218,149,75096,2,0,P|180:131|137:128,1,84.9999952316285,8|2,0:0|0:0,0:0:0:0:
193,338,75433,6,0,B|267:309|287:363|370:334,1,169.999990463257,4|8,0:0|0:0,0:0:0:0:
176,364,75938,1,2,0:0:0:0:
176,364,76023,1,8,0:0:0:0:
176,364,76107,2,0,P|139:335|93:322,1,84.9999952316285,2|2,0:0|0:0,0:0:0:0:
48,189,76444,1,8,0:0:0:0:
182,307,76613,6,0,L|202:222,1,84.9999952316285,4|0,0:0|0:0,0:0:0:0:
177,53,76950,1,2,0:0:0:0:
99,192,77118,1,8,0:0:0:0:
307,162,77287,2,0,L|287:244,1,84.9999952316285,0|2,0:0|0:0,0:0:0:0:
111,110,77624,1,2,0:0:0:0:
111,110,77708,1,8,0:0:0:0:
111,110,77792,1,8,0:3:0:0:
261,52,77961,1,2,0:0:0:0:
195,257,78129,6,0,P|227:314|338:324,1,169.999990463257,4|8,0:0|0:0,0:0:0:0:
405,208,78635,1,0,0:0:0:0:
466,330,78804,1,2,0:0:0:0:
341,283,78972,1,2,0:0:0:0:
478,163,79141,1,8,0:0:0:0:
302,154,79309,6,0,P|310:114|340:68,1,84.9999952316285,4|0,0:0|0:0,0:0:0:0:
341,283,79646,2,0,L|268:338,1,84.9999952316285,2|8,0:0|0:0,0:0:0:0:
85,272,79983,1,2,0:0:0:0:
123,269,80068,1,8,0:0:0:0:
161,266,80152,1,2,0:0:0:0:
200,368,80320,1,2,0:0:0:0:
104,176,80489,1,8,0:0:0:0:
20,360,80658,1,8,0:3:0:0:
160,266,80826,6,0,B|218:243|270:284|270:284|304:278|326:255,1,169.999990463257,4|8,0:0|0:0,0:0:0:0:
288,153,81332,1,2,0:0:0:0:
200,351,81500,1,8,0:3:0:0:
161,172,81669,1,2,0:0:0:0:
126,156,81753,1,8,0:0:0:0:
87,153,81837,1,2,0:0:0:0:
221,365,82006,6,0,L|324:338,1,84.9999952316285,4|0,0:0|0:0,0:0:0:0:
495,237,82343,2,0,L|392:210,1,84.9999952316285,2|0,0:0|0:0,0:0:0:0:
180,166,82680,2,0,P|236:156|315:56,1,169.999990463257,2|8,0:0|0:0,0:0:0:0:
176,17,83186,1,8,0:0:0:0:
120,235,83354,1,8,0:3:0:0:
48,156,83523,6,0,B|19:214|19:214|32:290|32:290|-2:372,1,212.499988079071,4|2,0:0|0:0,0:0:0:0:
4,355,84450,1,2,0:0:0:0:
4,355,84534,1,8,0:0:0:0:
180,113,84871,5,4,0:0:0:0:
250,273,85040,1,2,0:0:0:0:
316,59,85545,5,8,0:3:0:0:
168,230,85714,1,8,0:0:0:0:
197,200,85798,1,8,0:0:0:0:
233,181,85882,2,0,L|289:174,2,31.8749994277954,2|0|2,0:0|0:0|0:0,0:0:0:0:
147,347,86219,6,0,P|151:305|135:253,1,84.9999952316285,4|0,0:0|0:0,0:0:0:0:
58,177,86556,1,8,0:0:0:0:
16,291,86725,2,0,L|0:330,2,42.4999976158143,0|0|2,0:0|0:0|0:0,0:0:0:0:
88,153,87062,1,2,0:0:0:0:
184,260,87231,2,0,P|222:266|273:255,1,84.9999952316285,8|2,0:0|0:0,0:0:0:0:
267,257,87483,1,8,0:0:0:0:
267,257,87568,5,2,0:0:0:0:
218,156,87736,1,2,0:0:0:0:
178,355,87905,1,8,0:0:0:0:
300,231,88073,2,0,P|323:234|348:244,2,42.4999976158143,2|8|2,0:0|0:0|0:0,0:0:0:0:
289,345,88410,1,2,0:0:0:0:
148,212,88579,2,0,L|123:302,1,84.9999952316285,8|0,0:0|0:0,0:0:0:0:
316,137,88916,6,0,L|300:49,2,84.9999952316285,2|2|8,0:0|0:0|0:0,0:0:0:0:
407,225,89422,1,2,0:0:0:0:
418,193,89506,1,8,0:0:0:0:
429,161,89590,1,2,0:0:0:0:
293,228,89759,1,2,0:0:0:0:
410,328,89927,2,0,P|362:312|318:312,1,84.9999952316285,8|2,0:0|0:0,0:0:0:0:
295,322,90180,1,8,0:0:0:0:
266,340,90264,6,0,L|221:252,1,84.9999952316285,2|2,0:0|0:0,0:0:0:0:
82,190,90601,2,0,L|120:265,1,84.9999952316285,8|2,0:0|0:0,0:0:0:0:
189,115,90938,1,8,0:0:0:0:
189,115,91023,1,8,0:0:0:0:
189,115,91107,1,8,0:3:0:0:
147,272,91275,1,8,0:3:0:0:
91,106,91444,1,2,0:0:0:0:
276,184,91613,6,0,L|366:167,1,63.7499988555908,4|0,0:0|0:0,0:0:0:0:
216,328,91950,2,0,L|126:311,1,63.7499988555908,2|0,0:0|0:0,0:0:0:0:
256,144,92287,1,8,0:0:0:0:
300,288,92455,2,0,P|323:321|360:339,1,63.7499988555908,8|4,0:3|0:3,0:0:0:0:
192,224,92792,6,0,P|165:179|76:156,1,127.499997711182,4|8,0:0|0:0,0:0:0:0:
92,256,93298,1,8,0:0:0:0:
268,152,93467,1,2,0:0:0:0:
264,360,93635,1,2,0:0:0:0:
204,248,93804,1,2,0:0:0:0:
204,248,93888,1,8,0:0:0:0:
204,248,93972,2,0,P|250:232|287:232,1,63.7499988555908,4|0,0:0|0:0,0:0:0:0:
489,342,94309,6,0,P|435:336|375:240,1,169.999990463257,4|8,0:0|0:0,0:0:0:0:
424,136,94815,1,0,0:0:0:0:
400,352,94983,2,0,L|312:328,1,84.9999952316285,2|2,0:0|0:0,0:0:0:0:
184,160,95320,2,0,P|208:184|228:280,1,127.499992847443,8|0,0:0|0:0,0:0:0:0:
176,328,95658,6,0,L|88:304,1,84.9999952316285,2|0,0:0|0:0,0:0:0:0:
68,92,95995,1,8,0:0:0:0:
20,204,96163,1,0,0:0:0:0:
184,160,96332,2,0,P|228:140|252:112,1,84.9999952316285,2|2,0:0|0:0,0:0:0:0:
432,108,96669,2,0,P|388:128|364:156,1,84.9999952316285,8|2,0:0|0:0,0:0:0:0:
312,344,97006,6,0,P|360:352|400:340,1,84.9999952316285,2|0,0:0|0:0,0:0:0:0:
248,236,97343,2,0,L|220:324,1,84.9999952316285,8|0,0:0|0:0,0:0:0:0:
328,172,97680,1,2,0:0:0:0:
416,332,97849,1,2,0:0:0:0:
504,184,98017,1,8,0:0:0:0:
308,320,98186,6,0,B|234:291|214:345|131:316,1,169.999990463257,4|2,0:0|0:0,0:0:0:0:
88,204,98691,1,8,0:0:0:0:
28,384,98860,2,0,P|16:344|20:292,1,84.9999952316285,0|2,0:0|0:0,0:0:0:0:
132,116,99197,5,8,0:0:0:0:
36,208,99365,1,8,0:3:0:0:
64,16,99534,1,4,0:3:0:0:
124,220,99702,6,0,P|165:216|205:197,1,84.9999952316285,4|0,0:0|0:0,0:0:0:0:
286,58,100040,2,0,L|270:146,1,84.9999952316285,8|0,0:0|0:0,0:0:0:0:
284,360,100377,2,0,P|324:328|304:212,1,169.999990463257,2|8,0:0|0:0,0:0:0:0:
184,180,100882,1,0,0:0:0:0:
184,380,101051,5,2,0:0:0:0:
96,208,101219,1,2,0:0:0:0:
244,276,101388,1,8,0:0:0:0:
88,348,101556,2,0,P|118:308|164:288,1,84.9999952316285,0|2,0:0|0:0,0:0:0:0:
368,348,101893,1,8,0:0:0:0:
328,368,101978,1,2,0:0:0:0:
284,360,102062,1,8,0:3:0:0:
392,160,102231,1,4,0:3:0:0:
316,273,102399,6,0,L|276:93,1,169.999990463257,4|8,0:0|0:0,0:0:0:0:
208,288,102905,2,0,P|164:232|56:216,1,169.999990463257,4|2,0:0|0:0,0:0:0:0:
98,327,103410,1,8,0:0:0:0:
164,120,103579,5,2,0:0:0:0:
164,120,103663,1,8,0:0:0:0:
164,120,103747,1,2,0:0:0:0:
60,128,103916,1,2,0:0:0:0:
176,16,104084,1,8,0:3:0:0:
240,188,104253,2,0,P|276:148|304:136,1,84.9999952316285,4|0,0:0|0:0,0:0:0:0:
500,264,104590,5,8,0:0:0:0:
482,297,104674,1,2,0:0:0:0:
450,319,104759,1,8,0:0:0:0:
411,319,104843,1,8,0:0:0:0:
374,306,104927,1,8,0:0:0:0:
353,273,105011,1,8,0:0:0:0:
359,234,105096,6,0,L|383:130,1,84.9999952316285,4|0,0:0|0:0,0:0:0:0:
201,301,105433,2,0,L|225:197,1,84.9999952316285,8|2,0:0|0:0,0:0:0:0:
39,368,105770,2,0,L|63:264,1,84.9999952316285,8|2,0:0|0:0,0:0:0:0:
185,90,106107,2,0,P|158:123|119:140,1,84.9999952316285,8|2,0:0|0:0,0:0:0:0:
306,92,106444,5,4,0:0:0:0:
200,208,106613,1,0,0:0:0:0:
236,16,106781,1,8,0:0:0:0:
293,259,106950,2,0,P|302:217|294:176,1,84.9999952316285,2|8,0:0|0:0,0:0:0:0:
122,40,107287,1,2,0:0:0:0:
105,74,107371,1,2,0:0:0:0:
106,112,107455,1,8,0:0:0:0:
271,23,107624,1,2,0:0:0:0:
138,195,107792,6,0,P|180:198|217:217,1,84.9999952316285,4|0,0:0|0:0,0:0:0:0:
190,384,108129,2,0,P|162:352|150:311,1,84.9999952316285,8|2,0:0|0:0,0:0:0:0:
332,213,108467,2,0,P|325:258|301:299,1,84.9999952316285,8|2,0:0|0:0,0:0:0:0:
262,123,108804,1,8,0:0:0:0:
388,111,108972,1,2,0:0:0:0:
271,317,109141,6,0,P|229:303|184:273,1,84.9999952316285,4|0,0:0|0:0,0:0:0:0:
114,116,109478,1,8,0:0:0:0:
75,220,109646,1,2,0:0:0:0:
151,88,109815,1,8,0:0:0:0:
8,122,109983,1,2,0:0:0:0:
11,83,110068,1,2,0:0:0:0:
31,51,110152,1,8,0:0:0:0:
181,2,110320,1,0,0:0:0:0:
176,204,110489,6,0,L|154:145,1,63.7499988555908,4|8,0:0|0:0,0:0:0:0:
276,182,110826,2,0,L|285:118,1,63.7499988555908,2|2,0:0|0:0,0:0:0:0:
266,309,111163,2,0,P|296:274|386:259,1,127.499997711182,8|2,0:0|0:0,0:0:0:0:
356,358,111669,1,0,0:0:0:0:
189,287,111837,6,0,P|172:316|139:345,1,63.7499988555908,2|8,0:0|0:0,0:0:0:0:
86,208,112174,1,8,0:3:0:0:
23,352,112343,1,2,0:0:0:0:
23,352,112427,1,8,0:0:0:0:
23,352,112511,2,0,P|40:323|73:294,1,63.7499988555908,4|2,0:0|0:0,0:0:0:0:
172,185,112849,1,8,0:3:0:0:
172,185,113017,1,2,0:0:0:0:
193,364,113186,6,0,L|185:300,1,63.7499988555908,4|2,0:0|0:0,0:0:0:0:
276,137,113523,2,0,L|284:201,1,63.7499988555908,2|0,0:0|0:0,0:0:0:0:
162,306,113860,1,4,0:0:0:0:
290,224,114028,1,0,0:0:0:0:
178,196,114197,1,2,0:0:0:0:
281,341,114365,6,0,P|349:331|389:288,1,127.499997711182,2|8,0:0|0:0,0:0:0:0:
408,166,114871,1,2,0:0:0:0:
500,270,115040,1,2,0:0:0:0:
492,242,115124,1,8,0:0:0:0:
488,213,115208,2,0,P|491:168|497:143,1,63.7499988555908,4|0,0:0|0:0,0:0:0:0:
329,50,115545,2,0,P|326:95|320:120,1,63.7499988555908,8|2,0:0|0:0,0:0:0:0:
140,168,115882,6,0,L|210:164,1,63.7499988555908,4|0,0:0|0:0,0:0:0:0:
184,337,116219,2,0,P|170:309|146:289,1,63.7499988555908,8|0,0:0|0:0,0:0:0:0:
51,192,116556,1,2,0:0:0:0:
33,384,116725,2,0,P|30:349|46:312,1,63.7499988555908,2|8,0:0|0:0,0:0:0:0:
249,158,117062,6,0,P|220:189|130:208,1,127.499997711182,4|8,0:0|0:0,0:0:0:0:
212,70,117568,1,8,0:0:0:0:
283,251,117736,1,2,0:0:0:0:
315,86,117905,6,0,P|343:123|350:159,1,84.9999952316285,2|0,0:0|0:0,0:0:0:0:
164,279,118242,6,0,B|206:246|206:246|261:264|310:232,1,159.374991059303,6|0,0:0|0:0,0:0:0:0:
248,158,118579,6,0,L|262:253,1,84.9999952316285,4|0,0:0|0:0,0:0:0:0:
64,300,118916,2,0,L|78:205,1,84.9999952316285,8|0,0:0|0:0,0:0:0:0:
243,351,119253,1,2,0:0:0:0:
161,183,119422,1,2,0:0:0:0:
105,384,119590,2,0,P|137:349|151:313,1,84.9999952316285,8|0,0:0|0:0,0:0:0:0:
294,88,119927,6,0,P|265:119|249:158,1,84.9999952316285,2|0,0:0|0:0,0:0:0:0:
386,287,120264,2,0,P|385:244|369:205,1,84.9999952316285,8|2,0:0|0:0,0:0:0:0:
369,205,120517,1,8,0:0:0:0:
369,205,120601,1,2,0:0:0:0:
339,361,120770,1,2,0:0:0:0:
466,156,120938,2,0,P|466:198|482:237,1,84.9999952316285,8|0,0:0|0:0,0:0:0:0:
307,360,121275,6,0,P|264:334|224:332,1,84.9999952316285,2|0,0:0|0:0,0:0:0:0:
61,186,121613,2,0,P|104:212|144:214,1,84.9999952316285,8|0,0:0|0:0,0:0:0:0:
274,141,121950,1,2,0:0:0:0:
142,313,122118,1,2,0:0:0:0:
129,122,122287,2,0,L|154:26,1,84.9999952316285,8|0,0:0|0:0,0:0:0:0:
258,236,122624,6,0,B|333:206|347:272|432:235,1,169.999990463257,2|8,0:0|0:0,0:0:0:0:
383,148,123129,2,0,L|361:230,1,84.9999952316285,0|2,0:0|0:0,0:0:0:0:
208,325,123467,1,2,0:0:0:0:
176,296,123551,1,2,0:0:0:0:
164,255,123635,1,8,0:0:0:0:
243,141,123804,1,8,0:3:0:0:
239,336,123972,6,0,P|279:334|324:348,1,84.9999952316285,4|0,0:0|0:0,0:0:0:0:
489,195,124309,2,0,P|466:245|460:280,1,84.9999952316285,8|0,0:0|0:0,0:0:0:0:
357,146,124646,1,2,0:0:0:0:
455,63,124815,1,2,0:0:0:0:
332,264,124983,2,0,P|290:254|252:235,1,84.9999952316285,8|0,0:0|0:0,0:0:0:0:
122,66,125320,6,0,L|132:154,1,84.9999952316285,2|2,0:0|0:0,0:0:0:0:
23,43,125658,1,8,0:0:0:0:
29,249,125826,2,0,L|19:164,1,84.9999952316285,4|2,0:0|0:0,0:0:0:0:
205,228,126163,1,2,0:0:0:0:
100,66,126332,1,8,0:0:0:0:
107,260,126500,1,2,0:0:0:0:
101,297,126584,1,8,0:0:0:0:
117,331,126669,6,0,P|160:343|202:374,1,84.9999952316285,4|0,0:0|0:0,0:0:0:0:
372,263,127006,2,0,P|328:275|286:306,1,84.9999952316285,8|0,0:0|0:0,0:0:0:0:
154,158,127343,1,2,0:0:0:0:
188,174,127427,1,8,0:0:0:0:
212,203,127511,1,2,0:0:0:0:
351,116,127680,1,4,0:3:0:0:
249,306,127849,1,2,0:0:0:0:
118,165,128017,6,0,L|111:80,1,84.9999952316285,4|8,0:0|0:0,0:0:0:0:
299,16,128354,1,8,0:0:0:0:
168,239,128523,2,0,P|201:209|245:200,1,84.9999952316285,4|0,0:0|0:0,0:0:0:0:
456,248,128860,1,8,0:0:0:0:
204,320,129028,1,8,0:0:0:0:
242,323,129113,1,2,0:0:0:0:
274,342,129197,1,8,0:0:0:0:
300,368,129281,1,8,0:0:0:0:
335,381,129365,6,0,P|383:366|411:339,1,84.9999952316285,4|0,0:0|0:0,0:0:0:0:
376,106,129702,2,0,B|357:139|357:139|346:195,1,84.9999952316285,6|0,0:0|0:0,0:0:0:0:
468,56,130040,1,2,0:0:0:0:
439,234,130208,1,2,0:0:0:0:
276,133,130377,2,0,P|233:130|191:143,1,84.9999952316285,8|0,0:0|0:0,0:0:0:0:
84,319,130714,6,0,P|120:296|146:260,1,84.9999952316285,2|0,0:0|0:0,0:0:0:0:
64,174,131051,1,8,0:0:0:0:
0,362,131219,1,2,0:0:0:0:
1,323,131304,1,8,0:0:0:0:
2,284,131388,1,2,0:0:0:0:
103,74,131556,1,2,0:0:0:0:
165,257,131725,2,0,P|190:223|226:201,1,84.9999952316285,8|0,0:0|0:0,0:0:0:0:
411,308,132062,6,0,L|316:308,1,84.9999952316285,2|0,0:0|0:0,0:0:0:0:
393,88,132399,2,0,L|393:183,1,84.9999952316285,8|0,0:0|0:0,0:0:0:0:
295,293,132736,1,2,0:0:0:0:
245,138,132905,1,2,0:0:0:0:
433,233,133073,2,0,L|433:148,1,84.9999952316285,8|0,0:0|0:0,0:0:0:0:
178,245,133410,6,0,P|216:189|321:166,1,169.999990463257,2|8,0:0|0:0,0:0:0:0:
233,345,133916,2,0,L|151:374,1,84.9999952316285,0|2,0:0|0:0,0:0:0:0:
10,253,134253,1,4,0:0:0:0:
175,87,134422,1,4,0:0:0:0:
121,316,134590,5,2,0:0:0:0:
121,316,134674,1,8,0:0:0:0:
121,316,134759,2,0,P|98:279|97:229,1,84.9999952316285,4|0,0:0|0:0,0:0:0:0:
200,91,135096,1,8,0:0:0:0:
231,259,135264,1,2,0:0:0:0:
262,281,135349,1,8,0:0:0:0:
300,281,135433,1,2,0:0:0:0:
299,153,135601,1,2,0:0:0:0:
203,362,135770,1,8,0:0:0:0:
375,224,135938,6,0,L|392:272,2,42.4999976158143,2|8|2,0:0|0:0|0:0,0:0:0:0:
250,188,136275,1,8,0:0:0:0:
397,70,136444,1,8,0:0:0:0:
300,281,136613,2,0,P|285:203|349:137,1,169.999990463257,4|8,0:0|0:0,0:0:0:0:
460,170,137118,1,8,0:0:0:0:
346,372,137287,1,4,0:0:0:0:
231,261,137455,6,0,P|181:254|144:261,1,84.9999952316285,2|0,0:0|0:0,0:0:0:0:
152,49,137792,2,0,P|111:79|90:110,1,84.9999952316285,8|2,0:0|0:0,0:0:0:0:
187,345,138129,1,8,0:0:0:0:
260,158,138298,1,2,0:0:0:0:
260,158,138382,1,8,0:0:0:0:
260,158,138467,1,2,0:0:0:0:
254,42,138635,1,2,0:0:0:0:
255,313,138804,6,0,B|203:220|328:155|256:58,1,254.999995422363,4|0,0:0|0:0,0:0:0:0:
144,136,139646,1,2,0:0:0:0:
144,136,139731,1,2,0:0:0:0:
144,136,139815,1,8,0:3:0:0:
144,136,139899,1,2,0:0:0:0:
144,136,139983,2,0,L|132:176,2,31.8749994277954,2|2|4,0:0|0:0|0:0,0:0:0:0:
256,192,140236,12,0,142174,0:0:0:0:
208,252,145545,6,0,P|257:266|335:242,1,127.499997711182,4|2,0:0|0:0,0:0:0:0:
368,168,146051,1,0,0:0:0:0:
304,296,146219,2,0,L|324:368,1,63.7499988555908,2|0,0:0|0:0,0:0:0:0:
444,252,146556,2,0,L|464:188,1,63.7499988555908,2|0,0:0|0:0,0:0:0:0:
280,176,146893,6,0,P|296:116|352:80,1,127.499997711182,2|2,0:0|0:0,0:0:0:0:
452,72,147399,1,0,0:0:0:0:
360,220,147568,2,0,L|372:260,2,31.8749994277954,2|0|0,0:0|0:0|0:0,0:0:0:0:
280,176,147905,2,0,P|256:204|216:224,1,63.7499988555908,8|0,0:0|0:0,0:0:0:0:
72,188,148242,6,0,P|96:160|136:140,1,63.7499988555908,2|0,0:0|0:0,0:0:0:0:
118,146,148495,1,0,0:0:0:0:
118,146,148579,1,2,0:0:0:0:
176,268,148747,1,0,0:0:0:0:
40,276,148916,2,0,P|60:304|68:340,1,63.7499988555908,0|0,0:0|0:0,0:0:0:0:
56,164,149253,1,2,0:0:0:0:
144,376,149422,5,8,0:0:0:0:
332,96,149759,1,8,0:0:0:0:
188,188,149927,2,0,P|184:228|188:252,1,63.7499988555908,8|2,0:0|0:0,0:0:0:0:
396,184,150264,5,8,0:0:0:0:
268,0,150433,1,8,0:0:0:0:
280,159,150601,1,8,0:0:0:0:
256,124,150686,1,2,0:0:0:0:
222,102,150770,1,8,0:0:0:0:
182,100,150854,1,8,0:0:0:0:
148,116,150938,6,0,B|104:164|45:140|45:140|72:69,1,169.999990463257,4|8,0:0|0:0,0:0:0:0:
160,4,151444,1,2,0:0:0:0:
160,4,151528,1,8,0:0:0:0:
160,4,151613,1,2,0:0:0:0:
196,200,151781,1,2,0:0:0:0:
80,100,151950,2,0,L|48:196,1,84.9999952316285,8|2,0:0|0:0,0:0:0:0:
180,332,152287,6,0,P|220:312|272:312,1,84.9999952316285,0|2,0:0|0:0,0:0:0:0:
408,364,152624,1,8,0:0:0:0:
320,244,152792,1,2,0:0:0:0:
312,208,152877,1,8,0:0:0:0:
316,172,152961,1,2,0:0:0:0:
388,64,153129,1,2,0:0:0:0:
320,244,153298,2,0,L|240:192,1,84.9999952316285,8|2,0:0|0:0,0:0:0:0:
180,96,153635,1,0,0:0:0:0:
280,64,153804,5,2,0:0:0:0:
224,204,153972,2,0,L|184:288,1,84.9999952316285,8|0,0:0|0:0,0:0:0:0:
48,284,154309,1,2,0:0:0:0:
96,176,154478,1,2,0:0:0:0:
168,312,154646,1,8,0:0:0:0:
48,168,154815,1,2,0:0:0:0:
116,364,154983,6,0,P|128:322|163:289,1,84.9999952316285,0|2,0:0|0:0,0:0:0:0:
240,128,155320,2,0,P|227:169|192:202,1,84.9999952316285,8|2,0:0|0:0,0:0:0:0:
172,212,155573,1,8,0:0:0:0:
144,216,155658,1,2,0:0:0:0:
140,104,155826,1,8,0:0:0:0:
340,76,155995,1,8,0:0:0:0:
232,24,156163,1,8,0:3:0:0:
300,244,156332,6,0,L|316:152,1,84.9999952316285,4|0,0:0|0:0,0:0:0:0:
408,232,156669,1,8,0:0:0:0:
432,124,156837,1,0,0:0:0:0:
288,280,157006,2,0,L|180:264,1,84.9999952316285,2|2,0:0|0:0,0:0:0:0:
160,148,157343,1,8,0:0:0:0:
236,368,157511,2,0,L|320:380,1,84.9999952316285,2|0,0:0|0:0,0:0:0:0:
340,168,157849,1,2,0:0:0:0:
172,284,158017,5,8,0:0:0:0:
64,168,158186,1,0,0:0:0:0:
228,120,158354,1,2,0:0:0:0:
60,276,158523,5,2,0:0:0:0:
144,72,158691,2,0,P|132:120|140:160,1,84.9999952316285,8|4,0:0|0:0,0:0:0:0:
352,344,159028,6,0,P|364:296|356:256,1,84.9999952316285,0|2,0:0|0:0,0:0:0:0:
340,228,159281,1,2,0:0:0:0:
308,204,159365,1,8,0:0:0:0:
208,328,159534,1,0,0:0:0:0:
152,156,159702,1,2,0:0:0:0:
312,64,159871,1,2,0:0:0:0:
196,240,160040,2,0,P|156:252|108:244,1,84.9999952316285,8|4,0:0|0:0,0:0:0:0:
80,40,160377,5,0,0:0:0:0:
236,88,160545,1,2,0:0:0:0:
56,144,160714,1,8,0:0:0:0:
176,0,160882,1,0,0:0:0:0:
152,192,161051,2,0,L|148:104,1,84.9999952316285,2|2,0:0|0:0,0:0:0:0:
232,292,161388,2,0,P|264:252|304:240,1,84.9999952316285,8|4,0:0|0:0,0:0:0:0:
294,240,161641,1,2,0:0:0:0:
294,240,161725,6,0,L|312:336,1,84.9999952316285,4|0,0:0|0:0,0:0:0:0:
108,372,162062,2,0,L|123:288,1,84.9999952316285,8|2,0:0|0:0,0:0:0:0:
408,208,162399,2,0,L|392:124,1,84.9999952316285,8|2,0:0|0:0,0:0:0:0:
96,164,162736,2,0,L|111:80,1,84.9999952316285,8|2,0:0|0:0,0:0:0:0:
264,28,163073,6,0,B|238:100|292:120|263:194,1,169.999990463257,4|8,0:0|0:0,0:0:0:0:
184,280,163579,1,2,0:0:0:0:
376,180,163747,2,0,P|416:188|460:220,1,84.9999952316285,8|2,0:0|0:0,0:0:0:0:
292,376,164084,1,8,0:0:0:0:
256,368,164169,1,2,0:0:0:0:
232,340,164253,1,8,0:3:0:0:
220,304,164337,1,2,0:0:0:0:
236,268,164422,6,0,L|244:224,3,42.4999976158143,4|2|2|2,0:0|0:0|0:0|0:0,0:0:0:0:
116,136,164759,2,0,L|108:177,3,42.4999976158143,2|2|4|6,0:0|0:0|0:0|0:0,0:0:0:0:
224,52,165096,6,0,L|265:60,1,42.4999976158143,2|2,0:0|0:0,0:0:0:0:
412,88,165264,2,0,L|371:96,1,42.4999976158143,2|2,0:0|0:0,0:0:0:0:
280,208,165433,6,0,L|287:166,1,42.4999976158143,4|2,0:0|0:0,0:0:0:0:
500,104,165601,2,0,L|507:146,1,42.4999976158143,2|2,0:0|0:0,0:0:0:0:
392,272,165770,6,0,B|376:172|376:172|420:132|420:132|404:28,2,254.999995422363,4|0|2,0:0|0:0|0:0,0:0:0:0:
488,320,167455,1,0,0:0:0:0:
488,320,167792,1,0,0:0:0:0:
488,320,168129,1,0,0:0:0:0:
368,256,168298,5,2,0:0:0:0:
368,256,168467,1,2,0:0:0:0:
280,344,168804,1,0,0:0:0:0:
196,364,169141,1,0,0:0:0:0:
124,320,169478,1,0,0:0:0:0:
216,220,169646,5,2,0:0:0:0:
216,220,169815,1,2,0:0:0:0:
136,120,170152,1,0,0:0:0:0:
132,264,170489,1,0,0:0:0:0:
16,188,170826,1,0,0:0:0:0:
128,76,170995,5,2,0:0:0:0:
128,76,171163,1,2,0:0:0:0:
184,184,171500,1,0,0:0:0:0:
336,84,171837,6,0,L|351:146,1,63.7499988555908,8|2,0:3|0:0,0:0:0:0:
432,284,172174,2,0,L|447:221,1,63.7499988555908,4|2,0:3|0:0,0:0:0:0:
212,280,172511,6,0,P|272:224|320:220,1,127.499997711182,4|0,0:0|0:0,0:0:0:0:
304,316,173017,1,2,0:0:0:0:
136,272,173186,2,0,P|118:304|98:325,1,63.7499988555908,8|8,0:0|0:0,0:0:0:0:
48,244,173523,1,8,0:3:0:0:
112,180,173691,1,2,0:0:0:0:
200,352,173860,6,0,P|217:319|237:298,1,63.7499988555908,4|2,0:0|0:0,0:0:0:0:
368,208,174197,2,0,P|335:225|307:231,1,63.7499988555908,0|2,0:0|0:0,0:0:0:0:
384,96,174534,1,8,0:0:0:0:
384,96,174702,1,8,0:3:0:0:
272,136,174871,2,0,P|284:100|284:60,1,63.7499988555908,2|2,0:0|0:0,0:0:0:0:
68,84,175208,6,0,B|120:64|145:103|200:84,1,127.499997711182,4|0,0:0|0:0,0:0:0:0:
196,172,175714,1,2,0:0:0:0:
180,12,175882,2,0,L|156:76,1,63.7499988555908,8|8,0:0|0:0,0:0:0:0:
132,248,176219,1,8,0:3:0:0:
88,160,176388,1,2,0:0:0:0:
8,348,176556,6,0,L|39:264,1,84.9999952316285,4|0,0:0|0:0,0:0:0:0:
208,140,176893,1,8,0:0:0:0:
124,356,177062,2,0,P|156:317|197:302,1,84.9999952316285,4|0,0:0|0:0,0:0:0:0:
328,156,177399,1,8,0:0:0:0:
256,376,177568,2,0,P|277:330|275:286,1,84.9999952316285,4|2,0:0|0:0,0:0:0:0:
272,264,177820,1,2,0:0:0:0:
256,232,177905,6,0,L|288:32,1,191.249996566773,6|0,0:0|0:0,0:0:0:0:
272,264,178579,1,2,0:0:0:0:
272,264,178663,1,8,0:0:0:0:
272,264,178747,1,2,0:0:0:0:
160,64,178916,6,0,L|132:220,1,159.374991059303,6|0,0:0|0:0,0:0:0:0:
144,348,179253,6,0,P|188:332|236:340,1,84.9999952316285,4|0,0:0|0:0,0:0:0:0:
440,280,179590,2,0,P|396:296|348:288,1,84.9999952316285,8|0,0:0|0:0,0:0:0:0:
340,168,179927,1,2,0:0:0:0:
440,280,180096,1,2,0:0:0:0:
496,88,180264,2,0,L|476:176,1,84.9999952316285,8|0,0:0|0:0,0:0:0:0:
284,284,180601,6,0,L|265:201,1,84.9999952316285,2|0,0:0|0:0,0:0:0:0:
184,76,180938,1,8,0:0:0:0:
116,224,181107,1,2,0:0:0:0:
84,240,181191,1,8,0:0:0:0:
48,246,181275,1,2,0:0:0:0:
56,80,181444,1,2,0:0:0:0:
172,208,181613,2,0,P|184:168|212:128,1,84.9999952316285,8|0,0:0|0:0,0:0:0:0:
428,220,181950,6,0,P|384:228|344:216,1,84.9999952316285,2|0,0:0|0:0,0:0:0:0:
404,44,182287,2,0,L|396:148,1,84.9999952316285,2|0,0:0|0:0,0:0:0:0:
352,340,182624,1,2,0:0:0:0:
260,276,182792,1,2,0:0:0:0:
468,328,182961,2,0,P|460:284|432:252,1,84.9999952316285,8|0,0:0|0:0,0:0:0:0:
160,224,183298,6,0,B|224:256|265:191|340:216,1,169.999990463257,2|8,0:0|0:0,0:0:0:0:
120,248,183804,2,0,P|88:208|40:184,1,84.9999952316285,4|2,0:0|0:0,0:0:0:0:
144,40,184141,1,2,0:0:0:0:
148,76,184225,1,2,0:0:0:0:
152,112,184309,1,8,0:0:0:0:
28,60,184478,1,8,0:3:0:0:
36,280,184646,6,0,L|28:184,1,84.9999952316285,4|0,0:0|0:0,0:0:0:0:
152,112,184983,1,8,0:0:0:0:
212,272,185152,2,0,P|243:235|285:215,1,84.9999952316285,0|2,0:0|0:0,0:0:0:0:
408,280,185489,1,2,0:0:0:0:
304,332,185658,1,8,0:0:0:0:
376,168,185826,1,0,0:0:0:0:
424,360,185995,6,0,P|424:316|404:276,1,84.9999952316285,2|2,0:0|0:0,0:0:0:0:
296,176,186332,1,8,0:0:0:0:
208,364,186500,2,0,P|180:328|196:204,1,169.999990463257,4|2,0:0|0:0,0:0:0:0:
252,80,187006,1,8,0:3:0:0:
280,284,187174,5,2,0:0:0:0:
280,284,187259,1,8,0:0:0:0:
280,284,187343,2,0,P|304:244|312:196,1,84.9999952316285,4|0,0:0|0:0,0:0:0:0:
172,184,187680,2,0,P|132:160|84:152,1,84.9999952316285,8|0,0:0|0:0,0:0:0:0:
64,168,187933,1,0,0:0:0:0:
44,200,188017,2,0,L|40:252,2,42.4999976158143,2|8|2,0:0|0:0|0:0,0:0:0:0:
128,80,188354,1,8,0:3:0:0:
16,0,188523,1,2,0:0:0:0:
172,184,188691,6,0,P|204:151|247:131,1,84.9999952316285,4|8,0:0|0:0,0:0:0:0:
376,100,189028,1,8,0:0:0:0:
260,236,189197,2,0,P|320:236|404:320,1,169.999990463257,4|8,0:0|0:3,0:0:0:0:
176,328,189702,6,0,L|212:352,1,42.4999976158143,8|8,0:0|0:0,0:0:0:0:
76,260,189871,2,0,L|40:284,1,42.4999976158143,8|8,0:0|0:0,0:0:0:0:
184,196,190040,6,0,L|184:100,1,84.9999952316285,4|0,0:0|0:0,0:0:0:0:
376,272,190377,2,0,L|376:187,1,84.9999952316285,8|0,0:0|0:0,0:0:0:0:
452,368,190714,1,2,0:0:0:0:
280,280,190882,1,2,0:0:0:0:
472,144,191051,2,0,L|472:229,1,84.9999952316285,8|0,0:0|0:0,0:0:0:0:
280,376,191388,6,0,P|312:368|356:340,1,84.9999952316285,2|0,0:0|0:0,0:0:0:0:
340,136,191725,1,8,0:0:0:0:
236,240,191893,1,2,0:0:0:0:
196,236,191978,1,8,0:0:0:0:
164,216,192062,1,2,0:0:0:0:
180,76,192231,1,2,0:0:0:0:
276,232,192399,2,0,P|300:192|340:168,1,84.9999952316285,8|0,0:0|0:0,0:0:0:0:
500,80,192736,6,0,P|457:98|410:94,1,84.9999952316285,2|0,0:0|0:0,0:0:0:0:
172,116,193073,2,0,P|214:97|261:101,1,84.9999952316285,8|0,0:0|0:0,0:0:0:0:
404,196,193410,1,2,0:0:0:0:
284,72,193579,1,2,0:0:0:0:
204,236,193747,2,0,L|228:320,1,84.9999952316285,8|0,0:0|0:0,0:0:0:0:
496,328,194084,6,0,P|440:300|320:328,1,169.999990463257,4|8,0:0|0:0,0:0:0:0:
192,360,194590,2,0,P|136:352|100:332,1,84.9999952316285,0|2,0:0|0:0,0:0:0:0:
52,140,194927,5,4,0:0:0:0:
192,312,195096,1,4,0:0:0:0:
208,48,195264,1,2,0:0:0:0:
112,252,195433,6,0,P|144:224|184:212,1,84.9999952316285,4|0,0:0|0:0,0:0:0:0:
336,236,195770,1,8,0:0:0:0:
273,366,195938,1,2,0:0:0:0:
308,368,196022,1,8,0:0:0:0:
340,354,196107,1,2,0:0:0:0:
408,160,196275,1,2,0:0:0:0:
296,272,196444,1,8,0:0:0:0:
208,128,196613,5,2,0:0:0:0:
216,160,196697,1,8,0:0:0:0:
224,192,196781,1,2,0:0:0:0:
400,272,196950,1,8,0:0:0:0:
372,112,197118,1,8,0:0:0:0:
212,280,197287,2,0,B|140:255|120:309|46:280,1,169.999990463257,4|0,0:0|0:0,0:0:0:0:
240,192,197792,2,0,P|276:212|302:245,1,84.9999952316285,8|2,0:0|0:0,0:0:0:0:
80,176,198129,6,0,P|56:140|48:100,1,84.9999952316285,4|0,0:0|0:0,0:0:0:0:
132,280,198467,2,0,L|112:368,1,84.9999952316285,8|2,0:0|0:0,0:0:0:0:
168,160,198804,1,8,0:0:0:0:
36,272,198972,1,2,0:0:0:0:
16,244,199056,1,2,0:0:0:0:
0,216,199141,1,8,0:0:0:0:
140,68,199309,1,2,0:0:0:0:
132,280,199478,6,0,P|176:256|224:256,1,84.9999952316285,4|0,0:0|0:0,0:0:0:0:
428,260,199815,2,0,P|384:284|336:284,1,84.9999952316285,8|2,0:0|0:0,0:0:0:0:
360,172,200152,1,8,0:0:0:0:
484,172,200320,1,2,0:0:0:0:
316,272,200489,2,0,L|296:364,1,84.9999952316285,8|2,0:0|0:0,0:0:0:0:
440,140,200826,5,8,0:0:0:0:
444,360,200995,1,8,0:0:0:0:
288,192,201163,1,4,0:0:0:0:
444,32,201332,2,0,P|401:22|335:32,1,84.9999952316285,2|8,0:0|0:0,0:0:0:0:
216,100,201669,5,8,0:0:0:0:
216,100,201753,1,2,0:0:0:0:
216,100,201837,2,0,L|200:144,3,42.4999976158143,8|2|2|2,0:0|0:0|0:0|0:0,0:0:0:0:
120,164,202174,5,8,0:0:0:0:
127,201,202259,1,2,0:0:0:0:
123,239,202343,1,2,0:0:0:0:
101,270,202427,1,2,0:0:0:0:
69,291,202511,2,0,L|22:311,1,42.4999976158143,8|2,0:0|0:0,0:0:0:0:
28,168,202680,2,0,L|44:207,1,42.4999976158143,2|2,0:0|0:0,0:0:0:0:
168,312,202849,2,0,L|152:273,2,42.4999976158143,8|2|2,0:3|0:0|0:0,0:0:0:0:
320,136,203186,6,0,B|301:162|301:162|296:191|296:191|254:219|252:285,1,159.374991059303,10|0,0:0|0:0,0:0:0:0:
360,272,203523,6,0,P|416:264|488:344,1,169.999990463257,4|8,0:0|0:0,0:0:0:0:
360,224,204028,1,2,0:0:0:0:
360,224,204113,1,8,0:0:0:0:
360,224,204197,2,0,P|340:192|328:140,1,84.9999952316285,2|2,0:0|0:0,0:0:0:0:
376,32,204534,1,8,0:0:0:0:
360,224,204702,6,0,L|304:304,1,84.9999952316285,4|0,0:0|0:0,0:0:0:0:
236,68,205040,2,0,L|180:148,1,84.9999952316285,2|8,0:0|0:0,0:0:0:0:
128,332,205377,1,2,0:0:0:0:
124,296,205461,1,8,0:0:0:0:
120,260,205545,1,2,0:0:0:0:
56,140,205714,1,2,0:0:0:0:
32,344,205882,2,0,L|28:256,1,84.9999952316285,8|0,0:0|0:0,0:0:0:0:
280,232,206219,6,0,P|258:273|222:299,1,84.9999952316285,4|0,0:0|0:0,0:0:0:0:
240,128,206556,1,8,0:0:0:0:
360,268,206725,2,0,P|362:244|376:220,2,42.4999976158143,2|8|2,0:0|0:0|0:0,0:0:0:0:
432,156,207062,1,2,0:0:0:0:
416,344,207231,1,8,0:0:0:0:
288,192,207399,6,0,P|260:156|224:136,1,84.9999952316285,4|0,0:0|0:0,0:0:0:0:
68,264,207736,2,0,P|104:236|144:226,1,84.9999952316285,2|8,0:0|0:0,0:0:0:0:
268,360,208073,2,0,P|222:358|185:341,1,84.9999952316285,0|2,0:0|0:0,0:0:0:0:
72,116,208410,1,8,0:0:0:0:
72,116,208495,1,2,0:0:0:0:
72,116,208579,2,0,L|60:160,1,42.4999976158143,8|2,0:3|0:0,0:0:0:0:
168,52,208747,2,0,L|135:19,1,42.4999976158143,4|2,0:3|0:0,0:0:0:0:
176,160,208916,6,0,B|224:144|224:144|280:192|356:164,1,169.999990463257,4|8,0:0|0:0,0:0:0:0:
300,64,209422,1,2,0:0:0:0:
300,64,209506,1,8,0:0:0:0:
300,64,209590,2,0,L|288:156,1,84.9999952316285,2|2,0:0|0:0,0:0:0:0:
400,32,209927,1,8,0:0:0:0:
364,248,210096,6,0,P|400:220|444:208,1,84.9999952316285,4|0,0:0|0:0,0:0:0:0:
396,344,210433,1,2,0:0:0:0:
272,224,210601,1,8,0:0:0:0:
416,116,210770,1,2,0:0:0:0:
416,116,210854,1,8,0:0:0:0:
416,116,210938,2,0,P|380:144|336:156,1,84.9999952316285,2|2,0:0|0:0,0:0:0:0:
264,96,211275,1,8,0:0:0:0:
456,28,211444,1,8,0:3:0:0:
396,276,211613,6,0,L|412:192,1,84.9999952316285,4|0,0:0|0:0,0:0:0:0:
140,120,211950,2,0,L|156:204,1,84.9999952316285,8|2,0:0|0:0,0:0:0:0:
296,28,212287,1,8,0:3:0:0:
284,244,212455,1,2,0:0:0:0:
288,204,212540,1,8,0:0:0:0:
292,168,212624,1,2,0:0:0:0:
128,308,212792,6,0,P|180:296|224:304,1,84.9999952316285,4|0,0:0|0:0,0:0:0:0:
464,188,213129,2,0,P|412:200|368:192,1,84.9999952316285,2|0,0:0|0:0,0:0:0:0:
104,40,213467,2,0,L|292:64,1,169.999990463257,2|8,0:0|0:0,0:0:0:0:
416,64,213972,1,8,0:0:0:0:
344,272,214141,1,8,0:3:0:0:
144,152,214309,6,0,P|143:205|211:304,1,169.999990463257,4|8,0:0|0:0,0:0:0:0:
392,200,214815,2,0,P|392:146|324:47,1,169.999990463257,4|8,0:0|0:0,0:0:0:0:
272,176,215320,1,8,0:3:0:0:
272,176,215489,1,4,0:3:0:0:
200,92,215658,6,0,L|36:144,1,169.999990463257,4|8,0:0|0:0,0:0:0:0:
296,304,216163,2,0,L|460:356,1,169.999990463257,4|8,0:0|0:0,0:0:0:0:
332,92,216669,1,8,0:3:0:0:
196,248,216837,1,4,0:3:0:0:
216,16,217006,6,0,P|240:100|212:184,1,169.999990463257,4|8,0:0|0:0,0:0:0:0:
296,368,217511,2,0,P|272:284|300:200,1,169.999990463257,4|8,0:0|0:0,0:0:0:0:
392,280,218017,1,8,0:3:0:0:
164,224,218186,2,0,L|208:184,1,42.4999976158143,4|2,0:3|0:0,0:0:0:0:
316,56,218354,5,4,0:0:0:0:
256,192,218438,12,0,219113,0:0:0:0:
