osu file format v14

[General]
AudioFilename: audio.mp3
AudioLeadIn: 0
PreviewTime: -1
Countdown: 1
SampleSet: None
StackLeniency: 0.6
Mode: 0
LetterboxInBreaks: 0
WidescreenStoryboard: 1

[Editor]
DistanceSpacing: 0.8
BeatDivisor: 4
GridSize: 16
TimelineZoom: 1

[Metadata]
Title:My R
TitleUnicode:My R
Artist:Hikaru Station
ArtistUnicode:Hikaru Station
Creator:SonicBoom123
Version:The Girl in the Yellow Cardigan
Source:Youtube
Tags:Serious, Dark, Suicide
BeatmapID:1545341
BeatmapSetID:732407

[Difficulty]
HPDrainRate:6
CircleSize:6.1
OverallDifficulty:8
ApproachRate:8
SliderMultiplier:1.4
SliderTickRate:1

[Events]
//Background and Video events
0,0,"My R.jpg",0,0
//Break Periods
2,17349,20279
2,41914,43130
2,69906,70792
2,113324,115652
2,129321,132791
//Storyboard Layer 0 (Background)
//Storyboard Layer 1 (Fail)
//Storyboard Layer 2 (Pass)
//Storyboard Layer 3 (Foreground)
//Storyboard Sound Samples

[TimingPoints]
5723.55617976076,571.284871550904,4,2,0,100,1,0

[HitObjects]
256,192,5723,5,12,0:0:0:0:
192,192,8008,1,0,0:0:0:0:
320,192,9722,1,0,0:0:0:0:
320,192,10293,1,0,0:0:0:0:
224,192,11436,1,0,0:0:0:0:
160,192,12007,1,0,0:0:0:0:
160,192,12578,2,0,L|320:192,1,140
256,192,13721,1,0,0:0:0:0:
256,192,14292,1,12,0:0:0:0:
256,192,15435,1,12,0:0:0:0:
192,192,16006,2,12,L|352:192,1,140
256,192,17149,1,12,0:0:0:0:
256,192,21719,5,12,0:0:0:0:
256,192,22862,1,12,0:0:0:0:
320,192,23433,1,12,0:0:0:0:
320,192,24575,2,12,L|160:192,2,140
256,192,26289,5,0,0:0:0:0:
256,192,28003,1,8,0:0:0:0:
320,192,28574,2,8,L|160:192,2,140
256,192,30288,1,12,0:0:0:0:
320,192,30860,2,12,P|256:320|224:288,1,140
256,256,32573,1,8,0:0:0:0:
256,192,33145,5,8,0:0:0:0:
256,192,33716,2,8,L|256:32,2,140
256,192,35430,1,12,0:0:0:0:
320,192,36001,6,0,L|160:192,2,140
256,192,37715,1,0,0:0:0:0:
352,192,38286,2,8,P|224:320|192:256,1,280
288,256,40000,1,12,0:0:0:0:
256,192,40571,1,0,0:0:0:0:
256,192,41714,1,0,0:0:0:0:
256,192,44570,5,12,0:0:0:0:
320,192,45142,2,0,L|160:192,1,140
192,192,46284,2,0,P|320:288|352:256,1,140
273,218,47427,1,8,0:0:0:0:
256,192,47998,1,12,0:0:0:0:
288,192,48569,1,12,0:0:0:0:
224,192,49141,1,12,0:0:0:0:
224,192,49712,2,12,L|384:192,2,140
256,192,52568,1,14,0:0:0:0:
192,192,53711,6,12,P|352:192|320:320,1,280
274,235,55425,1,8,0:0:0:0:
274,235,55996,2,8,L|85:234,2,140
270,233,57710,1,12,0:0:0:0:
256,192,58281,1,8,0:0:0:0:
160,192,58853,2,8,L|448:192,1,280
256,192,60566,12,12,61709,0:0:0:0:
320,192,62280,6,12,L|160:192,2,140
320,192,63994,2,8,L|160:192,1,140
256,192,65137,1,8,0:0:0:0:
256,192,66279,1,8,0:0:0:0:
256,192,67422,1,12,0:0:0:0:
192,192,68564,2,0,L|352:192,2,140
256,192,71992,5,12,0:0:0:0:
192,192,73135,2,8,L|352:192,1,140
256,192,74277,1,12,0:0:0:0:
320,192,74849,2,8,L|160:192,2,140
256,192,77134,5,8,0:0:0:0:
256,192,78276,1,12,0:0:0:0:
320,256,78848,2,8,P|384:96|320:96,1,280
354,182,80561,1,12,0:0:0:0:
354,182,81133,2,0,L|237:105,1,140
234,103,82275,2,0,L|130:219,1,140
145,209,83418,5,12,0:0:0:0:
224,192,83989,1,8,0:0:0:0:
288,192,84560,1,8,0:0:0:0:
320,192,85703,2,8,L|128:192,2,140
256,192,87417,1,12,0:0:0:0:
192,192,87988,1,8,0:0:0:0:
192,192,88559,2,12,L|416:192,2,140
256,192,90273,5,8,0:0:0:0:
256,192,91416,1,12,0:0:0:0:
256,192,92558,1,8,0:0:0:0:
320,192,93130,1,8,0:0:0:0:
192,192,93701,1,8,0:0:0:0:
256,192,94272,1,12,0:0:0:0:
256,192,94843,2,12,L|256:0,1,140
256,64,95986,1,8,0:0:0:0:
192,64,96557,1,8,0:0:0:0:
192,64,97129,2,8,L|192:224,1,140
192,192,98271,2,8,L|352:192,3,140
331,191,100556,1,12,0:0:0:0:
256,192,101128,1,0,0:0:0:0:
256,192,101699,12,0,103413,0:0:0:0:
256,192,103984,5,0,0:0:0:0:
256,192,105127,1,8,0:0:0:0:
256,192,105698,1,12,0:0:0:0:
256,192,106269,12,8,107412,0:0:0:0:
256,192,107983,5,12,0:0:0:0:
192,192,108554,2,12,L|384:192,2,140
256,192,110268,2,8,L|416:192,2,140
192,192,111982,1,8,0:0:0:0:
192,192,112553,2,8,L|352:192,1,140
256,192,116552,5,12,0:0:0:0:
192,192,117124,2,8,L|352:192,3,140
256,192,119980,1,12,0:0:0:0:
96,192,120551,2,12,L|416:192,1,280
256,192,122265,5,12,0:0:0:0:
256,192,123408,1,8,0:0:0:0:
256,192,123979,2,12,L|96:192,2,140
256,192,125693,1,8,0:0:0:0:
256,192,126264,1,8,0:0:0:0:
256,192,126835,2,12,L|416:192,1,140
394,192,127978,2,12,L|394:51,1,140
332,52,129121,1,12,0:0:0:0:
256,192,133691,5,12,0:0:0:0:
256,192,135405,1,8,0:0:0:0:
160,192,135976,2,8,L|384:192,2,140
160,192,137690,1,12,0:0:0:0:
224,192,138261,1,12,0:0:0:0:
288,192,138832,1,12,0:0:0:0:
352,192,139404,1,12,0:0:0:0:
320,192,139975,2,12,L|160:192,1,140
256,192,141689,5,0,0:0:0:0:
288,192,142831,1,0,0:0:0:0:
256,192,143974,1,0,0:0:0:0:
256,192,145117,2,8,L|96:192,2,140
256,192,146830,1,4,0:0:0:0:
256,192,147402,2,4,L|416:192,2,140
256,192,149116,1,12,0:0:0:0:
256,192,150258,5,0,0:0:0:0:
256,192,151401,1,0,0:0:0:0:
256,192,151972,2,12,P|256:32|224:32,3,140
250,121,154257,1,0,0:0:0:0:
256,192,154828,1,8,0:0:0:0:
320,192,155400,1,0,0:0:0:0:
256,256,156542,2,0,P|352:224|352:192,1,140
288,192,157685,1,12,0:0:0:0:
256,192,158113,1,12,0:0:0:0:
320,192,158685,6,8,P|288:256|256:256,1,105
256,256,159399,2,8,P|160:224|192:192,1,175
256,192,160541,1,12,0:0:0:0:
288,192,161113,2,0,L|384:192,3,70
352,192,162255,1,12,0:0:0:0:
256,192,162826,1,12,0:0:0:0:
320,192,163398,5,8,0:0:0:0:
256,192,163969,2,8,L|192:192,4,35
256,192,165112,1,12,0:0:0:0:
320,192,165683,2,12,L|160:192,1,140
192,192,166683,2,12,L|256:192,1,35
256,192,167397,1,12,0:0:0:0:
224,160,167968,5,8,0:0:0:0:
288,160,168539,1,8,0:0:0:0:
288,224,169111,1,8,0:0:0:0:
224,224,169682,1,8,0:0:0:0:
256,192,170253,1,8,0:0:0:0:
224,192,170824,6,12,L|288:192,7,35
256,192,172538,1,12,0:0:0:0:
320,192,173110,1,8,0:0:0:0:
320,192,173681,2,12,L|176:192,2,140
256,192,175395,1,8,0:0:0:0:
256,192,176109,2,8,L|192:192,3,35
224,256,177109,5,12,0:0:0:0:
288,256,177680,1,12,0:0:0:0:
352,256,178251,1,12,0:0:0:0:
256,192,179394,12,8,180536,0:0:0:0:
64,192,180822,6,4,P|96:224|128:224,3,70
112,176,182250,1,12,0:0:0:0:
112,176,182821,2,12,L|400:176,2,280
112,180,185678,2,12,L|184:184,1,70
180,184,186249,1,8,0:0:0:0:
288,192,186820,2,8,L|216:192,2,70
288,160,188534,1,12,0:0:0:0:
224,224,189105,1,12,0:0:0:0:
256,192,189534,12,12,190248,0:0:0:0:
288,192,190819,6,0,L|240:192,1,35
256,192,191391,2,0,L|192:192,4,35
256,192,192533,1,8,0:0:0:0:
256,192,193104,2,8,L|208:192,4,35
288,160,194247,1,8,0:0:0:0:
288,160,195532,2,8,P|240:192|256:224,1,105
272,192,196532,2,8,L|336:240,3,70
256,192,198246,5,0,0:0:0:0:
256,192,198817,2,0,L|208:192,3,35
272,192,199960,1,8,0:0:0:0:
224,192,200531,1,8,0:0:0:0:
288,192,201102,1,8,0:0:0:0:
272,192,201674,2,8,L|224:192,1,35
240,128,202245,1,0,0:0:0:0:
176,144,202816,1,0,0:0:0:0:
224,112,203388,2,8,L|240:144,2,35
256,192,203959,1,8,0:0:0:0:
256,192,204530,6,8,L|336:192,1,70
256,192,205101,1,12,0:0:0:0:
256,192,205673,2,12,L|176:192,2,70
256,192,206815,1,0,0:0:0:0:
256,192,208529,1,0,0:0:0:0:
256,192,209100,1,0,0:0:0:0:
256,192,211100,1,0,0:0:0:0:
256,192,211386,1,0,0:0:0:0:
256,192,213099,1,0,0:0:0:0:
256,192,213671,1,0,0:0:0:0:
256,192,214242,2,0,L|336:192,4,70
256,192,215956,12,12,217098,0:0:0:0:
