osu file format v14

[General]
AudioFilename: audio.mp3
AudioLeadIn: 0
PreviewTime: -1
Countdown: 1
SampleSet: None
StackLeniency: 0.6
Mode: 0
LetterboxInBreaks: 0
WidescreenStoryboard: 1

[Editor]
DistanceSpacing: 0.8
BeatDivisor: 1
GridSize: 32
TimelineZoom: 1

[Metadata]
Title:My R
TitleUnicode:My R
Artist:Hikaru Station
ArtistUnicode:Hikaru Station
Creator:SonicBoom123
Version:The Girl Short As Can Be
Source:Youtube
Tags:Serious, Dark, Suicide
BeatmapID:1545342
BeatmapSetID:732407

[Difficulty]
HPDrainRate:4
CircleSize:4.8
OverallDifficulty:4
ApproachRate:5
SliderMultiplier:1.4
SliderTickRate:1

[Events]
//Background and Video events
0,0,"My R.jpg",0,0
//Break Periods
2,17349,20279
2,41914,43130
2,69906,70792
//Storyboard Layer 0 (Background)
//Storyboard Layer 1 (Fail)
//Storyboard Layer 2 (Pass)
//Storyboard Layer 3 (Foreground)
//Storyboard Sound Samples

[TimingPoints]
5723.55617976076,571.284871550904,4,2,0,100,1,0

[HitObjects]
256,192,5723,5,12,0:0:0:0:
192,192,8008,1,0,0:0:0:0:
320,192,9722,1,0,0:0:0:0:
320,192,10293,1,0,0:0:0:0:
224,192,11436,1,0,0:0:0:0:
160,192,12007,1,0,0:0:0:0:
160,192,12578,2,0,L|320:192,1,140
256,192,13721,1,0,0:0:0:0:
256,192,14292,1,12,0:0:0:0:
256,192,15435,1,12,0:0:0:0:
192,192,16006,2,12,L|352:192,1,140
256,192,17149,1,12,0:0:0:0:
256,192,21719,5,12,0:0:0:0:
256,192,22862,1,12,0:0:0:0:
320,192,23433,1,12,0:0:0:0:
320,192,24575,2,12,L|160:192,2,140
256,192,26289,5,0,0:0:0:0:
256,192,28003,1,8,0:0:0:0:
320,192,28574,2,8,L|160:192,2,140
256,192,30288,1,12,0:0:0:0:
320,192,30860,2,12,P|256:320|224:288,1,140
256,256,32573,1,8,0:0:0:0:
256,192,33145,5,8,0:0:0:0:
256,192,33716,2,8,L|256:32,2,140
256,192,35430,1,12,0:0:0:0:
320,192,36001,6,0,L|160:192,2,140
256,192,37715,1,0,0:0:0:0:
352,192,38286,2,8,P|224:320|192:256,1,280
288,256,40000,1,12,0:0:0:0:
256,192,40571,1,0,0:0:0:0:
256,192,41714,1,0,0:0:0:0:
256,192,44570,5,12,0:0:0:0:
320,192,45142,2,0,L|160:192,1,140
192,192,46284,2,0,P|320:288|352:256,1,140
273,218,47427,1,8,0:0:0:0:
256,192,47998,1,12,0:0:0:0:
288,192,48569,1,12,0:0:0:0:
224,192,49141,1,12,0:0:0:0:
224,192,49712,2,12,L|384:192,2,140
256,192,52568,1,14,0:0:0:0:
192,192,53711,6,12,P|352:192|320:320,1,280
274,235,55425,1,8,0:0:0:0:
274,235,55996,2,8,L|85:234,2,140
270,233,57710,1,12,0:0:0:0:
256,192,58281,1,8,0:0:0:0:
160,192,58853,2,8,L|448:192,1,280
256,192,60566,12,12,61709,0:0:0:0:
320,192,62280,6,12,L|160:192,2,140
320,192,63994,2,8,L|160:192,1,140
256,192,65137,1,8,0:0:0:0:
256,192,66279,1,8,0:0:0:0:
256,192,67422,1,12,0:0:0:0:
192,192,68564,2,0,L|352:192,2,140
256,192,71992,5,12,0:0:0:0:
192,192,73135,2,8,L|352:192,1,140
256,192,74277,1,12,0:0:0:0:
320,192,74849,2,8,L|160:192,2,140
256,192,77134,5,8,0:0:0:0:
256,192,78276,1,12,0:0:0:0:
320,256,78848,2,8,P|384:96|320:96,1,280
354,182,80561,1,12,0:0:0:0:
354,182,81133,2,0,L|237:105,1,140
234,103,82275,2,0,L|130:219,1,140
145,209,83418,1,12,0:0:0:0:
224,192,83989,1,8,0:0:0:0:
288,192,84560,1,8,0:0:0:0:
320,192,85703,6,8,L|128:192,2,140
256,192,87417,1,12,0:0:0:0:
192,192,87988,1,8,0:0:0:0:
192,192,88559,2,12,L|416:192,2,140
256,192,90273,5,8,0:0:0:0:
256,192,91416,1,12,0:0:0:0:
256,192,92558,1,8,0:0:0:0:
320,192,93130,1,8,0:0:0:0:
192,192,93701,1,8,0:0:0:0:
256,192,94272,1,12,0:0:0:0:
256,192,94843,2,12,L|256:0,1,140
256,64,95986,1,8,0:0:0:0:
192,64,96557,1,8,0:0:0:0:
192,64,97129,2,8,L|192:224,1,140
192,192,98271,2,8,L|352:192,3,140
331,191,100556,1,12,0:0:0:0:
256,192,101128,1,0,0:0:0:0:
256,192,101699,12,0,103413,0:0:0:0:
256,192,103984,5,0,0:0:0:0:
256,192,105127,1,8,0:0:0:0:
256,192,105698,1,12,0:0:0:0:
256,192,106269,12,8,107412,0:0:0:0:
256,192,107983,5,12,0:0:0:0:
192,192,108554,2,12,L|384:192,2,140
256,192,110268,2,8,L|416:192,2,140
192,192,111982,1,8,0:0:0:0:
192,192,112553,2,8,L|352:192,1,140
