osu file format v14

[General]
AudioFilename: audio.mp3
AudioLeadIn: 0
PreviewTime: 56757
Countdown: 0
SampleSet: Soft
StackLeniency: 0.3
Mode: 0
LetterboxInBreaks: 0
WidescreenStoryboard: 0

[Editor]
Bookmarks: 141888
DistanceSpacing: 1.2
BeatDivisor: 4
GridSize: 4
TimelineZoom: 1.5

[Metadata]
Title:Bubblegum K.K.
TitleUnicode:Bubblegum K.K.
Artist:Hikaru Station
ArtistUnicode:Hikaru Station
Creator:Andrea
Version:Insane
Source:Animal Crossing: New Leaf
Tags:Remix Cover Video Game Japanese Pop Remix osuplayer111 Trifect Datenkou Ronsrogue Meelaffs Riguruma K.K. Slider Francine Chrissy けけアイドル Keke Aidoru とたけけ Totakeke
BeatmapID:2568447
BeatmapSetID:1235574

[Difficulty]
HPDrainRate:6.5
CircleSize:5
OverallDifficulty:8
ApproachRate:8.8
SliderMultiplier:1.6
SliderTickRate:1

[Events]
//Background and Video events
0,0,"BG.jpg",0,0
Video,590,"Video.mp4"
//Break Periods
//Storyboard Layer 0 (Background)
//Storyboard Layer 1 (Fail)
//Storyboard Layer 2 (Pass)
//Storyboard Layer 3 (Foreground)
//Storyboard Layer 4 (Overlay)
//Storyboard Sound Samples

[TimingPoints]
734,361.44578313253,4,2,1,40,1,0
734,-133.333333333333,4,2,1,40,0,0
6155,-133.333333333333,4,2,2,40,0,0
9047,361.44578313253,4,2,1,40,1,0
9047,-125,4,2,1,40,0,0
14830,-100,4,2,1,60,0,0
18263,-100,4,2,2,60,0,0
20071,-100,4,2,3,60,0,0
20274,-100,4,2,1,60,0,0
26757,-100,4,2,2,60,0,0
28565,-100,4,2,1,60,0,0
29649,-100,4,2,2,60,0,0
31095,-100,4,2,1,60,0,0
31637,-100,4,2,3,60,0,0
31840,-100,4,2,1,60,0,0
32540,-100,4,2,2,60,0,0
34167,-100,4,2,1,60,0,0
35071,-100,4,2,1,50,0,0
36878,-100,4,2,1,40,0,0
37962,-125,4,2,1,40,0,0
41125,-125,4,2,1,5,0,0
41215,-125,4,2,2,40,0,0
43022,-125,4,2,1,40,0,0
46908,-125,4,2,1,5,0,0
46998,-125,4,2,2,40,0,0
48986,-125,4,2,1,40,0,0
52510,-125,4,2,1,5,0,0
52601,-125,4,2,2,40,0,0
56757,-125,4,2,1,40,0,0
58745,-125,4,2,1,50,0,0
59649,-100,4,2,1,60,0,0
60191,-100,4,2,2,60,0,0
61637,-100,4,2,1,60,0,0
61998,-100,4,2,3,60,0,0
62202,-100,4,2,1,60,0,0
68685,-100,4,2,2,60,0,0
70492,-100,4,2,1,60,0,0
71577,-100,4,2,2,60,0,0
73203,-100,4,2,1,60,0,0
73565,-100,4,2,3,60,0,0
73768,-100,4,2,1,60,0,0
74468,-100,4,2,2,60,0,0
76095,-100,4,2,1,60,0,0
76998,-100,4,2,1,50,0,0
78806,-100,4,2,1,40,0,0
79890,-125,4,2,1,40,0,0
83053,-125,4,2,1,5,0,0
83143,-125,4,2,2,40,0,0
85312,-125,4,2,1,40,0,0
88836,-125,4,2,1,5,0,0
88926,-125,4,2,2,40,0,0
91818,-125,4,2,1,40,0,0
94438,-125,4,2,1,5,0,0
94528,-125,4,2,2,40,0,0
96155,-125,4,2,1,40,0,0
97239,-111.111111111111,4,2,1,50,0,0
117480,-111.111111111111,4,2,1,40,0,0
118926,-111.111111111111,4,2,1,50,0,0
120372,-100,4,2,1,60,0,0
123806,-100,4,2,2,60,0,0
125613,-100,4,2,3,60,0,0
125816,-100,4,2,1,60,0,0
132300,-100,4,2,2,60,0,0
134287,-100,4,2,1,60,0,0
135191,-100,4,2,2,60,0,0
136637,-100,4,2,1,60,0,0
137179,-100,4,2,3,60,0,0
137382,-100,4,2,1,60,0,0
138083,-100,4,2,2,60,0,0
139709,-100,4,2,1,60,0,0
140613,-100,4,2,1,50,0,0

[Colours]
Combo1 : 255,64,159
Combo2 : 17,136,255
SliderBorder : 64,159,255
SliderTrackOverride : 213,213,255

[HitObjects]
180,128,734,6,0,P|256:87|332:128,1,180.000006866455,2|2,0:0|0:0,0:0:0:0:
332,255,1456,2,0,P|256:297|180:256,1,180.000006866455,2|2,0:0|0:0,0:0:0:0:
180,128,2179,2,0,B|120:112|120:148|60:128,1,120.000004577637,2|2,0:0|0:0,0:0:0:0:
62,255,2721,2,0,B|120:236|120:272|180:256,1,120.000004577637,2|2,0:0|0:0,0:0:0:0:
256,192,3264,1,0,0:0:0:0:
332,255,3444,1,0,0:0:0:0:
332,128,3625,6,0,P|385:192|332:256,1,180.000006866455,2|2,0:0|0:0,0:0:0:0:
256,324,4348,1,2,0:0:0:0:
179,256,4529,2,0,P|123:275|67:256,1,120.000004577637,2|2,0:0|0:0,0:0:0:0:
67,127,5071,2,0,P|123:109|179:128,1,120.000004577637,2|2,0:0|0:0,0:0:0:0:
178,127,5613,1,2,0:0:0:0:
376,192,5884,2,0,L|400:192,6,15.0000005722046,0|0|0|0|0|0|2,0:0|0:0|0:0|0:0|0:0|0:0|0:0,0:0:0:0:
256,48,9047,5,0,3:0:0:0:
256,48,9227,1,2,0:0:0:0:
304,132,9408,2,0,P|332:119|361:132,1,64,0|0,0:0|3:0,0:0:0:0:
424,232,9769,2,0,P|395:244|367:231,1,64,0|0,3:0|0:0,0:0:0:0:
304,132,10131,1,0,0:0:0:0:
208,132,10312,6,0,P|180:119|151:132,1,64,0|0,3:0|0:0,0:0:0:0:
64,192,10673,1,0,3:0:0:0:
152,252,10854,2,0,P|180:264|208:251,1,64,0|0,3:0|3:0,0:0:0:0:
304,251,11215,1,0,3:0:0:0:
304,251,11396,2,0,P|291:279|304:307,1,64,2|0,0:0|0:0,0:0:0:0:
408,248,11757,6,0,P|420:219|407:191,1,64,0|0,3:0|3:0,0:0:0:0:
340,112,12119,1,2,0:0:0:0:
284,24,12300,2,0,P|255:11|227:24,1,64,0|0,3:0|3:0,0:0:0:0:
172,112,12661,2,0,P|143:124|115:111,1,64,0|0,3:0|3:0,0:0:0:0:
60,24,13022,1,0,0:0:0:0:
60,24,13203,6,0,P|88:11|116:24,1,64,0|0,3:0|0:0,0:0:0:0:
172,112,13565,1,0,3:0:0:0:
228,200,13745,2,0,P|256:212|284:200,1,64,2|0,0:0|3:0,0:0:0:0:
340,112,14107,2,0,P|368:99|396:112,1,64,0|0,3:0|0:0,0:0:0:0:
452,200,14468,1,8,0:0:0:0:
452,200,14649,1,2,0:0:0:0:
376,332,14830,6,0,P|336:332|308:304,1,80,4|0,0:0|0:0,0:0:0:0:
256,216,15191,1,8,0:0:0:0:
256,216,15372,1,0,0:0:0:0:
203,305,15553,2,0,P|175:332|136:332,1,80,2|0,0:0|0:0,0:0:0:0:
72,252,15914,1,8,0:0:0:0:
72,252,16095,2,0,B|72:200|72:200|52:160|52:160|52:96,1,160,2|0,0:0|0:0,0:0:0:0:
156,100,16637,2,0,B|156:144|156:144|180:180,1,80,8|0,0:0|0:0,0:0:0:0:
336,173,16998,6,0,B|356:144|356:144|356:100,1,80,2|0,0:0|0:0,0:0:0:0:
256,32,17360,1,8,0:0:0:0:
256,32,17540,1,0,0:0:0:0:
156,100,17721,2,0,B|72:72|72:128|0:100,1,160,2|8,0:0|0:0,0:0:0:0:
112,176,18263,1,2,0:0:0:0:
32,20,18444,1,0,0:0:0:0:
112,176,18625,1,2,0:0:0:0:
32,20,18806,6,0,B|116:48|116:-8|188:20,1,160,8|2,0:0|0:0,0:0:0:0:
325,19,19348,1,0,0:0:0:0:
292,120,19528,2,0,P|255:135|219:120,1,80,8|2,0:0|0:0,0:0:0:0:
187,19,19890,1,0,0:0:0:0:
325,19,20071,1,8,0:0:0:0:
325,19,20251,2,0,B|357:19|357:19|361:15|361:15|361:23|361:23|365:19|365:19|401:19,1,80,8|0,0:0|0:0,0:0:0:0:
476,156,20613,6,0,B|448:214|448:214|450:258|450:258|428:305,1,160,2|8,0:0|0:0,0:0:0:0:
316,308,21155,1,0,0:0:0:0:
316,308,21336,2,0,L|364:228,1,80,2|0,0:0|0:0,0:0:0:0:
324,132,21697,1,8,0:0:0:0:
324,132,21878,2,0,L|235:278,1,160,2|0,0:0|0:0,0:0:0:0:
184,356,22420,1,8,0:0:0:0:
96,264,22601,5,2,0:0:0:0:
96,264,22781,2,0,P|59:279|23:264,1,80
23,119,23143,2,0,P|59:104|96:120,1,80,8|0,0:0|0:0,0:0:0:0:
188,192,23504,2,0,B|272:164|272:220|344:192,1,160,2|8,0:0|0:0,0:0:0:0:
364,168,23956,1,8,0:0:0:0:
384,144,24046,1,8,0:0:0:0:
404,120,24137,1,8,0:0:0:0:
424,96,24227,5,2,0:0:0:0:
344,24,24408,1,0,0:0:0:0:
276,108,24589,1,8,0:0:0:0:
364,168,24769,1,2,0:0:0:0:
364,168,24860,1,2,0:0:0:0:
364,168,24950,2,0,P|379:204|364:240,1,80,2|0,0:0|0:0,0:0:0:0:
219,328,25312,6,0,P|255:343|292:328,1,80,8|0,0:0|0:0,0:0:0:0:
256,176,25673,1,2,0:0:0:0:
219,328,25854,1,0,0:0:0:0:
365,240,26034,1,8,0:0:0:0:
147,240,26215,1,8,0:0:0:0:
147,240,26306,1,8,0:0:0:0:
147,240,26396,6,0,P|132:204|148:168,1,80,2|0,0:0|0:0,0:0:0:0:
200,68,26757,1,10,0:0:0:0:
256,176,26938,1,0,0:0:0:0:
312,68,27119,2,0,B|360:68|392:40|392:40|468:40,1,160,2|8,0:0|0:0,0:0:0:0:
492,156,27661,1,0,0:0:0:0:
492,156,27751,2,0,L|504:188,2,20,2|0|0,0:0|0:0|0:0,0:0:0:0:
376,188,28022,1,0,0:0:0:0:
416,300,28203,1,8,0:0:0:0:
300,332,28384,1,0,0:0:0:0:
260,220,28565,6,0,B|224:237|224:237|188:220,1,80,2|0,0:0|0:0,0:0:0:0:
376,188,28926,2,0,B|412:171|412:171|448:188,1,80,8|0,0:0|0:0,0:0:0:0:
260,124,29287,2,0,B|224:141|224:141|188:124,1,80,2|0,0:0|0:0,0:0:0:0:
156,8,29649,1,10,0:0:0:0:
72,96,29830,1,0,0:0:0:0:
187,123,30010,2,0,B|159:181|159:181|161:225|161:225|139:272,1,160,2|8,0:0|0:0,0:0:0:0:
240,192,30553,1,0,0:0:0:0:
240,192,30643,2,0,L|248:168,2,20,2|0|0,0:0|0:0|0:0,0:0:0:0:
139,272,30914,1,0,0:0:0:0:
220,356,31095,6,0,P|256:371|292:355,1,80,8|0,0:0|0:0,0:0:0:0:
372,272,31456,1,2,0:0:0:0:
292,188,31637,1,8,0:0:0:0:
292,188,31818,2,0,P|255:172|219:187,1,80,8|0,0:0|0:0,0:0:0:0:
276,280,32179,2,0,L|368:132,1,160,2|10,0:0|0:0,0:0:0:0:
304,52,32721,1,0,0:0:0:0:
304,52,32902,2,0,L|212:200,1,160,2|8,0:0|0:0,0:0:0:0:
160,288,33444,1,0,0:0:0:0:
160,288,33534,2,0,L|144:316,2,20,2|0|0,0:0|0:0|0:0,0:0:0:0:
264,340,33806,1,0,0:0:0:0:
264,340,33986,1,8,0:0:0:0:
324,240,34167,5,2,0:0:0:0:
256,116,34348,1,0,0:0:0:0:
398,108,34528,1,0,0:0:0:0:
220,182,34709,1,8,0:0:0:0:
361,174,34890,1,0,0:0:0:0:
293,49,35071,1,10,0:0:0:0:
298,53,35613,1,2,0:0:0:0:
298,53,35793,2,0,P|218:53|162:109,1,160,2|2,0:0|0:0,0:0:0:0:
163,105,36336,1,2,0:0:0:0:
256,264,36878,5,2,0:0:0:0:
256,240,37239,1,2,0:0:0:0:
256,216,37601,1,2,0:0:0:0:
256,192,37962,6,0,P|284:205|313:192,1,64,2|0,0:0|0:0,0:0:0:0:
352,112,38324,1,2,0:0:0:0:
300,40,38504,1,0,0:0:0:0:
212,40,38685,1,0,0:0:0:0:
160,112,38866,2,0,P|100:112|48:160,1,128,2|0,0:0|0:0,0:0:0:0:
164,240,39408,5,2,0:0:0:0:
164,240,39589,2,0,L|128:180,1,64
256,192,39950,2,0,L|256:128,1,64,0|2,0:0|0:0,0:0:0:0:
348,240,40312,2,0,L|384:180,1,64,0|2,0:0|0:0,0:0:0:0:
352,112,40673,1,0,0:0:0:0:
352,112,40854,2,0,P|412:112|460:152,1,96
462,154,41215,6,0,L|488:224,1,64,2|0,0:0|0:0,0:0:0:0:
388,204,41577,2,0,L|414:274,1,64,2|0,0:0|0:0,0:0:0:0:
320,256,41938,2,0,L|346:326,1,64,2|0,0:0|0:0,0:0:0:0:
248,308,42300,2,0,L|274:378,1,64,2|0,0:0|0:0,0:0:0:0:
168,336,42661,1,0,0:0:0:0:
168,336,42751,2,0,L|156:312,2,16,2|0|0,0:0|0:0|0:0,0:0:0:0:
248,308,43022,6,0,B|284:286|284:286|322:288|322:288|363:264,1,128,2|2,0:0|0:0,0:0:0:0:
444,220,43565,1,0,0:0:0:0:
444,220,43745,2,0,B|451:189|451:189|444:158,1,64
392,84,44107,1,2,0:0:0:0:
336,12,44287,1,0,0:0:0:0:
260,64,44468,1,0,0:0:0:0:
316,136,44649,6,0,B|279:157|279:157|241:155|241:155|200:179,1,128,2|2,0:0|0:0,0:0:0:0:
140,248,45191,1,0,0:0:0:0:
140,248,45372,2,0,P|127:276|140:305,1,64,2|0,0:0|0:0,0:0:0:0:
228,348,45733,1,0,0:0:0:0:
228,348,45914,2,0,P|256:360|284:347,1,64,2|0,0:0|0:0,0:0:0:0:
372,304,46275,2,0,P|385:276|372:248,1,64,2|0,0:0|0:0,0:0:0:0:
328,168,46637,2,0,P|276:168|244:140,1,96
222,117,46998,6,0,L|178:165,1,64,2|0,0:0|0:0,0:0:0:0:
168,64,47360,2,0,L|211:16,1,64,2|0,0:0|0:0,0:0:0:0:
300,16,47721,2,0,L|344:64,1,64,2|0,0:0|0:0,0:0:0:0:
333,164,48083,2,0,L|290:117,1,64,2|0,0:0|0:0,0:0:0:0:
256,292,48625,1,0,0:0:0:0:
256,292,48806,1,2,0:0:0:0:
168,312,48986,6,0,P|155:340|168:369,1,64,2|2,0:0|0:0,0:0:0:0:
344,368,49348,2,0,P|357:340|344:312,1,64,0|2,0:0|0:0,0:0:0:0:
312,228,49709,1,0,0:0:0:0:
256,160,49890,1,0,0:0:0:0:
200,228,50071,2,0,B|152:228|152:228|120:212|120:212|72:212,1,128,2|0,0:0|0:0,0:0:0:0:
36,132,50613,2,0,P|23:103|35:75,1,64,0|2,0:0|0:0,0:0:0:0:
104,20,50974,5,0,0:0:0:0:
172,76,51155,1,2,0:0:0:0:
240,20,51336,1,0,0:0:0:0:
308,76,51516,2,0,P|376:76|416:120,1,128,2|2,0:0|0:0,0:0:0:0:
368,236,52059,1,0,0:0:0:0:
368,236,52239,2,0,P|316:236|276:204,1,96,2|2,0:0|0:0,0:0:0:0:
244,184,52601,6,0,L|168:288,1,128,2|2,0:0|0:0,0:0:0:0:
108,356,53143,2,0,P|56:356|16:324,2,96,2|2|2,0:0|0:0|0:0,0:0:0:0:
85,271,53866,1,2,0:0:0:0:
200,128,56757,6,0,P|256:102|312:128,2,128,2|2|2,0:0|0:0|0:0,0:0:0:0:
256,192,57661,2,0,B|232:256|280:256|256:316,2,128,2|2|2,0:0|0:0|0:0,0:0:0:0:
388,316,58745,1,2,0:0:0:0:
497,236,58926,1,8,0:0:0:0:
362,236,59107,1,2,0:0:0:0:
471,316,59287,1,8,0:0:0:0:
430,187,59468,1,8,0:0:0:0:
430,187,59559,1,8,0:0:0:0:
430,187,59649,6,0,P|445:150|430:114,1,80,4|0,0:0|0:0,0:0:0:0:
320,40,60010,2,0,P|304:76|319:112,1,80,8|2,0:0|0:0,0:0:0:0:
319,112,60372,1,0,0:0:0:0:
256,192,60553,1,2,0:0:0:0:
193,112,60733,2,0,B|136:112|136:112|92:92|92:92|32:92,1,160,8|2,0:0|0:0,0:0:0:0:
37,92,61275,1,0,0:0:0:0:
37,92,61456,1,8,0:0:0:0:
156,40,61637,2,0,B|196:40|196:40|228:16,1,80,2|0,0:0|0:0,0:0:0:0:
72,168,61998,1,8,0:0:0:0:
72,168,62179,2,0,B|32:168|32:168|0:192,1,80,8|0,0:0|0:0,0:0:0:0:
112,312,62540,6,0,P|184:342|256:312,1,160,2|8,0:0|0:0,0:0:0:0:
184,168,63083,1,0,0:0:0:0:
184,168,63263,2,0,B|184:196|184:196|180:200|180:200|188:200|188:200|184:204|184:204|184:236,1,80,2|0,0:0|0:0,0:0:0:0:
255,312,63625,1,8,0:0:0:0:
400,312,63806,2,0,P|328:342|256:312,1,160,2|0,0:0|0:0,0:0:0:0:
328,168,64348,1,8,0:0:0:0:
328,168,64528,6,0,B|328:196|328:196|332:200|332:200|324:200|324:200|328:204|328:204|328:236,1,80,2|0,0:0|0:0,0:0:0:0:
256,312,64890,1,0,0:0:0:0:
184,236,65071,1,8,0:0:0:0:
280,336,65251,1,0,0:0:0:0:
164,212,65432,2,0,P|84:212|28:160,1,160,2|8,0:0|0:0,0:0:0:0:
32,128,65884,1,8,0:0:0:0:
36,96,65974,1,8,0:0:0:0:
40,60,66065,1,8,0:0:0:0:
44,28,66155,5,2,0:0:0:0:
157,40,66336,1,0,0:0:0:0:
143,144,66516,1,8,0:0:0:0:
32,128,66697,1,2,0:0:0:0:
32,128,66787,1,2,0:0:0:0:
32,128,66878,2,0,P|16:164|31:200,1,80,2|0,0:0|0:0,0:0:0:0:
140,296,67239,6,0,P|155:259|140:223,1,80,8|2,0:0|0:0,0:0:0:0:
192,108,67601,1,0,0:0:0:0:
320,108,67781,1,0,0:0:0:0:
140,223,67962,1,8,0:0:0:0:
372,223,68143,1,8,0:0:0:0:
372,223,68233,1,8,0:0:0:0:
372,223,68324,6,0,P|356:259|372:295,1,80,2|0,0:0|0:0,0:0:0:0:
472,348,68685,1,10,0:0:0:0:
372,295,68866,1,0,0:0:0:0:
272,348,69046,2,0,B|216:352|188:320|188:320|116:320,1,160,2|8,0:0|0:0,0:0:0:0:
36,244,69589,1,0,0:0:0:0:
36,244,69679,2,0,L|12:220,2,20,2|0|0,0:0|0:0|0:0,0:0:0:0:
116,164,69950,1,0,0:0:0:0:
32,92,70131,1,8,0:0:0:0:
112,12,70312,1,0,0:0:0:0:
196,84,70492,6,0,B|232:67|232:67|268:84,1,80,2|0,0:0|0:0,0:0:0:0:
356,8,70854,2,0,B|320:25|320:25|284:8,1,80,8|0,0:0|0:0,0:0:0:0:
372,84,71215,2,0,B|408:67|408:67|444:84,1,80,2|0,0:0|0:0,0:0:0:0:
504,180,71577,1,10,0:0:0:0:
504,180,71757,1,0,0:0:0:0:
400,220,71938,2,0,B|358:278|358:278|359:284|359:284|353:279|353:279|354:285|354:285|315:341,1,160,2|8,0:0|0:0,0:0:0:0:
220,280,72480,1,0,0:0:0:0:
220,280,72571,2,0,L|188:260,2,20,2|0|0,0:0|0:0|0:0,0:0:0:0:
276,184,72842,1,0,0:0:0:0:
276,184,73022,1,8,0:0:0:0:
176,132,73203,6,0,P|160:96|176:60,1,80,2|0,0:0|0:0,0:0:0:0:
335,60,73565,1,8,0:0:0:0:
335,60,73745,2,0,P|351:96|336:132,1,80,8|0,0:0|0:0,0:0:0:0:
176,132,74107,2,0,B|134:190|134:190|135:196|135:196|129:191|129:191|130:197|130:197|91:253,1,160,2|10,0:0|0:0,0:0:0:0:
196,320,74649,1,0,0:0:0:0:
196,320,74830,2,0,B|238:262|238:262|237:256|237:256|243:261|243:261|242:255|242:255|281:199,1,160,2|8,0:0|0:0,0:0:0:0:
340,104,75372,1,0,0:0:0:0:
340,104,75462,2,0,L|360:76,2,20,2|0|0,0:0|0:0|0:0,0:0:0:0:
244,44,75733,1,0,0:0:0:0:
244,44,75914,1,8,0:0:0:0:
177,142,76095,5,2,0:0:0:0:
245,266,76275,1,0,0:0:0:0:
103,274,76456,1,0,0:0:0:0:
281,200,76637,1,8,0:0:0:0:
140,208,76818,1,0,0:0:0:0:
208,333,76998,1,10,0:0:0:0:
211,338,77540,1,10,0:0:0:0:
211,338,77721,2,0,B|290:312|290:364|370:338,1,160,10|10,0:0|0:0,0:0:0:0:
367,338,78263,1,10,0:0:0:0:
256,40,78806,5,2,0:0:0:0:
224,40,79167,1,2,0:0:0:0:
192,40,79528,1,2,0:0:0:0:
160,40,79890,6,0,P|128:40|100:64,1,64,2|0,0:0|0:0,0:0:0:0:
48,128,80251,1,8,0:0:0:0:
116,188,80432,1,0,0:0:0:0:
176,120,80613,2,0,L|232:160,1,64,2|0,0:0|0:0,0:0:0:0:
304,204,80974,2,0,B|355:233|355:233|361:232|361:232|357:239|357:239|362:237|362:237|407:264,1,128,8|2,0:0|0:0,0:0:0:0:
364,344,81516,1,0,0:0:0:0:
284,300,81697,6,0,P|255:287|227:300,1,64,8|0,0:0|0:0,0:0:0:0:
148,344,82059,2,0,P|119:356|91:343,1,64,2|0,0:0|0:0,0:0:0:0:
40,268,82420,1,8,0:0:0:0:
40,268,82601,1,0,0:0:0:0:
96,200,82781,2,0,B|120:172|120:172|124:148|124:148|144:120,1,96,2|0,0:0|0:0,0:0:0:0:
164,94,83143,6,0,L|200:40,1,64,10|0,0:0|0:0,0:0:0:0:
208,172,83504,2,0,L|244:118,1,64,2|0,0:0|0:0,0:0:0:0:
260,240,83866,2,0,L|296:186,1,64,10|0,0:0|0:0,0:0:0:0:
316,300,84227,2,0,L|352:246,1,64,2|0,0:0|0:0,0:0:0:0:
396,168,84589,1,0,0:0:0:0:
396,168,84679,2,0,L|412:144,2,16,2|0|8,0:0|0:0|0:0,0:0:0:0:
351,246,84950,1,0,0:0:0:0:
200,344,85312,6,0,P|171:356|143:343,1,64,8|8,0:0|0:0,0:0:0:0:
76,284,85673,1,2,0:0:0:0:
76,284,85854,1,0,0:0:0:0:
16,220,86034,2,0,P|3:191|16:163,1,64,8|0,0:0|0:0,0:0:0:0:
96,124,86396,2,0,P|108:95|96:67,1,64,2|0,0:0|0:0,0:0:0:0:
168,12,86757,1,8,0:0:0:0:
212,92,86938,1,0,0:0:0:0:
300,92,87119,5,2,0:0:0:0:
344,12,87300,1,0,0:0:0:0:
300,92,87480,2,0,L|360:128,1,64,8|0,0:0|0:0,0:0:0:0:
344,12,87842,2,0,L|404:48,1,64,2|0,0:0|0:0,0:0:0:0:
476,88,88203,1,8,0:0:0:0:
436,168,88384,1,0,0:0:0:0:
396,248,88565,2,0,P|368:288|320:300,1,96,2|0,0:0|0:0,0:0:0:0:
292,296,88926,6,0,L|252:348,1,64,10|0,0:0|0:0,0:0:0:0:
248,220,89287,2,0,L|208:270,1,64,2|0,0:0|0:0,0:0:0:0:
200,144,89649,2,0,L|160:196,1,64,10|0,0:0|0:0,0:0:0:0:
156,68,90010,2,0,L|116:118,1,64,2|0,0:0|0:0,0:0:0:0:
208,270,90553,1,8,0:0:0:0:
208,270,90733,1,2,0:0:0:0:
256,348,90914,1,0,0:0:0:0:
304,270,91095,2,0,P|336:272|364:256,1,64,8|8,0:0|0:0,0:0:0:0:
336,172,91456,6,0,P|304:170|276:186,1,64,2|0,0:0|0:0,0:0:0:0:
304,270,91818,1,8,0:0:0:0:
208,270,91998,2,0,B|160:268|136:240|136:240|88:240,1,128,2|0,0:0|0:0,0:0:0:0:
12,192,92540,1,8,0:0:0:0:
88,144,92721,1,2,0:0:0:0:
88,144,92902,6,0,P|100:115|87:87,1,64
12,40,93263,1,8,0:0:0:0:
12,40,93444,2,0,L|144:40,1,128,2|0,0:0|0:0,0:0:0:0:
228,144,93986,1,8,0:0:0:0:
228,144,94167,2,0,L|132:144,1,96,2|0,0:0|0:0,0:0:0:0:
88,144,94528,6,0,P|77:198|128:244,1,128,2|2,0:0|0:0,0:0:0:0:
212,268,95071,2,0,P|256:285|300:268,2,96,2|2|2,0:0|0:0|0:0,0:0:0:0:
256,192,95793,1,2,0:0:0:0:
332,72,96155,6,0,P|256:22|180:72,1,192,2|0,0:0|0:0,0:0:0:0:
96,108,96878,2,0,L|32:140,1,64,2|0,0:0|0:0,0:0:0:0:
96,260,97239,6,0,P|168:260|220:308,1,143.999995605469,2|2,0:0|0:0,0:0:0:0:
324,352,97842,1,0,0:0:0:0:
324,352,97962,2,0,P|368:368|412:352,1,95.9999970703126,8|2,0:0|0:0,0:0:0:0:
456,312,98324,1,0,0:0:0:0:
456,196,98565,2,0,P|505:120|456:44,1,191.999994140625,2|2,0:0|0:0,0:0:0:0:
340,44,99287,5,0,0:0:0:0:
340,44,99408,2,0,P|296:28|252:44,1,95.9999970703126,8|0,0:0|0:0,0:0:0:0:
127,104,99769,2,0,P|171:120|216:104,1,95.9999970703126,2|0,0:0|0:0,0:0:0:0:
88,44,100131,2,0,L|24:176,1,143.999995605469,2|2,0:0|0:0,0:0:0:0:
132,212,100733,1,0,0:0:0:0:
132,212,100854,1,8,0:0:0:0:
88,320,101065,2,0,P|156:348|216:320,1,143.999995605469,2|0,0:0|0:0,0:0:0:0:
256,264,101577,1,2,0:0:0:0:
340,196,101818,5,0,0:0:0:0:
340,196,101938,2,0,P|356:152|340:108,1,95.9999970703126,2|0,0:0|0:0,0:0:0:0:
300,52,102300,2,0,P|256:36|212:52,1,95.9999970703126,8|0,0:0|0:0,0:0:0:0:
172,107,102661,2,0,P|156:151|172:196,1,95.9999970703126,2|0,0:0|0:0,0:0:0:0:
315,260,103022,2,0,P|255:293|196:260,1,143.999995605469,2|2,0:0|0:0,0:0:0:0:
256,148,103625,1,0,0:0:0:0:
256,148,103745,1,8,0:0:0:0:
316,36,103986,2,0,P|256:2|196:36,1,143.999995605469,2|0,0:0|0:0,0:0:0:0:
196,36,104468,1,2,0:0:0:0:
104,320,105071,5,0,0:0:0:0:
104,320,105191,2,0,P|148:336|192:320,1,95.9999970703126,8|0,0:0|0:0,0:0:0:0:
300,256,105553,2,0,P|255:239|211:255,1,95.9999970703126,2|0,0:0|0:0,0:0:0:0:
320,320,105914,2,0,P|380:354|440:320,1,143.999995605469,2|0,0:0|0:0,0:0:0:0:
480,212,106516,1,0,0:0:0:0:
480,212,106637,1,8,0:0:0:0:
440,104,106878,2,0,P|368:104|316:52,1,143.999995605469,2|0,0:0|0:0,0:0:0:0:
318,56,107360,1,2,0:0:0:0:
194,56,107601,5,0,0:0:0:0:
194,56,107721,2,0,P|149:39|105:55,1,95.9999970703126,0|2,0:0|0:0,0:0:0:0:
60,116,108083,2,0,P|104:132|148:116,1,95.9999970703126,8|0,0:0|0:0,0:0:0:0:
194,56,108444,2,0,P|238:39|282:55,1,95.9999970703126,2|0,0:0|0:0,0:0:0:0:
344,100,108806,2,0,B|316:168|372:168|344:240,1,143.999995605469,2|0,0:0|0:0,0:0:0:0:
412,136,109408,1,0,0:0:0:0:
412,136,109528,2,0,P|456:120|500:136,1,95.9999970703126,8|2,0:0|0:0,0:0:0:0:
504,204,109890,1,0,0:0:0:0:
464,324,110131,6,0,B|396:324|396:324|348:352|348:352|280:352,1,191.999994140625,2|2,0:0|0:0,0:0:0:0:
156,316,110854,1,0,0:0:0:0:
156,316,110974,2,0,P|139:271|155:227,1,95.9999970703126,8|0,0:0|0:0,0:0:0:0:
212,192,111336,2,0,P|256:175|300:191,1,95.9999970703126,2|0,0:0|0:0,0:0:0:0:
356,227,111697,2,0,P|372:271|356:316,1,95.9999970703126
300,352,112059,2,0,P|255:367|211:351,1,95.9999970703126,2|0,0:0|0:0,0:0:0:0:
156,316,112420,1,8,0:0:0:0:
52,268,112661,2,0,B|52:212|52:212|76:180|76:180|76:128,1,143.999995605469,2|2,0:0|0:0,0:0:0:0:
76,132,113143,1,0,0:0:0:0:
96,20,113384,5,0,0:0:0:0:
96,20,113504,2,0,P|140:3|184:19,1,95.9999970703126,0|2,0:0|0:0,0:0:0:0:
300,80,113866,2,0,P|255:96|211:81,1,95.9999970703126,8|0,0:0|0:0,0:0:0:0:
327,19,114227,2,0,P|371:3|416:20,1,95.9999970703126,2|0,0:0|0:0,0:0:0:0:
456,76,114589,2,0,L|508:216,1,143.999995605469,2|0,0:0|0:0,0:0:0:0:
448,308,115191,1,0,0:0:0:0:
448,308,115312,2,0,P|400:308|364:276,1,95.9999970703126,8|2,0:0|0:0,0:0:0:0:
256,140,115914,1,2,0:0:0:0:
256,140,116396,6,0,P|211:155|167:139,1,95.9999970703126,0|2,0:0|0:0,0:0:0:0:
151,68,116757,2,0,L|111:164,1,95.9999970703126,8|0,0:0|0:0,0:0:0:0:
88,224,117119,2,0,P|43:239|0:223,1,95.9999970703126,2|0,0:0|0:0,0:0:0:0:
44,152,117480,5,2,0:0:0:0:
152,328,117842,1,2,0:0:0:0:
256,152,118203,1,2,0:0:0:0:
360,328,118565,1,2,0:0:0:0:
468,152,118926,5,8,0:0:0:0:
468,152,119287,1,8,0:0:0:0:
468,152,119649,1,8,0:0:0:0:
368,116,119830,1,8,0:0:0:0:
268,80,120010,1,8,0:0:0:0:
232,68,120101,1,8,0:0:0:0:
196,56,120191,1,8,0:0:0:0:
160,44,120281,1,8,0:0:0:0:
120,32,120372,6,0,P|105:68|120:104,1,80,4|0,0:0|0:0,0:0:0:0:
210,174,120733,1,8,0:0:0:0:
256,316,120914,1,0,0:0:0:0:
302,174,121095,1,0,0:0:0:0:
181,261,121275,1,2,0:0:0:0:
330,261,121456,1,8,0:0:0:0:
210,174,121637,2,0,B|173:137|173:137|130:123|130:123|85:77,1,160,2|0,0:0|0:0,0:0:0:0:
120,208,122179,6,0,L|180:260,1,80,8|2,0:0|0:0,0:0:0:0:
330,261,122540,1,0,0:0:0:0:
180,260,122721,1,0,0:0:0:0:
256,368,122902,1,8,0:0:0:0:
330,261,123083,1,0,0:0:0:0:
160,260,123263,6,0,P|88:289|16:259,1,160,2|8,0:0|0:0,0:0:0:0:
88,187,123806,1,2,0:0:0:0:
42,45,123986,1,0,0:0:0:0:
162,132,124167,1,2,0:0:0:0:
13,132,124348,1,8,0:0:0:0:
134,45,124528,1,0,0:0:0:0:
162,132,124709,6,0,P|147:168|162:204,1,80,2|0,0:0|0:0,0:0:0:0:
349,204,125071,2,0,P|365:168|350:132,1,80,8|2,0:0|0:0,0:0:0:0:
162,132,125432,1,0,0:0:0:0:
256,192,125613,1,8,0:0:0:0:
256,192,125793,2,0,B|256:224|256:224|260:228|260:228|252:228|252:228|256:232|256:232|256:268,1,80,8|0,0:0|0:0,0:0:0:0:
184,56,126155,6,0,P|255:26|327:56,1,160,2|8,0:0|0:0,0:0:0:0:
428,124,126697,1,0,0:0:0:0:
428,124,126878,2,0,P|443:160|428:196,1,80,2|0,0:0|0:0,0:0:0:0:
372,304,127239,1,8,0:0:0:0:
264,256,127420,2,0,B|204:256|204:256|160:280|160:280|104:280,1,160,2|0,0:0|0:0,0:0:0:0:
220,328,127962,2,0,B|260:328|260:328|292:352,1,80,8|0,0:0|0:0,0:0:0:0:
132,208,128324,6,0,B|92:208|92:208|60:184,1,80,2|0,0:0|0:0,0:0:0:0:
24,68,128685,1,8,0:0:0:0:
132,16,128866,1,0,0:0:0:0:
204,112,129046,2,0,B|288:84|288:140|360:112,1,160,2|8,0:0|0:0,0:0:0:0:
384,136,129498,1,8,0:0:0:0:
408,160,129589,1,8,0:0:0:0:
432,184,129679,1,8,0:0:0:0:
456,208,129769,5,2,0:0:0:0:
376,289,129950,1,0,0:0:0:0:
297,208,130131,1,8,0:0:0:0:
384,136,130312,1,2,0:0:0:0:
384,136,130402,1,2,0:0:0:0:
384,136,130492,6,0,B|401:100|401:100|384:64,1,80,2|0,0:0|0:0,0:0:0:0:
220,24,130854,2,0,B|256:41|256:41|292:24,1,80,8|0,0:0|0:0,0:0:0:0:
128,64,131215,2,0,B|111:100|111:100|128:136,1,80,2|0,0:0|0:0,0:0:0:0:
256,192,131577,1,8,0:0:0:0:
384,136,131757,1,8,0:0:0:0:
384,136,131848,1,8,0:0:0:0:
384,136,131938,6,0,P|420:121|456:136,1,80,2|0,0:0|0:0,0:0:0:0:
500,248,132300,1,10,0:0:0:0:
420,336,132480,1,0,0:0:0:0:
340,248,132661,2,0,B|293:193|293:193|293:187|293:187|288:193|288:193|288:187|288:187|244:134,1,160,2|8,0:0|0:0,0:0:0:0:
168,44,133203,1,0,0:0:0:0:
168,44,133293,2,0,L|148:24,2,20,2|0|0,0:0|0:0|0:0,0:0:0:0:
72,116,133565,1,0,0:0:0:0:
148,208,133745,1,8,0:0:0:0:
244,134,133926,1,0,0:0:0:0:
168,44,134107,1,0,0:0:0:0:
72,116,134287,6,0,L|8:176,1,80,2|8,0:0|0:0,0:0:0:0:
244,134,134649,1,0,0:0:0:0:
244,134,134830,2,0,L|308:74,1,80,2|0,0:0|0:0,0:0:0:0:
396,0,135191,1,10,0:0:0:0:
488,80,135372,1,0,0:0:0:0:
400,164,135553,2,0,B|348:213|348:213|348:219|348:219|343:213|343:213|343:220|343:220|295:268,1,160,2|8,0:0|0:0,0:0:0:0:
212,352,136095,1,0,0:0:0:0:
212,352,136185,2,0,L|192:376,2,20,2|0|0,0:0|0:0|0:0,0:0:0:0:
120,276,136456,1,0,0:0:0:0:
164,164,136637,6,0,B|147:128|147:128|164:92,1,80,8|2,0:0|0:0,0:0:0:0:
256,8,136998,1,0,0:0:0:0:
348,91,137179,1,8,0:0:0:0:
348,91,137360,2,0,B|365:127|365:127|348:163,1,80,8|0,0:0|0:0,0:0:0:0:
184,324,137721,2,0,B|256:359|256:359|328:324,1,160,2|10,0:0|0:0,0:0:0:0:
451,188,138263,1,0,0:0:0:0:
451,188,138444,2,0,B|379:153|379:153|307:188,1,160,2|8,0:0|0:0,0:0:0:0:
248,84,138986,1,0,0:0:0:0:
248,84,139077,2,0,L|236:64,2,20,2|0|0,0:0|0:0|0:0,0:0:0:0:
148,148,139348,1,0,0:0:0:0:
148,148,139528,1,8,0:0:0:0:
184,320,139709,5,2,0:0:0:0:
256,168,139890,1,0,0:0:0:0:
256,348,140071,1,0,0:0:0:0:
256,148,140251,1,8,0:0:0:0:
328,320,140432,1,0,0:0:0:0:
256,128,140613,1,10,0:0:0:0:
259,133,141155,1,2,0:0:0:0:
259,133,141336,2,0,B|303:117|321:85|321:85|303:53|259:37,1,160,2|2,0:0|0:0,0:0:0:0:
259,37,141878,1,2,0:0:0:0:
