osu file format v14

[General]
AudioFilename: audio.mp3
AudioLeadIn: 0
PreviewTime: 1129
Countdown: 0
SampleSet: Soft
StackLeniency: 0.3
Mode: 0
LetterboxInBreaks: 0
WidescreenStoryboard: 0

[Editor]
Bookmarks: 78429,125229
DistanceSpacing: 0.7
BeatDivisor: 4
GridSize: 32
TimelineZoom: 1.9

[Metadata]
Title:Bishounen (Kaivaan Version)
TitleUnicode:Bishounen (Kaivaan Version)
Artist:Hikaru Station
ArtistUnicode:Hikaru Station
Creator:FoxyGrandpa
Version:skrub's Insane
Source:
Tags:Crowie Mir osuskrub Foxy Remix Kai Future Beats
BeatmapID:1415170
BeatmapSetID:663309

[Difficulty]
HPDrainRate:5
CircleSize:4
OverallDifficulty:7
ApproachRate:8.5
SliderMultiplier:1.8
SliderTickRate:1

[Events]
//Background and Video events
0,0,"heyprettyboy.jpg",0,0
//Break Periods
2,104229,112954
//Storyboard Layer 0 (Background)
//Storyboard Layer 1 (Fail)
//Storyboard Layer 2 (Pass)
//Storyboard Layer 3 (Foreground)
//Storyboard Sound Samples

[TimingPoints]
829,400,4,2,1,50,1,0
1629,400,4,2,2,50,1,0
14429,-83.3333333333333,4,2,2,50,0,0
26829,-200,4,2,2,50,0,0
27229,-200,4,2,3,50,0,0
39229,-100,4,2,4,60,0,0
40029,-76.9230769230769,4,2,5,60,0,1
48829,-76.9230769230769,4,2,3,60,0,0
49629,-76.9230769230769,4,2,5,60,0,1
52029,-100,4,2,5,60,0,0
52829,-83.3333333333333,4,2,2,50,0,0
78029,-200,4,2,2,60,0,0
78429,-200,4,2,3,60,0,0
116829,-200,4,2,3,5,0,0
119229,-200,4,2,3,50,0,0
120029,-58.8235294117647,4,2,3,60,0,1
120129,-58.8235294117647,4,2,5,60,0,1
121229,-58.8235294117647,4,2,5,45,0,1
121629,-58.8235294117647,4,2,5,60,0,1
128829,-58.8235294117647,4,2,3,60,0,0
129629,-58.8235294117647,4,2,5,60,0,1
131629,-66.6666666666667,4,2,5,60,0,1
132029,-76.9230769230769,4,2,5,60,0,1
132429,-100,4,2,5,60,0,1
132829,-142.857142857143,4,2,7,40,0,0
132929,-142.857142857143,4,2,3,40,0,0
143229,-200,4,2,3,40,0,0

[Colours]
Combo1 : 255,128,192
Combo2 : 0,87,174
Combo3 : 255,60,255
Combo4 : 255,128,128
Combo5 : 255,128,0
Combo6 : 255,51,51

[HitObjects]
403,83,829,5,0,0:0:0:0:
408,100,929,1,0,0:0:0:0:
410,117,1029,1,0,0:0:0:0:
411,134,1129,1,0,0:0:0:0:
412,151,1229,1,0,0:0:0:0:
410,168,1329,1,0,0:0:0:0:
406,185,1429,6,0,P|404:207|402:223,4,22.5,0|0|0|0|4,0:0|0:0|0:0|0:0|0:0,0:0:0:0:
217,68,2229,1,4,0:0:0:0:
217,68,2429,2,0,P|165:63|105:105,1,90,8|0,0:0|0:0,0:0:0:0:
80,224,3029,1,0,0:0:0:0:
132,174,3229,5,4,0:0:0:0:
203,173,3429,1,4,0:0:0:0:
257,219,3629,1,4,0:0:0:0:
395,113,4029,1,8,0:0:0:0:
395,113,4129,1,0,0:0:0:0:
395,113,4229,1,0,0:0:0:0:
282,309,4829,6,0,P|324:299|388:317,1,90,4|0,0:0|0:0,0:0:0:0:
458,271,5229,2,0,P|467:228|449:164,1,90,0|4,0:0|0:0,0:0:0:0:
390,119,5629,2,0,P|346:110|302:120,1,90,12|0,0:0|0:0,0:0:0:0:
265,201,6029,1,0,0:0:0:0:
265,201,6229,1,0,0:0:0:0:
265,201,6429,6,0,B|278:252|248:317,1,90,4|0,0:0|0:0,0:0:0:0:
146,216,6829,1,4,0:0:0:0:
102,220,6929,1,0,0:0:0:0:
70,252,7029,1,0,0:0:0:0:
66,296,7129,1,0,0:0:0:0:
90,333,7229,1,12,0:0:0:0:
195,284,7429,1,0,0:0:0:0:
286,355,7629,2,0,P|330:376|390:351,1,90,0|2,0:0|0:0,0:0:0:0:
472,233,8029,5,4,0:0:0:0:
472,233,8829,1,8,0:0:0:0:
472,233,9029,1,0,0:0:0:0:
173,181,9429,1,0,0:0:0:0:
225,131,9629,5,4,0:0:0:0:
296,130,9829,1,4,0:0:0:0:
350,176,10029,1,4,0:0:0:0:
172,29,10429,1,12,0:0:0:0:
172,29,10529,1,0,0:0:0:0:
172,29,10629,1,0,0:0:0:0:
56,172,11229,6,0,P|71:215|48:268,1,90,4|0,0:0|0:0,0:0:0:0:
60,340,11629,2,0,P|45:297|68:244,1,90,0|4,0:0|0:0,0:0:0:0:
141,253,12029,2,0,P|98:268|45:245,1,90,12|0,0:0|0:0,0:0:0:0:
141,134,12429,1,0,0:0:0:0:
141,134,12629,1,0,0:0:0:0:
141,134,12829,6,0,B|188:111|188:156|263:127,1,90,4|0,0:0|0:0,0:0:0:0:
314,126,13229,1,4,0:0:0:0:
353,144,13329,1,0,0:0:0:0:
365,186,13429,1,0,0:0:0:0:
342,223,13529,1,0,0:0:0:0:
300,241,13629,6,0,P|274:241|229:246,1,45,12|0,0:0|0:0,0:0:0:0:
102,257,13829,2,0,P|124:255|146:253,1,45,2|0,0:0|0:0,0:0:0:0:
193,131,14029,2,0,P|195:154|196:175,1,45,2|0,0:0|0:0,0:0:0:0:
208,331,14229,1,0,0:0:0:0:
208,331,14329,1,0,0:0:0:0:
208,331,14429,6,0,P|263:320|336:354,1,107.999996704102,6|0,0:0|0:0,0:0:0:0:
272,246,14729,2,0,P|212:248|138:290,1,107.999996704102,2|0,0:0|0:0,0:0:0:0:
145,287,15029,1,2,0:0:0:0:
60,177,15229,2,0,P|47:123|71:71,1,107.999996704102,8|0,0:0|0:0,0:0:0:0:
222,26,15829,1,0,0:0:0:0:
304,121,16029,5,2,0:0:0:0:
379,121,16229,1,0,0:0:0:0:
454,121,16429,1,0,0:0:0:0:
299,17,16829,1,8,0:0:0:0:
299,17,16929,1,0,0:0:0:0:
299,17,17029,1,0,0:0:0:0:
474,292,17629,6,0,P|463:237|497:164,1,107.999996704102,2|2,0:0|0:0,0:0:0:0:
389,228,17929,2,0,P|391:288|433:362,1,107.999996704102,2|0,0:0|0:0,0:0:0:0:
430,355,18229,1,2,0:0:0:0:
279,249,18429,1,8,0:0:0:0:
477,188,18629,1,8,0:0:0:0:
364,122,18829,1,0,0:0:0:0:
309,359,19229,6,0,B|242:382|177:357,1,107.999996704102,2|0,0:0|0:0,0:0:0:0:
148,285,19629,1,8,0:0:0:0:
149,232,19729,1,0,0:0:0:0:
114,192,19829,1,0,0:0:0:0:
62,187,19929,1,0,0:0:0:0:
21,220,20029,1,8,0:0:0:0:
25,76,20229,5,8,0:0:0:0:
218,176,20429,2,0,P|233:227|217:277,1,107.999996704102,6|0,0:0|0:0,0:0:0:0:
293,110,20829,6,0,P|348:99|421:133,1,107.999996704102,2|0,0:0|0:0,0:0:0:0:
357,25,21129,2,0,P|297:27|223:69,1,107.999996704102,2|0,0:0|0:0,0:0:0:0:
230,66,21429,1,2,0:0:0:0:
138,178,21629,2,0,P|127:237|146:289,1,107.999996704102,8|0,0:0|0:0,0:0:0:0:
327,301,22229,1,0,0:0:0:0:
444,221,22429,5,2,0:0:0:0:
444,146,22629,1,0,0:0:0:0:
444,78,22829,1,0,0:0:0:0:
318,224,23229,1,8,0:0:0:0:
318,224,23329,1,0,0:0:0:0:
318,224,23429,1,0,0:0:0:0:
303,33,24029,6,0,L|376:29,1,53.9999983520508,2|0,0:0|0:0,0:0:0:0:
309,116,24229,1,2,0:0:0:0:
309,116,24329,2,0,L|181:125,1,107.999996704102,2|0,0:0|0:0,0:0:0:0:
176,128,24629,1,2,0:0:0:0:
253,18,24829,1,8,0:0:0:0:
256,216,25029,1,8,0:0:0:0:
386,107,25229,1,0,0:0:0:0:
470,348,25629,6,0,P|477:291|438:187,1,161.999995056153,2|0,0:0|0:0,0:0:0:0:
420,170,26029,2,0,P|331:145|263:228,1,161.999995056153,10|0,0:0|0:0,0:0:0:0:
258,208,26429,1,10,0:0:0:0:
304,55,26629,1,10,0:0:0:0:
420,170,26829,1,4,0:0:0:0:
357,226,27029,1,0,0:0:0:0:
357,226,27129,1,0,0:0:0:0:
357,226,27229,5,4,0:0:0:0:
357,226,28029,1,8,0:0:0:0:
214,347,28829,5,2,0:0:0:0:
214,347,29629,1,10,0:0:0:0:
213,344,29829,1,2,0:0:0:0:
212,341,30029,1,2,0:0:0:0:
211,338,30229,1,2,0:0:0:0:
210,335,30429,5,2,0:0:0:0:
210,335,31229,1,8,0:0:0:0:
140,132,32029,5,2,0:0:0:0:
140,132,32829,1,8,0:0:0:0:
333,66,33629,5,2,0:0:0:0:
333,66,34429,1,8,0:0:0:0:
253,196,35229,5,2,0:0:0:0:
253,196,36029,1,8,0:0:0:0:
190,343,36829,5,2,0:0:0:0:
190,343,37629,1,8,0:0:0:0:
360,202,38429,5,2,0:0:0:0:
204,195,39229,2,0,L|202:128,1,45,2|0,0:0|0:0,0:0:0:0:
119,93,39429,1,0,0:0:0:0:
119,93,39529,2,0,L|124:193,1,90,2|0,0:0|0:0,0:0:0:0:
89,301,39829,2,0,L|52:306,2,22.5,2|2|2,0:0|0:0|0:0,0:0:0:0:
130,298,40029,6,0,B|173:284|208:304|208:304|286:272,1,116.999994644165,2|0,0:0|0:0,0:0:0:0:
359,254,40429,1,0,0:0:0:0:
387,225,40529,1,0,0:0:0:0:
391,184,40629,1,0,0:0:0:0:
369,149,40729,1,0,0:0:0:0:
333,127,40829,2,0,P|295:83|293:26,1,116.999994644165,8|0,0:0|0:0,0:0:0:0:
147,98,41229,1,0,0:0:0:0:
147,98,41429,1,0,0:0:0:0:
147,98,41629,6,0,P|105:146|107:199,1,116.999994644165,2|0,0:0|0:0,0:0:0:0:
254,82,42029,2,0,P|196:71|146:97,1,116.999994644165,0|0,0:0|0:0,0:0:0:0:
292,184,42429,2,0,P|258:85|136:110,1,233.999989288331,8|0,0:0|0:0,0:0:0:0:
106,198,43029,1,0,0:0:0:0:
268,90,43229,6,0,P|324:73|394:119,1,116.999994644165,2|0,0:0|0:0,0:0:0:0:
455,173,43629,1,0,0:0:0:0:
483,208,43729,1,0,0:0:0:0:
484,254,43829,1,0,0:0:0:0:
456,291,43929,1,0,0:0:0:0:
417,303,44029,2,0,P|356:296|290:329,1,116.999994644165,8|0,0:0|0:0,0:0:0:0:
370,219,44429,2,0,P|377:152|351:88,1,116.999994644165,0|0,0:0|0:0,0:0:0:0:
62,223,44829,6,0,B|148:223|148:223|182:178|182:178|276:178,1,233.999989288331,2|0,0:0|0:0,0:0:0:0:
401,171,45429,1,0,0:0:0:0:
401,171,45629,2,0,B|404:225|404:225|348:324,1,116.999994644165,8|0,0:0|0:0,0:0:0:0:
273,178,46029,2,0,B|270:124|270:124|326:25,1,116.999994644165,0|0,0:0|0:0,0:0:0:0:
187,31,46429,6,0,P|132:92|-1:54,1,233.999989288331,2|0,0:0|0:0,0:0:0:0:
10,163,47029,1,0,0:0:0:0:
10,163,47229,2,0,P|129:177|251:89,1,233.999989288331,8|0,0:0|0:0,0:0:0:0:
238,226,47829,1,0,0:0:0:0:
238,226,48029,6,0,B|301:195|322:137|322:137|354:177|351:292|237:265|196:331|84:286,1,467.999978576661,2|12,0:0|0:0,0:0:0:0:
351,289,49629,6,0,B|444:320|512:286|512:286|408:234,1,233.999989288331,2|0,0:0|0:0,0:0:0:0:
315,223,50229,1,0,0:0:0:0:
315,223,50429,2,0,B|284:130|318:62|318:62|370:166,1,233.999989288331,8|0,0:0|0:0,0:0:0:0:
279,292,51029,1,0,0:0:0:0:
279,292,51229,6,0,B|186:323|118:289|118:289|222:237,1,233.999989288331,2|0,0:0|0:0,0:0:0:0:
348,123,52029,1,8,0:0:0:0:
152,101,52829,6,0,P|97:112|24:78,1,107.999996704102,2|0,0:0|0:0,0:0:0:0:
88,186,53129,2,0,P|148:184|222:142,1,107.999996704102,2|0,0:0|0:0,0:0:0:0:
215,145,53429,1,2,0:0:0:0:
326,94,53629,2,0,P|375:84|432:107,1,107.999996704102,8|0,0:0|0:0,0:0:0:0:
488,175,54229,1,0,0:0:0:0:
390,275,54429,5,2,0:0:0:0:
315,275,54629,1,0,0:0:0:0:
240,275,54829,1,0,0:0:0:0:
343,133,55229,1,8,0:0:0:0:
343,133,55329,1,0,0:0:0:0:
343,133,55429,1,0,0:0:0:0:
120,326,56029,6,0,P|175:315|248:349,1,107.999996704102,2|2,0:0|0:0,0:0:0:0:
184,241,56329,2,0,P|124:243|50:285,1,107.999996704102,2|0,0:0|0:0,0:0:0:0:
57,282,56629,1,2,0:0:0:0:
74,100,56829,1,8,0:0:0:0:
184,241,57029,1,8,0:0:0:0:
212,136,57229,1,0,0:0:0:0:
368,266,57629,6,0,P|374:204|344:121,1,107.999996704102,2|0,0:0|0:0,0:0:0:0:
278,68,58029,1,8,0:0:0:0:
225,67,58129,1,0,0:0:0:0:
185,102,58229,1,0,0:0:0:0:
180,154,58329,1,0,0:0:0:0:
213,195,58429,1,8,0:0:0:0:
65,130,58629,1,8,0:0:0:0:
122,239,58829,2,0,P|133:284|110:348,1,107.999996704102,6|0,0:0|0:0,0:0:0:0:
274,309,59229,6,0,P|329:298|402:332,1,107.999996704102,2|0,0:0|0:0,0:0:0:0:
338,224,59529,2,0,P|278:226|204:268,1,107.999996704102,2|0,0:0|0:0,0:0:0:0:
211,265,59829,1,2,0:0:0:0:
250,136,60029,2,0,P|253:91|221:25,1,107.999996704102,8|0,0:0|0:0,0:0:0:0:
64,102,60629,1,0,0:0:0:0:
160,205,60829,5,2,0:0:0:0:
160,280,61029,1,0,0:0:0:0:
160,355,61229,1,0,0:0:0:0:
301,159,61629,1,8,0:0:0:0:
301,159,61729,1,0,0:0:0:0:
301,159,61829,1,0,0:0:0:0:
453,294,62429,6,0,P|460:239|445:186,1,107.999996704102,2|0,0:0|0:0,0:0:0:0:
396,117,62729,1,2,0:0:0:0:
396,117,62829,2,0,P|373:100|314:80,1,53.9999983520508,0|0,0:0|0:0,0:0:0:0:
276,70,63029,2,0,P|247:66|182:80,1,53.9999983520508,2|0,0:0|0:0,0:0:0:0:
183,82,63229,1,8,0:0:0:0:
244,199,63429,1,8,0:0:0:0:
337,23,63629,1,0,0:0:0:0:
497,160,64029,6,0,P|447:145|377:170,1,107.999996704102,2|0,0:0|0:0,0:0:0:0:
307,211,64429,1,8,0:0:0:0:
268,231,64529,1,0,0:0:0:0:
228,213,64629,1,2,0:0:0:0:
217,171,64729,1,0,0:0:0:0:
227,118,64829,2,0,L|251:65,1,53.9999983520508,8|0,0:0|0:0,0:0:0:0:
117,117,65029,2,0,L|94:171,1,53.9999983520508,8|0,0:0|0:0,0:0:0:0:
109,279,65229,2,0,P|158:295|235:270,1,107.999996704102,6|0,0:0|0:0,0:0:0:0:
328,222,65629,6,0,P|383:211|456:245,1,107.999996704102,2|0,0:0|0:0,0:0:0:0:
392,137,65929,2,0,P|332:139|258:181,1,107.999996704102,2|0,0:0|0:0,0:0:0:0:
265,178,66229,1,2,0:0:0:0:
303,337,66429,2,0,P|357:342|418:315,1,107.999996704102,8|0,0:0|0:0,0:0:0:0:
503,230,67029,1,0,0:0:0:0:
394,151,67229,5,2,0:0:0:0:
394,76,67429,1,0,0:0:0:0:
394,1,67629,1,0,0:0:0:0:
287,153,68029,1,8,0:0:0:0:
287,153,68129,1,0,0:0:0:0:
287,153,68229,1,0,0:0:0:0:
203,45,68429,2,0,P|148:48|102:105,1,107.999996704102,4|0,0:0|0:0,0:0:0:0:
86,193,68829,6,0,P|75:248|109:321,1,107.999996704102,2|2,0:0|0:0,0:0:0:0:
1,257,69129,2,0,P|3:197|45:123,1,107.999996704102,2|0,0:0|0:0,0:0:0:0:
42,130,69429,1,2,0:0:0:0:
89,296,69629,1,8,0:0:0:0:
165,138,69829,1,8,0:0:0:0:
210,238,70029,1,0,0:0:0:0:
464,324,70429,6,0,P|419:343|339:335,1,107.999996704102,2|0,0:0|0:0,0:0:0:0:
271,305,70829,1,8,0:0:0:0:
225,278,70929,1,0,0:0:0:0:
208,227,71029,1,0,0:0:0:0:
231,180,71129,1,0,0:0:0:0:
280,162,71229,1,8,0:0:0:0:
114,183,71429,1,8,0:0:0:0:
223,75,71629,2,0,P|276:64|347:81,1,107.999996704102,6|0,0:0|0:0,0:0:0:0:
378,207,72029,6,0,P|367:262|401:335,1,107.999996704102,2|0,0:0|0:0,0:0:0:0:
293,271,72329,2,0,P|295:211|337:137,1,107.999996704102,2|0,0:0|0:0,0:0:0:0:
334,144,72629,1,2,0:0:0:0:
223,75,72829,2,0,P|172:64|105:103,1,107.999996704102,8|0,0:0|0:0,0:0:0:0:
53,201,73429,1,0,0:0:0:0:
144,309,73629,5,2,0:0:0:0:
219,309,73829,1,0,0:0:0:0:
294,309,74029,1,0,0:0:0:0:
194,139,74429,1,8,0:0:0:0:
194,139,74529,1,0,0:0:0:0:
194,139,74629,1,0,0:0:0:0:
300,207,74829,2,0,P|352:223|419:184,1,107.999996704102,4|0,0:0|0:0,0:0:0:0:
432,112,75229,6,0,L|433:33,1,53.9999983520508,2|0,0:0|0:0,0:0:0:0:
356,40,75429,1,2,0:0:0:0:
356,40,75529,2,0,L|351:153,1,107.999996704102,2|0,0:0|0:0,0:0:0:0:
349,186,75829,1,2,0:0:0:0:
263,96,76029,1,8,0:0:0:0:
212,244,76229,1,8,0:0:0:0:
141,169,76429,1,0,0:0:0:0:
369,177,76829,6,0,P|409:208|411:295,1,107.999996704102,2|0,0:0|0:0,0:0:0:0:
327,309,77229,1,8,0:0:0:0:
286,289,77329,1,0,0:0:0:0:
241,287,77429,1,0,0:0:0:0:
199,301,77529,1,0,0:0:0:0:
166,331,77629,1,8,0:0:0:0:
141,166,77829,1,8,0:0:0:0:
38,285,78029,5,4,0:0:0:0:
38,285,78429,5,4,0:0:0:0:
38,285,80029,1,2,0:0:0:0:
127,127,81629,5,2,0:0:0:0:
127,127,83229,1,2,0:0:0:0:
127,127,84029,1,2,0:0:0:0:
225,280,84829,5,2,0:0:0:0:
225,280,86429,1,2,0:0:0:0:
354,153,88029,5,2,0:0:0:0:
354,153,89629,1,2,0:0:0:0:
339,332,91229,5,2,0:0:0:0:
339,332,92029,1,8,0:0:0:0:
172,267,92829,5,2,0:0:0:0:
172,267,93629,1,8,0:0:0:0:
221,192,94429,5,2,0:0:0:0:
221,192,95229,1,8,0:0:0:0:
360,307,96029,5,2,0:0:0:0:
360,307,96829,1,8,0:0:0:0:
405,132,97629,5,2,0:0:0:0:
405,132,98429,1,8,0:0:0:0:
225,107,99229,5,2,0:0:0:0:
225,107,100029,1,8,0:0:0:0:
314,264,100829,5,2,0:0:0:0:
314,264,101629,1,8,0:0:0:0:
178,147,102429,5,2,0:0:0:0:
178,147,103229,1,10,0:0:0:0:
256,192,104029,5,6,0:0:0:0:
256,192,113629,12,0,116829,0:0:0:0:
256,192,119229,5,8,0:0:0:0:
455,321,120029,6,0,B|418:336|418:336|428:212,1,153.000002918243,6|0,0:0|0:0,0:0:0:0:
438,104,120429,1,0,0:0:0:0:
386,71,120529,1,0,0:0:0:0:
326,67,120629,1,0,0:0:0:0:
272,94,120729,1,0,0:0:0:0:
233,141,120829,2,0,P|207:213|240:294,1,153.000002918243,8|0,0:0|0:0,0:0:0:0:
367,259,121229,5,0,0:0:0:0:
367,259,121329,1,0,0:0:0:0:
367,259,121429,1,0,0:0:0:0:
367,259,121529,1,0,0:0:0:0:
367,259,121629,6,0,B|306:271|268:247|268:247|230:283|230:283|190:248|153:279|133:287|133:287|86:276,1,306.000005836487,2|0,0:0|0:0,0:0:0:0:
52,101,122429,2,0,P|104:22|73:122,1,306.000005836487,8|0,0:0|0:0,0:0:0:0:
72,121,123029,1,0,0:0:0:0:
72,121,123229,6,0,P|142:137|230:114,1,153.000002918243,2|0,0:0|0:0,0:0:0:0:
293,328,123629,2,0,P|309:258|286:170,1,153.000002918243,0|0,0:0|0:0,0:0:0:0:
187,37,124029,2,0,P|81:76|147:205,1,229.500004377365,8|0,0:0|0:0,0:0:0:0:
125,223,124429,1,0,0:0:0:0:
125,223,124629,1,0,0:0:0:0:
125,223,124829,6,0,B|61:252|61:252|230:250,1,229.500004377365,2|0,0:0|0:0,0:0:0:0:
220,250,125229,2,0,P|307:230|269:362,1,229.500004377365,0|0,0:0|0:0,0:0:0:0:
324,342,125629,2,0,P|252:357|204:290,1,153.000002918243,8|0,0:0|0:0,0:0:0:0:
201,132,126029,2,0,P|241:74|318:76,1,153.000002918243,0|0,0:0|0:0,0:0:0:0:
495,245,126429,6,0,B|554:154|504:46|504:46|462:178,1,306.000005836487,2|0,0:0|0:0,0:0:0:0:
295,296,127229,2,0,B|224:277|163:316|163:316|166:217|251:166,1,306.000005836487,8|0,0:0|0:0,0:0:0:0:
373,219,128029,6,0,P|452:226|354:207,1,612.000011672974,2|8,0:0|0:0,0:0:0:0:
206,312,129429,2,0,L|162:317,2,38.2500007295609
247,306,129629,6,0,B|265:238|265:238|236:152,1,153.000002918243,2|0,0:0|0:0,0:0:0:0:
114,62,130029,2,0,B|96:130|96:130|125:216,1,153.000002918243,0|0,0:0|0:0,0:0:0:0:
342,253,130429,2,0,P|416:265|436:366,1,153.000002918243,8|0,0:0|0:0,0:0:0:0:
446,330,130829,1,0,0:0:0:0:
478,189,131029,1,0,0:0:0:0:
478,189,131229,6,0,P|460:133|367:106,1,153.000002918243,2|0,0:0|0:0,0:0:0:0:
361,332,131629,2,0,P|400:289|380:206,1,135.000005149842,0|0,0:0|0:0,0:0:0:0:
181,306,132029,2,0,P|237:319|303:260,1,116.999994644165,8|0,0:0|0:0,0:0:0:0:
286,291,132429,1,0,0:0:0:0:
164,166,132829,5,4,0:0:0:0:
164,166,133629,1,8,0:0:0:0:
291,116,134429,6,0,L|293:90,2,15.7499995193482,2|0|0,0:0|0:0|0:0,0:0:0:0:
263,214,135229,1,10,0:0:0:0:
236,206,135429,1,2,0:0:0:0:
236,177,135629,1,2,0:0:0:0:
263,169,135829,1,2,0:0:0:0:
280,192,136029,5,2,0:0:0:0:
408,117,136829,1,8,0:0:0:0:
493,231,137629,2,0,L|492:265,1,20.9999993591309,2|0,0:0|0:0,0:0:0:0:
336,363,138429,1,8,0:0:0:0:
302,262,139229,5,2,0:0:0:0:
302,262,140029,1,8,0:0:0:0:
210,261,140229,1,0,0:0:0:0:
182,175,140429,1,2,0:0:0:0:
256,121,140629,1,0,0:0:0:0:
330,175,140829,5,2,0:0:0:0:
330,175,141629,1,8,0:0:0:0:
124,284,142229,1,0,0:0:0:0:
124,284,142429,6,0,P|190:269|264:303,1,125.999996154785,2|0,0:0|0:0,0:0:0:0:
319,355,143029,1,0,0:0:0:0:
319,355,143229,6,0,P|361:362|409:340,1,90,8|0,0:0|0:0,0:0:0:0:
499,283,143829,1,2,0:0:0:0:
499,283,144029,5,6,0:0:0:0:
