osu file format v14

[General]
AudioFilename: audio.mp3
AudioLeadIn: 0
PreviewTime: 1129
Countdown: 0
SampleSet: Soft
StackLeniency: 0.3
Mode: 0
LetterboxInBreaks: 0
WidescreenStoryboard: 0

[Editor]
Bookmarks: 78429,125229
DistanceSpacing: 0.3
BeatDivisor: 4
GridSize: 32
TimelineZoom: 1.66

[Metadata]
Title:Bishounen (Kaivaan Version)
TitleUnicode:Bishounen (Kaivaan Version)
Artist:Hikaru Station
ArtistUnicode:Hikaru Station
Creator:FoxyGrandpa
Version:Hey Pretty Boy
Source:
Tags:Crowie Mir osuskrub Foxy Remix Kai Future Beats
BeatmapID:1404020
BeatmapSetID:663309

[Difficulty]
HPDrainRate:5
CircleSize:4
OverallDifficulty:8
ApproachRate:9
SliderMultiplier:2.3
SliderTickRate:1

[Events]
//Background and Video events
0,0,"heyprettyboy.jpg",0,0
//Break Periods
2,104229,113000
//Storyboard Layer 0 (Background)
//Storyboard Layer 1 (Fail)
//Storyboard Layer 2 (Pass)
//Storyboard Layer 3 (Foreground)
//Storyboard Sound Samples

[TimingPoints]
829,400,4,2,1,50,1,0
1629,400,4,2,2,50,1,0
26829,-200,4,2,2,50,0,0
27229,-200,4,2,3,50,0,0
39229,-100,4,2,4,60,0,0
40029,-76.9230769230769,4,2,5,60,0,1
48829,-76.9230769230769,4,2,3,60,0,0
49629,-76.9230769230769,4,2,5,60,0,1
52029,-100,4,2,5,60,0,0
52829,-100,4,2,2,50,0,0
78029,-200,4,2,2,60,0,0
78429,-200,4,2,3,60,0,0
116829,-200,4,2,3,5,0,0
119229,-200,4,2,3,50,0,0
120029,-58.8235294117647,4,2,3,60,0,1
120129,-58.8235294117647,4,2,5,60,0,1
128829,-58.8235294117647,4,2,3,60,0,0
129629,-58.8235294117647,4,2,5,60,0,1
131629,-66.6666666666667,4,2,5,60,0,1
132029,-76.9230769230769,4,2,5,60,0,1
132429,-100,4,2,5,60,0,1
132829,-142.857142857143,4,2,7,40,0,0
132929,-142.857142857143,4,2,3,40,0,0
143229,-200,4,2,3,40,0,0

[Colours]
Combo1 : 255,128,192
Combo2 : 0,87,174
Combo3 : 255,60,255
Combo4 : 255,128,128
Combo5 : 255,128,0
Combo6 : 255,51,51

[HitObjects]
107,52,829,5,0,0:0:0:0:
92,76,929,1,0,0:0:0:0:
88,104,1029,1,0,0:0:0:0:
95,131,1129,1,0,0:0:0:0:
114,154,1229,1,0,0:0:0:0:
129,178,1329,1,0,0:0:0:0:
133,206,1429,2,0,L|170:205,1,28.75
126,233,1529,2,0,L|164:258,1,28.75
108,256,1629,5,4,0:0:0:0:
108,256,2229,1,4,0:0:0:0:
108,256,2429,2,0,P|145:299|142:355,1,115,8|0,0:0|0:0,0:0:0:0:
142,354,3029,1,0,0:0:0:0:
262,254,3229,5,4,0:0:0:0:
271,300,3429,1,4,0:0:0:0:
254,343,3629,1,4,0:0:0:0:
254,343,4029,5,8,0:0:0:0:
271,300,4129,1,0,0:0:0:0:
262,254,4229,1,0,0:0:0:0:
262,254,4829,6,0,P|206:253|161:219,1,115,4|0,0:0|0:0,0:0:0:0:
292,87,5229,2,0,P|318:137|311:194,1,115,0|4,0:0|0:0,0:0:0:0:
132,142,5629,2,0,P|162:94|214:74,1,115,12|0,0:0|0:0,0:0:0:0:
214,73,6429,5,4,0:0:0:0:
311,193,6829,1,4,0:0:0:0:
278,237,6929,1,0,0:0:0:0:
222,241,7029,1,0,0:0:0:0:
184,202,7129,1,0,0:0:0:0:
184,146,7229,5,12,0:0:0:0:
311,193,7429,1,0,0:0:0:0:
105,136,7629,2,0,P|138:77|192:64,1,115,0|2,0:0|0:0,0:0:0:0:
402,187,8029,5,4,0:0:0:0:
402,187,8629,1,4,0:0:0:0:
402,187,8829,2,0,P|384:247|336:286,1,115,8|0,0:0|0:0,0:0:0:0:
346,281,9429,1,0,0:0:0:0:
224,172,9629,5,4,0:0:0:0:
236,122,9829,1,4,0:0:0:0:
273,86,10029,1,4,0:0:0:0:
273,86,10429,5,12,0:0:0:0:
236,122,10529,1,0,0:0:0:0:
224,172,10629,1,0,0:0:0:0:
224,172,11229,6,0,P|168:129|161:67,1,115,4|0,0:0|0:0,0:0:0:0:
272,227,11629,2,0,P|262:296|212:334,1,115,0|4,0:0|0:0,0:0:0:0:
296,158,12029,2,0,P|361:131|418:155,1,115,12|0,0:0|0:0,0:0:0:0:
401,142,12829,5,4,0:0:0:0:
401,142,13229,5,4,0:0:0:0:
359,148,13329,1,0,0:0:0:0:
322,127,13429,1,0,0:0:0:0:
306,88,13529,1,0,0:0:0:0:
317,48,13629,5,12,0:0:0:0:
355,90,13729,1,0,0:0:0:0:
359,148,13829,1,2,0:0:0:0:
329,195,13929,1,0,0:0:0:0:
276,215,14029,6,0,P|232:210|207:196,1,57.5,2|0,0:0|0:0,0:0:0:0:
470,182,14229,2,0,P|480:155|480:127,1,57.5
262,370,14429,6,0,P|232:301|125:301,2,172.5,6|2|2,0:0|0:0|0:0,0:0:0:0:
262,370,15229,1,8,0:0:0:0:
262,370,15429,1,0,0:0:0:0:
262,370,15829,1,0,0:0:0:0:
384,288,16029,5,2,0:0:0:0:
353,240,16229,1,0,0:0:0:0:
302,215,16429,1,0,0:0:0:0:
302,215,16829,5,8,0:0:0:0:
353,240,16929,1,0,0:0:0:0:
384,288,17029,1,0,0:0:0:0:
384,288,17629,6,0,P|310:320|248:291,1,115,2|2,0:0|0:0,0:0:0:0:
245,286,17929,1,2,0:0:0:0:
245,286,18029,2,0,P|189:282|141:312,1,115,0|2,0:0|0:0,0:0:0:0:
211,380,18429,5,8,0:0:0:0:
46,322,18629,1,8,0:0:0:0:
171,214,18829,1,0,0:0:0:0:
171,214,19229,6,0,P|154:159|155:101,1,115,2|0,0:0|0:0,0:0:0:0:
272,194,19629,1,8,0:0:0:0:
279,250,19729,1,0,0:0:0:0:
260,304,19829,1,0,0:0:0:0:
219,344,19929,1,0,0:0:0:0:
165,362,20029,5,8,0:0:0:0:
272,194,20229,1,8,0:0:0:0:
374,381,20429,2,0,P|351:329|360:273,1,115,6|0,0:0|0:0,0:0:0:0:
467,71,20829,6,0,P|413:134|428:216,2,172.5,2|2|2,0:0|0:0|0:0,0:0:0:0:
468,71,21629,1,8,0:0:0:0:
468,71,21829,1,0,0:0:0:0:
468,71,22229,1,0,0:0:0:0:
277,312,22429,5,2,0:0:0:0:
242,268,22629,1,0,0:0:0:0:
237,211,22829,1,0,0:0:0:0:
237,211,23229,5,8,0:0:0:0:
242,268,23329,1,0,0:0:0:0:
277,312,23429,1,0,0:0:0:0:
277,312,24029,6,0,P|246:259|180:249,1,115,2|2,0:0|0:0,0:0:0:0:
155,285,24329,1,2,0:0:0:0:
155,285,24429,2,0,P|102:268|76:219,1,115,0|2,0:0|0:0,0:0:0:0:
196,167,24829,5,8,0:0:0:0:
45,324,25029,1,8,0:0:0:0:
45,324,25429,1,0,0:0:0:0:
45,324,25629,6,0,B|76:275|76:275|77:193,1,115,2|0,0:0|0:0,0:0:0:0:
44,111,26029,5,10,0:0:0:0:
87,63,26129,1,0,0:0:0:0:
147,44,26229,1,0,0:0:0:0:
210,57,26329,1,0,0:0:0:0:
258,100,26429,2,0,P|280:155|259:241,1,115,10|10,0:0|0:0,0:0:0:0:
183,350,26829,6,0,P|161:295|182:209,1,115,4|4,0:0|0:0,0:0:0:0:
166,240,28029,1,8,0:0:0:0:
358,284,28829,5,2,0:0:0:0:
358,284,29629,1,10,0:0:0:0:
284,260,29829,1,2,0:0:0:0:
284,182,30029,1,2,0:0:0:0:
358,158,30229,1,2,0:0:0:0:
403,221,30429,5,2,0:0:0:0:
403,221,31229,1,8,0:0:0:0:
339,77,32029,5,2,0:0:0:0:
339,77,32829,1,8,0:0:0:0:
141,109,33629,5,2,0:0:0:0:
141,109,34429,1,8,0:0:0:0:
173,307,35229,5,2,0:0:0:0:
173,307,36029,1,8,0:0:0:0:
278,332,36829,5,2,0:0:0:0:
278,332,37629,1,8,0:0:0:0:
440,213,38429,5,2,0:0:0:0:
440,213,39229,5,2,0:0:0:0:
440,213,39329,2,0,L|414:142,1,57.5
334,16,39529,1,2,0:0:0:0:
334,16,39629,2,0,L|355:73,1,57.5
270,152,39829,6,0,L|247:169,1,28.75,2|2,0:0|0:0,0:0:0:0:
288,170,39929,2,0,L|265:187,1,28.75,2|2,0:0|0:0,0:0:0:0:
313,200,40029,6,0,P|363:99|346:57,1,149.499993156433,2|0,0:0|0:0,0:0:0:0:
219,237,40429,2,0,P|282:331|327:337,1,149.499993156433
233,137,40829,2,0,P|120:144|92:180,1,149.499993156433,8|0,0:0|0:0,0:0:0:0:
100,165,41229,1,0,0:0:0:0:
100,165,41429,1,0,0:0:0:0:
100,165,41629,6,0,P|161:124|233:137,1,149.499993156433,2|0,0:0|0:0,0:0:0:0:
310,337,42029,2,0,P|244:305|219:237,1,149.499993156433
354,70,42429,2,0,P|359:143|313:200,1,149.499993156433,8|0,0:0|0:0,0:0:0:0:
232,136,42829,1,0,0:0:0:0:
198,124,42929,1,0,0:0:0:0:
161,124,43029,1,0,0:0:0:0:
126,139,43129,1,0,0:0:0:0:
102,166,43229,6,0,P|166:119|151:23,1,149.499993156433,2|0,0:0|0:0,0:0:0:0:
20,178,43629,2,0,P|67:242|161:222,1,149.499993156433
281,121,44029,2,0,P|234:57|138:72,1,149.499993156433,8|0,0:0|0:0,0:0:0:0:
293,203,44429,2,0,P|357:156|335:62,1,149.499993156433
168,53,44829,6,0,L|201:385,1,298.999986312867,2|0,0:0|0:0,0:0:0:0:
91,197,45429,1,0,0:0:0:0:
91,197,45629,2,0,L|107:363,1,149.499993156433,8|0,0:0|0:0,0:0:0:0:
251,224,46029,1,0,0:0:0:0:
91,197,46229,1,0,0:0:0:0:
251,224,46429,6,0,P|347:140|236:76,2,298.999986312867,2|0|8,0:0|0:0|0:0,0:0:0:0:
270,147,47429,1,0,0:0:0:0:
424,172,47629,2,0,P|396:241|338:285,1,149.499993156433
194,373,48029,6,0,B|199:317|163:304|163:304|205:288|220:236|220:236|114:234|88:183|84:128|91:72|161:16|245:42|289:104|265:182,1,597.999972625734,2|12,0:0|0:0,0:0:0:0:
270,147,49629,6,0,P|342:62|224:95,1,298.999986312867,2|0,0:0|0:0,0:0:0:0:
302,225,50229,1,0,0:0:0:0:
302,225,50429,6,0,P|405:168|385:-10,1,298.999986312867,8|0,0:0|0:0,0:0:0:0:
306,314,51029,1,0,0:0:0:0:
306,314,51229,6,0,P|450:240|511:122,1,298.999986312867,2|0,0:0|0:0,0:0:0:0:
270,147,52029,1,8,0:0:0:0:
510,122,52829,6,0,P|433:104|412:14,2,172.5,2|2|2,0:0|0:0|0:0,0:0:0:0:
510,122,53629,2,0,P|432:117|396:181,1,115,8|0,0:0|0:0,0:0:0:0:
408,140,54229,1,0,0:0:0:0:
281,254,54429,5,2,0:0:0:0:
330,280,54629,1,0,0:0:0:0:
383,262,54829,1,0,0:0:0:0:
383,262,55229,5,8,0:0:0:0:
330,280,55329,1,0,0:0:0:0:
281,254,55429,1,0,0:0:0:0:
281,254,55629,2,0,P|252:331|284:397,1,115,4|0,0:0|0:0,0:0:0:0:
281,254,56029,6,0,P|252:177|284:111,1,115,2|2,0:0|0:0,0:0:0:0:
228,112,56329,1,2,0:0:0:0:
228,112,56429,2,0,P|232:55|205:5,1,115,0|2,0:0|0:0,0:0:0:0:
134,73,56829,5,8,0:0:0:0:
302,36,57029,1,8,0:0:0:0:
60,29,57229,1,0,0:0:0:0:
60,29,57429,1,0,0:0:0:0:
60,29,57629,6,0,L|63:176,1,115,2|0,0:0|0:0,0:0:0:0:
157,181,58029,1,8,0:0:0:0:
131,219,58129,1,0,0:0:0:0:
91,241,58229,1,0,0:0:0:0:
46,244,58329,1,0,0:0:0:0:
4,227,58429,5,8,0:0:0:0:
164,136,58629,1,8,0:0:0:0:
162,320,58829,2,0,P|86:348|22:344,1,115,6|0,0:0|0:0,0:0:0:0:
164,136,59229,6,0,P|250:153|303:256,2,172.5,2|2|2,0:0|0:0|0:0,0:0:0:0:
164,136,60029,2,0,P|225:167|287:140,1,115,8|0,0:0|0:0,0:0:0:0:
267,157,60629,1,0,0:0:0:0:
430,109,60829,5,2,0:0:0:0:
404,58,61029,1,0,0:0:0:0:
352,37,61229,1,0,0:0:0:0:
352,37,61629,5,8,0:0:0:0:
404,58,61729,1,0,0:0:0:0:
430,109,61829,1,0,0:0:0:0:
512,83,62029,2,0,P|507:153|473:216,1,115,4|0,0:0|0:0,0:0:0:0:
371,302,62429,6,0,P|366:232|332:169,1,115,2|0,0:0|0:0,0:0:0:0:
302,185,62729,1,2,0:0:0:0:
302,185,62829,2,0,P|281:131|279:74,1,115,0|2,0:0|0:0,0:0:0:0:
372,101,63229,5,8,0:0:0:0:
123,138,63429,1,8,0:0:0:0:
201,45,63629,1,0,0:0:0:0:
196,225,63829,1,0,0:0:0:0:
110,55,64029,5,2,0:0:0:0:
110,55,64429,5,8,0:0:0:0:
121,81,64529,1,0,0:0:0:0:
126,109,64629,1,2,0:0:0:0:
123,138,64729,1,0,0:0:0:0:
114,165,64829,5,8,0:0:0:0:
105,221,64929,1,0,0:0:0:0:
128,273,65029,1,8,0:0:0:0:
176,304,65129,1,0,0:0:0:0:
232,306,65229,5,6,0:0:0:0:
188,251,65329,1,0,0:0:0:0:
119,236,65429,1,0,0:0:0:0:
56,267,65529,1,0,0:0:0:0:
27,331,65629,6,0,P|75:268|37:159,2,172.5,2|2|2,0:0|0:0|0:0,0:0:0:0:
27,331,66429,2,0,P|89:320|132:374,1,115,8|0,0:0|0:0,0:0:0:0:
125,351,67029,1,0,0:0:0:0:
296,280,67229,5,2,0:0:0:0:
266,327,67429,1,0,0:0:0:0:
211,335,67629,1,0,0:0:0:0:
211,335,68029,5,8,0:0:0:0:
266,327,68129,1,0,0:0:0:0:
296,280,68229,1,0,0:0:0:0:
403,341,68429,2,0,P|417:286|393:235,1,115,4|0,0:0|0:0,0:0:0:0:
286,55,68829,6,0,P|267:108|218:136,1,115,2|2,0:0|0:0,0:0:0:0:
173,130,69129,1,2,0:0:0:0:
173,130,69229,2,0,P|124:158|105:211,1,115,0|2,0:0|0:0,0:0:0:0:
206,224,69629,5,8,0:0:0:0:
157,22,69829,1,8,0:0:0:0:
353,135,70029,1,0,0:0:0:0:
353,135,70229,1,0,0:0:0:0:
353,135,70429,6,0,P|304:107|285:54,1,115,2|0,0:0|0:0,0:0:0:0:
453,109,70829,1,8,0:0:0:0:
452,166,70929,1,0,0:0:0:0:
421,213,71029,1,0,0:0:0:0:
370,237,71129,1,0,0:0:0:0:
314,230,71229,5,8,0:0:0:0:
353,135,71429,1,8,0:0:0:0:
307,342,71629,2,0,P|261:308|234:257,1,115,6|0,0:0|0:0,0:0:0:0:
114,272,72029,6,0,P|119:188|72:118,2,172.5,2|2|2,0:0|0:0|0:0,0:0:0:0:
114,272,72829,2,0,P|147:218|212:200,1,115,8|0,0:0|0:0,0:0:0:0:
193,200,73429,1,0,0:0:0:0:
335,227,73629,5,2,0:0:0:0:
307,276,73829,1,0,0:0:0:0:
255,299,74029,1,0,0:0:0:0:
255,299,74429,5,8,0:0:0:0:
306,276,74529,1,0,0:0:0:0:
334,226,74629,1,0,0:0:0:0:
431,289,74829,2,0,P|429:224|406:180,1,115,4|0,0:0|0:0,0:0:0:0:
236,220,75229,6,0,P|211:169|212:112,1,115,2|2,0:0|0:0,0:0:0:0:
382,73,75529,1,2,0:0:0:0:
382,73,75629,2,0,P|407:124|407:182,1,115,0|2,0:0|0:0,0:0:0:0:
309,147,76029,5,8,0:0:0:0:
456,31,76229,1,8,0:0:0:0:
456,31,76629,1,0,0:0:0:0:
456,31,76829,6,0,P|450:97|480:150,1,115,2|0,0:0|0:0,0:0:0:0:
430,212,77229,5,8,0:0:0:0:
437,239,77329,1,0,0:0:0:0:
437,268,77429,1,0,0:0:0:0:
430,295,77529,1,0,0:0:0:0:
415,320,77629,2,0,P|454:273|523:289,1,115,8|8,0:0|0:0,0:0:0:0:
324,365,78029,6,0,P|379:364|414:320,1,115,4|4,0:0|0:0,0:0:0:0:
414,319,80029,5,2,0:0:0:0:
373,254,81629,5,2,0:0:0:0:
331,188,83229,5,2,0:0:0:0:
414,319,84029,1,2,0:0:0:0:
289,122,84829,5,2,0:0:0:0:
247,56,86429,5,2,0:0:0:0:
211,126,88029,5,2,0:0:0:0:
211,126,89629,5,2,0:0:0:0:
175,196,91229,5,2,0:0:0:0:
175,196,92029,1,8,0:0:0:0:
139,266,92829,5,2,0:0:0:0:
139,266,93629,1,8,0:0:0:0:
103,336,94429,5,2,0:0:0:0:
103,336,95229,1,8,0:0:0:0:
181,332,96029,5,2,0:0:0:0:
181,332,96829,1,8,0:0:0:0:
258,327,97629,5,2,0:0:0:0:
258,327,98429,1,8,0:0:0:0:
335,322,99229,5,2,0:0:0:0:
335,322,100029,1,8,0:0:0:0:
293,258,100829,5,2,0:0:0:0:
216,263,101629,1,8,0:0:0:0:
251,194,102429,5,2,0:0:0:0:
258,327,103229,1,10,0:0:0:0:
247,56,104029,5,6,0:0:0:0:
256,192,113629,12,0,116829,0:0:0:0:
256,192,119229,5,8,0:0:0:0:
256,192,120029,6,0,B|291:143|270:74|270:74|380:173|204:259|304:338,1,391.000007457733,6|0,0:0|0:0,0:0:0:0:
429,17,120829,1,8,0:0:0:0:
429,17,121629,6,0,B|352:96|448:192|448:192|544:288|415:413,1,391.000007457733,2|0,0:0|0:0,0:0:0:0:
374,283,122429,2,0,B|315:237|252:318|252:318|229:258|229:258|175:341|53:301,1,391.000007457733,8|0,0:0|0:0,0:0:0:0:
271,117,123229,6,0,P|211:44|117:42,1,195.500003728867,2|0,0:0|0:0,0:0:0:0:
297,227,123628,2,0,P|391:211|441:131,1,195.500003728867
187,196,124029,2,0,P|152:283|196:366,1,195.500003728867,8|0,0:0|0:0,0:0:0:0:
197,367,124429,1,0,0:0:0:0:
197,367,124629,1,0,0:0:0:0:
197,367,124829,6,0,P|152:283|187:196,1,195.500003728867,2|0,0:0|0:0,0:0:0:0:
441,130,125230,2,0,P|390:211|297:227,1,195.500003728867
116,42,125630,2,0,P|210:43|271:117,1,195.500003728867,8|0,0:0|0:0,0:0:0:0:
139,329,126029,2,0,L|169:119,1,195.500003728867
339,189,126429,6,0,P|424:82|276:139,1,391.000007457733,2|0,0:0|0:0,0:0:0:0:
316,257,127229,2,0,P|422:245|452:1,1,391.000007457733,8|0,0:0|0:0,0:0:0:0:
0,323,128029,6,0,B|-62:179|73:39|73:39|218:174|96:334|96:334|50:257|67:204,1,782.000014915467,2|8,0:0|0:0,0:0:0:0:
67,204,129629,6,0,P|172:254|212:349,1,195.500003728867,2|0,0:0|0:0,0:0:0:0:
390,320,130029,2,0,P|285:270|245:175,1,195.500003728867
109,86,130429,2,0,P|213:135|253:230,1,195.500003728867,8|0,0:0|0:0,0:0:0:0:
432,201,130829,1,0,0:0:0:0:
291,84,131029,1,0,0:0:0:0:
291,84,131229,6,0,L|172:268,1,195.500003728867,2|0,0:0|0:0,0:0:0:0:
138,181,131629,2,0,L|232:37,1,172.500006580353
350,131,132029,2,0,L|243:295,1,149.499993156433,8|0,0:0|0:0,0:0:0:0:
79,132,132429,6,0,L|158:9,1,115
141,35,132829,5,4,0:0:0:0:
141,35,133629,1,8,0:0:0:0:
175,169,134429,6,0,L|171:203,2,26.833332514445,2|0|0,0:0|0:0|0:0,0:0:0:0:
175,169,135229,5,10,0:0:0:0:
250,164,135429,1,2,0:0:0:0:
319,201,135629,1,2,0:0:0:0:
395,203,135829,1,2,0:0:0:0:
463,166,136029,5,2,0:0:0:0:
463,166,136829,1,8,0:0:0:0:
463,166,137629,6,0,L|464:138,2,26.833332514445,2|0|0,0:0|0:0|0:0,0:0:0:0:
463,166,138429,1,8,0:0:0:0:
133,205,139229,5,2,0:0:0:0:
133,205,140029,2,0,L|139:286,1,80.499997543335,8|0,0:0|0:0,0:0:0:0:
218,182,140429,2,0,L|212:101,1,80.499997543335,2|0,0:0|0:0,0:0:0:0:
212,101,140829,5,2,0:0:0:0:
212,101,141629,1,8,0:0:0:0:
212,101,142429,6,0,P|225:143|86:238,1,241.499992630005,2|0,0:0|0:0,0:0:0:0:
92,241,143229,6,0,P|33:182|42:97,1,172.5,8|2,0:0|0:0,0:0:0:0:
40,98,144029,5,6,0:0:0:0:
