osu file format v14

[General]
AudioFilename: audio.mp3
AudioLeadIn: 0
PreviewTime: 1129
Countdown: 0
SampleSet: Soft
StackLeniency: 0.3
Mode: 0
LetterboxInBreaks: 0
WidescreenStoryboard: 0

[Editor]
Bookmarks: 55229,78429,125229
DistanceSpacing: 0.8
BeatDivisor: 2
GridSize: 4
TimelineZoom: 0.9000001

[Metadata]
Title:Bishounen (Kaivaan Version)
TitleUnicode:Bishounen (Kaivaan Version)
Artist:Hikaru Station
ArtistUnicode:Hikaru Station
Creator:FoxyGrandpa
Version:Easy
Source:
Tags:Crowie Mir osuskrub Foxy Remix Kai Future Beats
BeatmapID:1404330
BeatmapSetID:663309

[Difficulty]
HPDrainRate:2
CircleSize:2
OverallDifficulty:2
ApproachRate:4
SliderMultiplier:0.999999999999999
SliderTickRate:1

[Events]
//Background and Video events
0,0,"heyprettyboy.jpg",0,0
//Break Periods
2,27429,38429
2,78629,89909
2,104229,112309
//Storyboard Layer 0 (Background)
//Storyboard Layer 1 (Fail)
//Storyboard Layer 2 (Pass)
//Storyboard Layer 3 (Foreground)
//Storyboard Sound Samples

[TimingPoints]
829,400,4,2,1,50,1,0
1629,400,4,2,2,50,1,0
26829,-100,4,2,2,50,0,0
27229,-100,4,2,3,50,0,0
39229,-100,4,2,4,60,0,0
40029,-100,4,2,5,60,0,1
48829,-100,4,2,3,60,0,0
49629,-100,4,2,5,60,0,1
52029,-100,4,2,5,60,0,0
52829,-100,4,2,2,50,0,0
78029,-100,4,2,2,60,0,0
78429,-100,4,2,3,60,0,0
116829,-100,4,2,3,5,0,0
119229,-100,4,2,3,50,0,0
120029,-100,4,2,3,60,0,1
120129,-100,4,2,5,60,0,1
128829,-100,4,2,3,60,0,0
129629,-100,4,2,5,60,0,1
131629,-100,4,2,5,60,0,1
132029,-100,4,2,5,60,0,1
132429,-100,4,2,5,60,0,1
132829,-100,4,2,7,40,0,0
132929,-100,4,2,3,40,0,0
143229,-100,4,2,3,40,0,0

[Colours]
Combo1 : 255,128,192
Combo2 : 0,87,174
Combo3 : 255,60,255
Combo4 : 255,128,128
Combo5 : 255,128,0
Combo6 : 255,51,51

[HitObjects]
82,328,1629,6,0,P|51:263|127:133,1,200,4|8,0:0|0:0,0:0:0:0:
268,51,3229,2,0,P|299:116|223:246,1,200,4|8,0:0|0:0,0:0:0:0:
82,328,4829,6,0,P|57:286|57:209,1,99.9999999999999,4|0,0:0|0:0,0:0:0:0:
146,204,5629,2,0,P|171:162|171:85,1,99.9999999999999,12|0,0:0|0:0,0:0:0:0:
134,21,6429,2,0,L|234:24,1,99.9999999999999,4|4,0:0|0:0,0:0:0:0:
323,56,7229,1,12,0:0:0:0:
421,35,7629,1,0,0:0:0:0:
399,132,8029,6,0,P|408:225|330:319,1,200,4|8,0:0|0:0,0:0:0:0:
160,374,9629,2,0,P|144:327|155:279,1,99.9999999999999,4|4,0:0|0:0,0:0:0:0:
248,318,10429,1,12,0:0:0:0:
171,135,11229,6,0,P|253:128|281:111,1,99.9999999999999,4|0,0:0|0:0,0:0:0:0:
213,36,12029,2,0,L|97:42,1,99.9999999999999,12|0,0:0|0:0,0:0:0:0:
73,126,12829,2,0,P|61:207|71:239,2,99.9999999999999,4|4|8,0:0|0:0|0:0,0:0:0:0:
153,186,14029,1,2,0:0:0:0:
225,255,14429,6,0,B|267:212|252:159|252:159|229:108|277:72,1,200,2|8,0:0|0:0,0:0:0:0:
467,24,16029,2,0,P|485:86|470:139,1,99.9999999999999,2|0,0:0|0:0,0:0:0:0:
401,184,16829,1,8,0:0:0:0:
170,133,17629,6,0,P|188:85|178:24,2,99.9999999999999,2|0|8,0:0|0:0|0:0,0:0:0:0:
76,170,18829,1,0,0:0:0:0:
157,229,19229,2,0,P|139:277|149:338,2,99.9999999999999,2|8|8,0:0|0:0|0:0,0:0:0:0:
251,192,20429,1,6,0:0:0:0:
308,109,20829,6,0,P|375:114|443:223,1,200,2|8,0:0|0:0,0:0:0:0:
288,343,22429,2,0,P|247:269|225:250,1,99.9999999999999,2|0,0:0|0:0,0:0:0:0:
147,213,23229,1,8,0:0:0:0:
250,42,24029,6,0,P|171:40|96:139,2,200,2|8|2,0:0|0:0|0:0,0:0:0:0:
334,96,26029,5,8,0:0:0:0:
334,196,26429,1,10,0:0:0:0:
270,273,26829,1,4,0:0:0:0:
170,278,27229,5,4,0:0:0:0:
117,54,40029,6,0,P|198:55|279:162,1,200,2|8,0:0|0:0,0:0:0:0:
371,314,41629,2,0,L|383:193,1,99.9999999999999,2|0,0:0|0:0,0:0:0:0:
284,238,42429,2,0,L|275:139,1,99.9999999999999,8|0,0:0|0:0,0:0:0:0:
204,67,43229,6,0,P|130:73|80:118,1,99.9999999999999,2|0,0:0|0:0,0:0:0:0:
46,163,44029,2,0,P|103:185|147:183,1,99.9999999999999,8|0,0:0|0:0,0:0:0:0:
234,149,44829,1,2,0:0:0:0:
297,225,45229,1,0,0:0:0:0:
387,184,45629,2,0,P|459:184|496:207,1,99.9999999999999,8|0,0:0|0:0,0:0:0:0:
424,283,46429,6,0,L|448:79,1,200,2|8,0:0|0:0,0:0:0:0:
243,72,48029,2,0,L|219:276,1,200,2|12,0:0|0:0,0:0:0:0:
406,342,49629,6,0,P|334:289|350:181,1,200,2|8,0:0|0:0,0:0:0:0:
503,66,51229,1,2,0:0:0:0:
306,103,52029,1,8,0:0:0:0:
455,235,52829,6,0,P|369:268|279:220,1,200,2|8,0:0|0:0,0:0:0:0:
129,91,54429,2,0,L|252:72,1,99.9999999999999,2|0,0:0|0:0,0:0:0:0:
326,60,55229,1,8,0:0:0:0:
174,190,56029,6,0,P|192:238|182:299,2,99.9999999999999,2|0|8,0:0|0:0|0:0,0:0:0:0:
80,153,57229,1,0,0:0:0:0:
161,94,57629,2,0,P|143:46|153:-15,2,99.9999999999999,2|8|8,0:0|0:0|0:0,0:0:0:0:
255,131,58829,1,6,0:0:0:0:
326,60,59229,6,0,P|406:69|486:166,1,200,2|8,0:0|0:0,0:0:0:0:
303,242,60829,2,0,P|266:190|277:121,1,99.9999999999999,2|0,0:0|0:0,0:0:0:0:
294,60,61629,1,8,0:0:0:0:
393,233,62429,6,0,P|391:273|355:323,1,99.9999999999999,2|0,0:0|0:0,0:0:0:0:
262,351,63229,2,0,P|222:349|172:313,1,99.9999999999999,8|0,0:0|0:0,0:0:0:0:
105,242,64029,1,2,0:0:0:0:
176,177,64429,2,0,P|157:120|162:66,2,99.9999999999999,8|8|6,0:0|0:0|0:0,0:0:0:0:
250,245,65629,6,0,P|322:180|296:75,1,200,2|8,0:0|0:0,0:0:0:0:
117,151,67229,2,0,P|105:203|119:251,1,99.9999999999999,2|0,0:0|0:0,0:0:0:0:
193,312,68029,1,8,0:0:0:0:
299,142,68829,6,0,P|225:150|182:130,2,99.9999999999999,2|0|8,0:0|0:0|0:0,0:0:0:0:
253,52,70029,1,0,0:0:0:0:
352,55,70429,2,0,P|426:47|469:67,2,99.9999999999999,2|8|8,0:0|0:0|0:0,0:0:0:0:
398,145,71629,1,6,0:0:0:0:
497,135,72029,6,0,P|500:211|389:274,1,200,2|8,0:0|0:0,0:0:0:0:
222,194,73629,2,0,P|171:179|107:192,1,99.9999999999999,2|0,0:0|0:0,0:0:0:0:
164,276,74429,1,8,0:0:0:0:
360,311,75229,6,0,P|371:242|260:153,2,200,2|8|2,0:0|0:0|0:0,0:0:0:0:
273,261,77229,5,8,0:0:0:0:
181,219,77629,1,8,0:0:0:0:
181,119,78029,1,4,0:0:0:0:
268,70,78429,5,6,0:0:0:0:
286,334,91229,6,0,P|334:289|270:149,1,200,2|8,0:0|0:0,0:0:0:0:
109,153,92829,2,0,P|61:198|125:338,1,200,2|8,0:0|0:0,0:0:0:0:
219,169,94429,6,0,B|217:76|288:39|288:39|241:14,1,200,2|8,0:0|0:0,0:0:0:0:
103,155,96029,2,0,B|105:248|34:285|34:285|81:310,1,200,2|8,0:0|0:0,0:0:0:0:
270,334,97629,6,0,B|206:238|334:238|270:142,1,200,2|8,0:0|0:0,0:0:0:0:
116,26,99229,2,0,P|215:60|321:39,1,200,2|8,0:0|0:0,0:0:0:0:
403,220,100829,6,0,P|387:159|317:229,2,200,2|8|2,0:0|0:0|0:0,0:0:0:0:
212,280,103229,1,10,0:0:0:0:
194,80,104029,1,6,0:0:0:0:
256,192,113629,12,0,116829,0:0:0:0:
90,287,119229,5,8,0:0:0:0:
85,87,120029,6,0,B|131:69|171:103|171:103|175:82|175:82|220:117|269:78,1,200,6|8,0:0|0:0,0:0:0:0:
450,41,121629,2,0,B|435:110|435:110|459:157|459:157|437:238,1,200,2|8,0:0|0:0,0:0:0:0:
263,327,123229,6,0,B|287:264|233:238|233:238|270:196|225:113,1,200,2|8,0:0|0:0,0:0:0:0:
47,98,124829,2,0,B|39:196|39:196|100:277,1,200,2|8,0:0|0:0,0:0:0:0:
161,197,126029,1,0,0:0:0:0:
208,109,126429,6,0,B|302:62|302:158|406:118,1,200,2|8,0:0|0:0,0:0:0:0:
507,288,128029,2,0,B|413:241|413:337|309:297,1,200,2|8,0:0|0:0,0:0:0:0:
117,307,129629,6,0,P|131:237|110:183,1,99.9999999999999,2|0,0:0|0:0,0:0:0:0:
39,158,130429,2,0,P|32:108|46:61,1,99.9999999999999,8|0,0:0|0:0,0:0:0:0:
129,117,131229,2,0,P|182:108|236:119,2,99.9999999999999,2|0|8,0:0|0:0|0:0,0:0:0:0:
124,210,132429,1,0,0:0:0:0:
206,266,132829,5,4,0:0:0:0:
256,192,133229,12,2,136029,0:0:0:0:
445,128,137629,6,0,P|460:181|414:331,1,200,2|8,0:0|0:0,0:0:0:0:
235,252,139229,2,0,P|199:203|54:209,1,200,2|8,0:0|0:0,0:0:0:0:
209,339,140829,2,0,P|304:351|374:284,1,200,2|8,0:0|0:0,0:0:0:0:
268,111,142429,6,0,B|217:107|217:107|260:157|260:257,2,200,2|8|6,0:0|0:0|0:0,0:0:0:0:
