osu file format v14

[General]
AudioFilename: audio.mp3
AudioLeadIn: 0
PreviewTime: 1129
Countdown: 0
SampleSet: Soft
StackLeniency: 0.6
Mode: 0
LetterboxInBreaks: 0
WidescreenStoryboard: 0

[Editor]
Bookmarks: 14429,27229,40029,52829,78429,81629,91229,104029,116829,120029,132829
DistanceSpacing: 0.5
BeatDivisor: 4
GridSize: 32
TimelineZoom: 1.199999

[Metadata]
Title:Bishounen (Kaivaan Version)
TitleUnicode:Bishounen (Kaivaan Version)
Artist:Hikaru Station
ArtistUnicode:Hikaru Station
Creator:FoxyGrandpa
Version:Crowie's Hard
Source:
Tags:Crowie Mir osuskrub Foxy Remix Kai Future Beats
BeatmapID:1408411
BeatmapSetID:663309

[Difficulty]
HPDrainRate:4
CircleSize:4
OverallDifficulty:6
ApproachRate:6
SliderMultiplier:1.4
SliderTickRate:1

[Events]
//Background and Video events
0,0,"heyprettyboy.jpg",0,0
//Break Periods
2,78629,90179
//Storyboard Layer 0 (Background)
//Storyboard Layer 1 (Fail)
//Storyboard Layer 2 (Pass)
//Storyboard Layer 3 (Foreground)
//Storyboard Sound Samples

[TimingPoints]
829,400,4,2,1,50,1,0
1629,400,4,2,2,50,1,0
13829,-83.3333333333333,4,2,2,50,0,0
25229,-100,4,2,2,50,0,0
25929,-100,4,2,2,5,0,0
26029,-83.3333333333333,4,2,2,50,0,0
26329,-83.3333333333333,4,2,2,5,0,0
26429,-83.3333333333333,4,2,2,50,0,0
26829,-66.6666666666667,4,2,2,50,0,0
27129,-66.6666666666667,4,2,2,5,0,0
27229,-125,4,2,3,50,0,0
33629,-100,4,2,3,50,0,0
35229,-125,4,2,3,50,0,0
39229,-100,4,2,4,60,0,0
40029,-83.3333333333333,4,2,5,60,0,1
43229,-83.3333333333333,4,2,5,60,0,1
48829,-100,4,2,3,60,0,0
49629,-83.3333333333333,4,2,5,60,0,1
51029,-100,4,2,5,60,0,1
51229,-83.3333333333333,4,2,5,60,0,1
52029,-83.3333333333333,4,2,5,60,0,0
52829,-83.3333333333333,4,2,2,50,0,0
76829,-100,4,2,2,50,0,0
77129,-100,4,2,2,5,0,0
77229,-83.3333333333333,4,2,2,50,0,0
77529,-83.3333333333333,4,2,2,5,0,0
77629,-83.3333333333333,4,2,2,50,0,0
78029,-66.6666666666667,4,2,2,60,0,0
78329,-66.6666666666667,4,2,2,5,0,0
78429,-66.6666666666667,4,2,3,60,0,0
91229,-166.666666666667,4,2,3,60,0,0
104029,-125,4,2,3,60,0,0
116829,-125,4,2,3,5,0,0
119229,-125,4,2,3,50,0,0
120029,-83.3333333333333,4,2,3,60,0,1
120129,-83.3333333333333,4,2,5,60,0,1
121229,-125,4,2,5,60,0,1
121629,-83.3333333333333,4,2,5,60,0,1
127629,-125,4,2,5,60,0,1
128029,-83.3333333333333,4,2,5,60,0,1
128829,-100,4,2,3,60,0,0
129629,-83.3333333333333,4,2,5,60,0,1
132429,-66.6666666666667,4,2,5,60,0,1
132829,-125,4,2,7,40,0,0
132929,-125,4,2,3,40,0,0
142429,-166.666666666667,4,2,3,40,0,0
144029,-222.222222222222,4,2,3,40,0,0

[Colours]
Combo1 : 255,128,192
Combo2 : 0,87,174
Combo3 : 255,60,255
Combo4 : 255,128,128
Combo5 : 255,128,0
Combo6 : 255,51,51

[HitObjects]
266,90,829,6,0,L|273:134,3,35,0|0|0|0,0:0|0:0|0:0|0:0,0:0:0:0:
292,153,1229,2,0,P|254:188|266:239,1,105
285,240,1629,5,4,0:0:0:0:
447,202,2029,2,0,L|437:285,1,70,0|4,0:0|0:0,0:0:0:0:
452,354,2429,1,8,0:0:0:0:
372,327,2629,2,0,P|291:326|229:353,1,140,0|0,0:0|0:0,0:0:0:0:
159,314,3229,5,4,0:0:0:0:
144,231,3429,1,4,0:0:0:0:
131,147,3629,2,0,L|143:99,2,35,4|0|0,0:0|0:0|0:0,0:0:0:0:
47,161,4029,1,8,0:0:0:0:
40,162,4129,1,0,0:0:0:0:
33,163,4229,1,0,0:0:0:0:
277,177,4629,1,0,0:0:0:0:
356,148,4829,6,0,L|369:56,1,70,4|0,0:0|0:0,0:0:0:0:
343,231,5229,2,0,L|333:300,1,70,0|4,0:0|0:0,0:0:0:0:
422,201,5629,2,0,P|464:206|497:246,1,70,12|0,0:0|0:0,0:0:0:0:
430,287,6029,1,0,0:0:0:0:
430,287,6229,1,0,0:0:0:0:
456,366,6429,6,0,B|417:371|417:371|359:349|359:349|321:354,2,140,4|4|12,0:0|0:0|0:0,0:0:0:0:
288,380,7629,2,0,P|270:337|212:365,1,105,0|0,0:0|0:0,0:0:0:0:
201,351,8029,5,4,0:0:0:0:
36,319,8429,2,0,P|33:358|56:393,1,70,0|4,0:0|0:0,0:0:0:0:
119,347,8829,1,8,0:0:0:0:
201,351,9029,2,0,P|193:286|216:203,1,140
261,146,9629,5,4,0:0:0:0:
344,157,9829,1,4,0:0:0:0:
427,168,10029,2,0,L|474:162,2,35,4|0|0,0:0|0:0|0:0,0:0:0:0:
376,234,10429,1,12,0:0:0:0:
375,241,10529,1,0,0:0:0:0:
374,248,10629,1,0,0:0:0:0:
373,51,11029,1,0,0:0:0:0:
299,6,11229,6,0,L|219:16,1,70,4|0,0:0|0:0,0:0:0:0:
76,34,11629,2,0,L|145:25,1,70,0|4,0:0|0:0,0:0:0:0:
2,72,12029,2,0,P|-4:106|4:140,1,70,12|0,0:0|0:0,0:0:0:0:
85,120,12429,1,0,0:0:0:0:
85,120,12629,1,0,0:0:0:0:
133,188,12829,6,0,B|171:182|171:182|229:204|229:204|267:199,2,140,4|4|12,0:0|0:0|0:0,0:0:0:0:
126,190,13729,1,0,0:0:0:0:
117,191,13829,1,2,0:0:0:0:
33,187,14029,2,0,P|15:224|31:261,1,83.9999974365235,2|0,0:0|0:0,0:0:0:0:
139,351,14429,6,0,L|7:333,2,125.999996154785,6|2|2,0:0|0:0|0:0,0:0:0:0:
267,302,15229,1,8,0:0:0:0:
330,366,15429,2,0,P|351:313|459:319,1,167.999994873047,0|0,0:0|0:0,0:0:0:0:
511,251,16029,6,0,P|478:222|427:206,1,83.9999974365235,2|0,0:0|0:0,0:0:0:0:
397,135,16429,1,0,0:0:0:0:
259,233,16829,1,8,0:0:0:0:
259,233,16929,1,0,0:0:0:0:
259,233,17029,1,0,0:0:0:0:
167,235,17229,6,0,P|128:219|96:191,1,83.9999974365235,0|0,0:0|0:0,0:0:0:0:
12,190,17629,2,0,P|14:129|55:45,2,125.999996154785,2|2|2,0:0|0:0|0:0,0:0:0:0:
40,269,18429,1,8,0:0:0:0:
40,269,18629,1,8,0:0:0:0:
112,226,18829,2,0,L|206:215,1,83.9999974365235,0|0,0:0|0:0,0:0:0:0:
252,154,19229,6,0,P|323:198|375:264,2,167.999994873047,2|8|8,0:0|0:0|0:0,0:0:0:0:
173,141,20229,1,8,0:0:0:0:
224,74,20429,2,0,P|279:44|342:35,1,125.999996154785,6|0,0:0|0:0,0:0:0:0:
358,51,20829,6,0,P|424:71|498:61,2,125.999996154785,2|2|2,0:0|0:0|0:0,0:0:0:0:
240,0,21629,1,8,0:0:0:0:
175,53,21829,2,0,P|111:40|60:135,1,167.999994873047,0|0,0:0|0:0,0:0:0:0:
1,178,22429,6,0,P|34:219|40:255,1,83.9999974365235,2|0,0:0|0:0,0:0:0:0:
26,331,22829,1,0,0:0:0:0:
212,360,23229,1,8,0:0:0:0:
212,360,23329,1,0,0:0:0:0:
212,360,23429,1,0,0:0:0:0:
273,303,23629,2,0,P|283:262|312:232,1,83.9999974365235
388,267,24029,6,0,P|456:267|536:311,2,125.999996154785,2|2|2,0:0|0:0|0:0,0:0:0:0:
379,183,24829,1,8,0:0:0:0:
379,183,25029,1,8,0:0:0:0:
367,99,25229,2,0,L|382:40,2,35,0|0|0,0:0|0:0|0:0,0:0:0:0:
301,152,25629,6,0,P|265:184|266:228,1,70,2|0,0:0|0:0,0:0:0:0:
230,99,26029,2,0,L|85:117,1,125.999996154785,8|0,0:0|0:0,0:0:0:0:
87,124,26429,2,0,P|71:81|101:26,1,83.9999974365235,10|10,0:0|0:0,0:0:0:0:
173,4,26829,2,0,L|331:16,1,157.500006008148,4|0,0:0|0:0,0:0:0:0:
329,16,27229,5,4,0:0:0:0:
419,82,28029,1,8,0:0:0:0:
379,183,28829,5,2,0:0:0:0:
479,194,29629,2,0,P|458:223|430:238,1,56,10|2,0:0|0:0,0:0:0:0:
406,297,30029,2,0,P|370:293|343:276,1,56,2|2,0:0|0:0,0:0:0:0:
260,289,30429,5,2,0:0:0:0:
223,183,31229,1,8,0:0:0:0:
124,235,32029,5,2,0:0:0:0:
36,133,32829,1,8,0:0:0:0:
150,158,33229,2,0,P|197:153|214:103,1,84
232,121,33629,6,0,L|218:17,2,105,2|0|0,0:0|0:0|0:0,0:0:0:0:
329,161,34429,2,0,B|314:261|314:261|321:246|354:220,1,140,8|0,0:0|0:0,0:0:0:0:
492,88,35229,6,0,P|465:41|435:139,1,224,2|8,0:0|0:0,0:0:0:0:
494,271,36629,1,0,0:0:0:0:
511,352,36829,5,2,0:0:0:0:
511,352,37229,1,0,0:0:0:0:
410,302,37629,5,8,0:0:0:0:
410,302,38029,1,0,0:0:0:0:
298,304,38429,5,2,0:0:0:0:
298,304,38629,2,0,P|251:303|287:274,1,112
125,169,39229,6,0,L|179:178,2,35,2|0|0,0:0|0:0|0:0,0:0:0:0:
94,186,39529,2,0,B|113:148|113:148|85:66,1,105,2|2,0:0|0:0,0:0:0:0:
120,56,39929,1,2,0:0:0:0:
120,56,40029,6,0,L|258:73,1,125.999996154785,2|0,0:0|0:0,0:0:0:0:
257,96,40429,2,0,P|313:87|370:14,1,125.999996154785,0|0,0:0|0:0,0:0:0:0:
397,61,40829,1,8,0:0:0:0:
397,61,41229,2,0,P|421:119|456:131,1,83.9999974365235
507,221,41629,6,0,L|369:234,1,125.999996154785,2|0,0:0|0:0,0:0:0:0:
361,249,42029,2,0,P|331:202|272:233,1,125.999996154785
270,249,42429,2,0,P|251:282|183:270,1,83.9999974365235,8|0,0:0|0:0,0:0:0:0:
127,211,42829,2,0,P|161:189|200:202,1,83.9999974365235
122,295,43229,5,2,0:0:0:0:
51,248,43429,1,0,0:0:0:0:
34,164,43629,1,0,0:0:0:0:
81,92,43829,1,0,0:0:0:0:
165,74,44029,2,0,L|250:83,1,83.9999974365235,8|0,0:0|0:0,0:0:0:0:
311,139,44429,2,0,P|320:181|302:224,1,83.9999974365235,0|0,0:0|0:0,0:0:0:0:
146,219,44829,6,0,P|181:154|215:185,1,125.999996154785,2|0,0:0|0:0,0:0:0:0:
228,176,45229,2,0,L|216:306,1,125.999996154785,0|0,0:0|0:0,0:0:0:0:
222,323,45629,1,8,0:0:0:0:
383,275,46029,1,0,0:0:0:0:
383,275,46229,1,0,0:0:0:0:
473,333,46429,6,0,P|493:275|450:218,2,125.999996154785,2|0|0,0:0|0:0|0:0,0:0:0:0:
403,381,47229,2,0,L|232:363,1,167.999994873047,8|0,0:0|0:0,0:0:0:0:
231,363,47729,1,0,0:0:0:0:
226,362,47829,1,0,0:0:0:0:
136,381,48029,6,0,B|115:350|128:293|128:293|103:269|103:269|113:239|103:176|103:176|140:239|187:238|210:208,1,335.999989746094,2|12,0:0|0:0,0:0:0:0:
247,116,49429,5,0,0:0:0:0:
247,116,49629,2,0,P|257:57|166:46,1,167.999994873047,2|0,0:0|0:0,0:0:0:0:
0,94,50229,5,0,0:0:0:0:
0,94,50429,2,0,L|177:64,1,167.999994873047,8|0,0:0|0:0,0:0:0:0:
247,116,51029,5,0,0:0:0:0:
247,116,51229,2,0,B|253:161|220:191|220:191|187:222|194:268,1,167.999994873047,2|0,0:0|0:0,0:0:0:0:
193,267,51729,1,0,0:0:0:0:
193,267,51829,1,0,0:0:0:0:
265,324,52029,5,8,0:0:0:0:
464,309,52829,6,0,L|335:291,2,125.999996154785,2|2|2,0:0|0:0|0:0,0:0:0:0:
384,219,53629,1,8,0:0:0:0:
463,191,53829,2,0,P|488:145|395:69,1,167.999994873047,0|0,0:0|0:0,0:0:0:0:
367,2,54429,6,0,L|264:26,1,83.9999974365235,2|0,0:0|0:0,0:0:0:0:
238,91,54829,2,0,P|157:82|116:12,1,167.999994873047,0|8,0:0|0:0,0:0:0:0:
117,9,55329,1,0,0:0:0:0:
118,5,55429,1,0,0:0:0:0:
34,1,55629,2,0,P|42:52|31:99,1,83.9999974365235,4|0,0:0|0:0,0:0:0:0:
1,159,56029,6,0,P|56:162|146:209,2,125.999996154785,2|2|2,0:0|0:0|0:0,0:0:0:0:
30,237,56829,1,8,0:0:0:0:
30,237,57029,1,8,0:0:0:0:
106,272,57229,2,0,P|126:309|129:359,1,83.9999974365235,0|0,0:0|0:0,0:0:0:0:
207,315,57629,6,0,B|319:326|319:326|375:300,2,167.999994873047,2|8|8,0:0|0:0|0:0,0:0:0:0:
233,234,58629,1,8,0:0:0:0:
154,205,58829,2,0,P|147:147|203:135,1,125.999996154785,6|0,0:0|0:0,0:0:0:0:
223,151,59229,6,0,L|348:139,2,125.999996154785,2|2|2,0:0|0:0|0:0,0:0:0:0:
333,222,60029,1,8,0:0:0:0:
411,195,60229,2,0,P|472:216|465:330,1,167.999994873047,0|0,0:0|0:0,0:0:0:0:
421,368,60829,6,0,P|371:351|321:358,1,83.9999974365235,2|0,0:0|0:0,0:0:0:0:
257,369,61229,2,0,L|233:194,1,167.999994873047,0|8,0:0|0:0,0:0:0:0:
235,198,61729,1,0,0:0:0:0:
236,193,61829,1,0,0:0:0:0:
165,243,62029,2,0,P|136:245|88:213,1,83.9999974365235,4|0,0:0|0:0,0:0:0:0:
156,165,62429,6,0,L|174:31,2,125.999996154785,2|2|2,0:0|0:0|0:0,0:0:0:0:
86,117,63229,1,8,0:0:0:0:
86,117,63429,1,8,0:0:0:0:
243,88,63629,2,0,L|341:97,1,83.9999974365235,0|0,0:0|0:0,0:0:0:0:
350,176,64029,6,0,P|424:136|508:148,2,167.999994873047,2|8|8,0:0|0:0|0:0,0:0:0:0:
313,252,65029,1,8,0:0:0:0:
321,335,65229,2,0,L|193:346,1,125.999996154785,6|0,0:0|0:0,0:0:0:0:
175,333,65629,6,0,P|198:284|144:234,2,125.999996154785,2|2|2,0:0|0:0|0:0,0:0:0:0:
77,235,66429,1,8,0:0:0:0:
18,289,66629,2,0,L|43:104,1,167.999994873047,0|0,0:0|0:0,0:0:0:0:
124,130,67229,6,0,P|157:103|209:107,1,83.9999974365235,2|0,0:0|0:0,0:0:0:0:
279,83,67629,1,0,0:0:0:0:
307,248,68029,1,8,0:0:0:0:
307,248,68129,1,0,0:0:0:0:
307,248,68229,1,0,0:0:0:0:
371,193,68429,2,0,P|404:220|456:216,1,83.9999974365235,4|0,0:0|0:0,0:0:0:0:
307,248,68829,6,0,P|267:263|244:310,1,83.9999974365235,2|2,0:0|0:0,0:0:0:0:
233,314,69129,2,0,L|130:296,1,83.9999974365235,2|0,0:0|0:0,0:0:0:0:
131,307,69429,1,2,0:0:0:0:
52,336,69629,1,8,0:0:0:0:
52,336,69829,1,8,0:0:0:0:
66,253,70029,2,0,P|72:210|43:167,1,83.9999974365235,0|0,0:0|0:0,0:0:0:0:
113,116,70429,6,0,B|223:135|223:135|286:110,2,167.999994873047,2|8|8,0:0|0:0|0:0,0:0:0:0:
31,96,71429,1,8,0:0:0:0:
89,36,71629,2,0,P|121:0|171:53,1,125.999996154785,6|0,0:0|0:0,0:0:0:0:
194,26,72029,6,0,L|317:4,2,125.999996154785,2|2|2,0:0|0:0|0:0,0:0:0:0:
275,114,72829,1,8,0:0:0:0:
209,166,73029,2,0,P|191:226|287:285,1,167.999994873047,0|0,0:0|0:0,0:0:0:0:
304,361,73629,6,0,L|385:326,1,83.9999974365235,2|0,0:0|0:0,0:0:0:0:
455,366,74029,1,0,0:0:0:0:
435,191,74429,1,8,0:0:0:0:
435,191,74529,1,0,0:0:0:0:
435,191,74629,1,0,0:0:0:0:
483,122,74829,2,0,L|396:94,1,83.9999974365235,4|0,0:0|0:0,0:0:0:0:
336,51,75229,6,0,P|299:103|292:195,2,125.999996154785,2|2|2,0:0|0:0|0:0,0:0:0:0:
411,15,76029,1,8,0:0:0:0:
411,15,76229,1,8,0:0:0:0:
336,51,76429,2,0,P|297:57|236:36,1,83.9999974365235,0|4,0:0|0:0,0:0:0:0:
182,0,76829,6,0,P|174:37|175:80,1,70,2|0,0:0|0:0,0:0:0:0:
152,165,77229,2,0,P|102:122|37:148,1,125.999996154785,8|0,0:0|0:0,0:0:0:0:
61,149,77629,2,0,P|59:196|83:257,1,83.9999974365235,8|8,0:0|0:0,0:0:0:0:
65,326,78029,2,0,P|136:293|213:308,1,157.500006008148,4|0,0:0|0:0,0:0:0:0:
211,307,78429,5,4,0:0:0:0:
211,307,91229,6,0,B|253:296|293:314|293:314|333:331|376:321,1,167.999994873047,2|8,0:0|0:0,0:0:0:0:
375,321,92829,6,0,L|399:143,1,167.999994873047,2|8,0:0|0:0,0:0:0:0:
397,154,94429,6,0,P|349:101|286:166,1,167.999994873047,2|8,0:0|0:0,0:0:0:0:
285,151,96029,6,0,B|210:159|210:159|194:153|194:153|119:162,1,167.999994873047,2|8,0:0|0:0,0:0:0:0:
73,72,97229,1,0,0:0:0:0:
119,162,97629,6,0,B|152:219|143:259|120:286|85:285|69:243|104:236,1,167.999994873047,2|8,0:0|0:0,0:0:0:0:
93,240,99229,6,0,B|139:219|171:245|171:245|208:278|255:257,1,167.999994873047,2|8,0:0|0:0,0:0:0:0:
250,259,100629,1,0,0:0:0:0:
319,305,100829,6,0,P|344:274|330:182,1,125.999996154785,2|0,0:0|0:0,0:0:0:0:
402,138,101629,2,0,P|341:97|271:95,1,125.999996154785,8|0,0:0|0:0,0:0:0:0:
257,14,102429,2,0,L|89:50,1,167.999994873047,2|10,0:0|0:0,0:0:0:0:
273,206,104029,6,0,P|318:199|381:306,1,168,6|0,0:0|0:0,0:0:0:0:
468,299,104829,2,0,P|451:341|327:342,1,168
301,283,105629,1,2,0:0:0:0:
218,269,107229,6,0,B|108:254|108:254|56:208,1,168,2|0,0:0|0:0,0:0:0:0:
140,177,108029,2,0,B|207:89|207:89|273:67,1,168,0|0,0:0|0:0,0:0:0:0:
258,156,108829,1,2,0:0:0:0:
258,156,109629,6,0,P|286:206|376:168,1,168
410,82,110429,2,0,P|445:124|458:179,1,112,2|0,0:0|0:0,0:0:0:0:
242,75,111229,6,0,P|214:25|124:63,1,168,0|0,0:0|0:0,0:0:0:0:
67,161,112029,2,0,L|42:52,1,112,2|0,0:0|0:0,0:0:0:0:
31,325,112829,6,0,B|87:343|87:343|208:299,1,168,0|0,0:0|0:0,0:0:0:0:
268,276,113629,1,6,0:0:0:0:
256,192,113829,12,0,116829,0:0:0:0:
268,276,119229,5,8,0:0:0:0:
512,361,120029,6,0,P|481:328|427:310,1,83.9999974365235,6|0,0:0|0:0,0:0:0:0:
427,232,120429,2,0,B|383:229|346:253|346:253|310:277|266:274,1,167.999994873047,0|8,0:0|0:0,0:0:0:0:
90,356,121229,2,0,L|122:368,3,28
136,376,121629,6,0,B|144:270|144:270|133:232|133:232|142:127,1,251.999992309571,2|0,0:0|0:0,0:0:0:0:
238,96,122429,2,0,P|268:165|358:148,1,167.999994873047,8|0,0:0|0:0,0:0:0:0:
352,149,122929,1,0,0:0:0:0:
354,141,123029,1,0,0:0:0:0:
434,116,123229,6,0,P|479:122|519:155,1,83.9999974365235,2|0,0:0|0:0,0:0:0:0:
468,216,123629,2,0,P|485:257|476:309,1,83.9999974365235,0|0,0:0|0:0,0:0:0:0:
398,295,124029,2,0,P|356:329|221:317,1,167.999994873047,8|0,0:0|0:0,0:0:0:0:
159,298,124629,2,0,L|165:339,1,41.9999987182618
157,360,124829,6,0,B|140:330|140:330|147:293|147:293|132:188,2,167.999994873047,2|0|8,0:0|0:0|0:0,0:0:0:0:
234,239,125829,1,0,0:0:0:0:
234,239,126029,2,0,B|252:196|252:196|279:174|279:174|298:131,1,125.999996154785,0|0,0:0|0:0,0:0:0:0:
301,111,126429,6,0,P|349:127|399:110,1,83.9999974365235,2|0,0:0|0:0,0:0:0:0:
328,33,126829,2,0,B|277:25|247:47|247:47|218:68|167:61,1,167.999994873047,0|8,0:0|0:0,0:0:0:0:
82,69,127429,1,0,0:0:0:0:
59,149,127629,2,0,L|55:184,3,28
39,198,128029,6,0,B|90:161|147:180|147:180|175:217|175:217|232:237|250:293,1,251.999992309571,2|0,0:0|0:0,0:0:0:0:
241,283,128729,1,0,0:0:0:0:
239,291,128829,1,8,0:0:0:0:
440,350,129429,2,0,L|432:301,1,35,0|0,0:0|0:0,0:0:0:0:
405,284,129629,6,0,L|419:196,1,83.9999974365235,2|0,0:0|0:0,0:0:0:0:
396,119,130029,1,0,0:0:0:0:
396,119,130229,1,0,0:0:0:0:
336,178,130429,2,0,P|281:184|216:97,1,167.999994873047,8|0,0:0|0:0,0:0:0:0:
249,26,131029,2,0,L|290:21,1,41.9999987182618
312,8,131229,6,0,B|271:-6|271:-6|233:16|233:16|144:26,1,167.999994873047,2|0,0:0|0:0,0:0:0:0:
144,24,131729,1,0,0:0:0:0:
135,23,131829,1,0,0:0:0:0:
47,51,132029,2,0,P|56:104|130:151,1,125.999996154785,8|0,0:0|0:0,0:0:0:0:
139,136,132429,2,0,B|210:129|210:129|223:120|223:120|295:113,1,157.500006008148,0|0,0:0|0:0,0:0:0:0:
323,104,132829,5,4,0:0:0:0:
323,215,133629,1,8,0:0:0:0:
90,262,134429,5,2,0:0:0:0:
103,368,135229,2,0,P|129:352|148:319,1,56,10|2,0:0|0:0,0:0:0:0:
202,281,135629,2,0,P|195:250|169:222,1,56,2|2,0:0|0:0,0:0:0:0:
161,150,136029,5,2,0:0:0:0:
114,48,136829,1,8,0:0:0:0:
224,71,137629,5,2,0:0:0:0:
243,181,138429,1,8,0:0:0:0:
318,39,138829,2,0,P|343:58|339:116,1,84,0|0,0:0|0:0,0:0:0:0:
323,124,139229,5,2,0:0:0:0:
372,224,140029,1,8,0:0:0:0:
372,224,140229,2,0,L|262:269,1,112
185,317,140829,6,0,B|166:259|203:211|203:211|240:163|222:106,1,224,2|8,0:0|0:0,0:0:0:0:
222,106,142229,1,0,0:0:0:0:
160,10,142429,6,0,P|221:5|272:40,1,125.999996154785,2|0,0:0|0:0,0:0:0:0:
106,117,143229,2,0,P|70:66|75:4,1,125.999996154785,8|2,0:0|0:0,0:0:0:0:
222,106,144029,5,6,0:0:0:0:
