osu file format v14

[General]
AudioFilename: audio.mp3
AudioLeadIn: 0
PreviewTime: 1129
Countdown: 0
SampleSet: Soft
StackLeniency: 0.3
Mode: 0
LetterboxInBreaks: 0
WidescreenStoryboard: 0

[Editor]
Bookmarks: 78429,125229
DistanceSpacing: 1
BeatDivisor: 4
GridSize: 32
TimelineZoom: 0.9000001

[Metadata]
Title:Bishounen (Kaivaan Version)
TitleUnicode:Bishounen (Kaivaan Version)
Artist:Hikaru Station
ArtistUnicode:Hikaru Station
Creator:FoxyGrandpa
Version:Mir's Normal
Source:
Tags:Crowie Mir osuskrub Foxy Remix Kai Future Beats
BeatmapID:1410578
BeatmapSetID:663309

[Difficulty]
HPDrainRate:3
CircleSize:3
OverallDifficulty:4
ApproachRate:5
SliderMultiplier:1.2
SliderTickRate:1

[Events]
//Background and Video events
0,0,"heyprettyboy.jpg",0,0
//Break Periods
2,27429,38829
2,78629,90029
//Storyboard Layer 0 (Background)
//Storyboard Layer 1 (Fail)
//Storyboard Layer 2 (Pass)
//Storyboard Layer 3 (Foreground)
//Storyboard Sound Samples

[TimingPoints]
829,400,4,2,1,50,1,0
1629,400,4,2,2,50,1,0
26829,-100,4,2,2,50,0,0
27229,-100,4,2,3,50,0,0
39229,-100,4,2,4,60,0,0
40029,-100,4,2,5,60,0,1
48829,-100,4,2,3,60,0,0
49629,-100,4,2,5,60,0,1
52029,-100,4,2,5,60,0,0
52829,-100,4,2,2,50,0,0
78029,-100,4,2,2,60,0,0
78429,-100,4,2,3,60,0,0
91229,-125,4,2,3,60,0,0
104029,-100,4,2,3,60,0,0
116829,-100,4,2,3,5,0,0
119229,-100,4,2,3,50,0,0
120029,-100,4,2,3,60,0,1
120129,-100,4,2,5,60,0,1
128829,-100,4,2,3,60,0,0
129629,-100,4,2,5,60,0,1
131629,-100,4,2,5,60,0,1
132029,-100,4,2,5,60,0,1
132429,-100,4,2,5,60,0,1
132829,-100,4,2,7,40,0,0
132929,-100,4,2,3,40,0,0
143229,-100,4,2,3,40,0,0

[Colours]
Combo1 : 255,128,192
Combo2 : 0,87,174
Combo3 : 255,60,255
Combo4 : 255,128,128
Combo5 : 255,128,0
Combo6 : 255,51,51

[HitObjects]
104,145,1629,6,0,P|206:122|241:132,1,120,4|0,0:0|0:0,0:0:0:0:
270,154,2229,1,4,0:0:0:0:
270,154,2429,1,8,0:0:0:0:
447,126,3029,1,0,0:0:0:0:
447,126,3229,2,0,L|440:194,2,60,4|4|4,0:0|0:0|0:0,0:0:0:0:
492,15,4029,1,8,0:0:0:0:
262,84,4829,6,0,P|186:87|141:47,1,120,4|0,0:0|0:0,0:0:0:0:
126,9,5429,1,4,0:0:0:0:
126,9,5629,1,12,0:0:0:0:
45,98,6029,1,0,0:0:0:0:
127,185,6429,2,0,P|149:230|131:299,1,120,4|4,0:0|0:0,0:0:0:0:
106,349,7029,1,0,0:0:0:0:
106,349,7229,2,0,B|164:361|164:361|240:342,1,120,12|2,0:0|0:0,0:0:0:0:
342,339,8029,6,0,L|350:192,1,120,4|0,0:0|0:0,0:0:0:0:
351,159,8629,1,4,0:0:0:0:
351,159,8829,1,8,0:0:0:0:
178,107,9429,1,0,0:0:0:0:
178,107,9629,2,0,P|130:110|70:64,1,120,4|4,0:0|0:0,0:0:0:0:
38,186,10429,2,0,L|47:310,1,120,12|0,0:0|0:0,0:0:0:0:
83,353,11029,1,0,0:0:0:0:
83,353,11229,6,0,P|112:356|157:350,1,60,4|0,0:0|0:0,0:0:0:0:
191,318,11629,2,0,P|220:314|265:321,1,60,0|4,0:0|0:0,0:0:0:0:
300,351,12029,1,12,0:0:0:0:
378,260,12429,2,0,L|377:174,1,60
415,153,12829,2,0,B|373:141|373:141|274:149,1,120,4|4,0:0|0:0,0:0:0:0:
177,161,13629,1,12,0:0:0:0:
229,52,14029,2,0,L|311:49,1,60,2|0,0:0|0:0,0:0:0:0:
345,28,14429,6,0,L|463:37,2,90,6|2|2,0:0|0:0|0:0,0:0:0:0:
288,49,15229,1,8,0:0:0:0:
108,40,15829,1,0,0:0:0:0:
108,40,16029,2,0,B|56:48|56:48|13:35|13:35|76:100|51:193,1,240,2|8,0:0|0:0,0:0:0:0:
40,285,17229,2,0,L|111:280,1,60,0|0,0:0|0:0,0:0:0:0:
160,276,17629,6,0,B|157:331|157:331|132:372,2,90,2|2|2,0:0|0:0|0:0,0:0:0:0:
165,215,18429,1,8,0:0:0:0:
273,71,19029,1,0,0:0:0:0:
273,71,19229,2,0,B|362:45|364:109|470:62,1,180,2|0,0:0|0:0,0:0:0:0:
508,59,20029,2,0,L|499:130,1,60,8|8,0:0|0:0,0:0:0:0:
491,177,20429,1,6,0:0:0:0:
372,198,20829,6,0,B|359:237|359:237|365:298,2,90,2|2|2,0:0|0:0|0:0,0:0:0:0:
404,147,21629,1,8,0:0:0:0:
247,58,22229,1,0,0:0:0:0:
247,58,22429,2,0,B|195:32|195:32|1:58,1,240,2|8,0:0|0:0,0:0:0:0:
99,141,23629,1,0,0:0:0:0:
120,258,24029,6,0,B|67:261|67:261|9:231,2,90,2|2|2,0:0|0:0|0:0,0:0:0:0:
179,252,24829,1,8,0:0:0:0:
179,252,25029,2,0,L|319:238,1,120,8|0,0:0|0:0,0:0:0:0:
358,234,25629,1,2,0:0:0:0:
417,129,26029,2,0,P|458:169|471:247,2,120,10|10|6,0:0|0:0|0:0,0:0:0:0:
309,74,27229,5,4,0:0:0:0:
388,107,40029,6,0,B|309:121|309:121|203:92,1,180,2|0,0:0|0:0,0:0:0:0:
154,77,40829,1,8,0:0:0:0:
12,270,41629,2,0,B|91:256|91:256|215:289,1,180,2|0,0:0|0:0,0:0:0:0:
243,302,42429,2,0,B|339:327|339:327|418:313,1,180,8|0,0:0|0:0,0:0:0:0:
424,253,43229,6,0,B|473:145|342:117|450:10,1,240,2|8,0:0|0:0,0:0:0:0:
312,11,44429,1,0,0:0:0:0:
241,107,44829,2,0,B|92:103|92:103|29:18,1,240,2|8,0:0|0:0,0:0:0:0:
12,147,46029,1,0,0:0:0:0:
6,266,46429,6,0,B|111:324|135:220|243:269,1,240,2|8,0:0|0:0,0:0:0:0:
335,334,47629,1,0,0:0:0:0:
435,268,48029,2,0,P|450:158|361:44,1,240,2|12,0:0|0:0,0:0:0:0:
380,55,49629,6,0,B|312:18|293:89|188:44,1,180,2|0,0:0|0:0,0:0:0:0:
145,41,50429,2,0,P|127:110|187:203,1,180,8|0,0:0|0:0,0:0:0:0:
238,184,51229,2,0,B|280:233|280:233|270:366,1,180,2|0,0:0|0:0,0:0:0:0:
220,380,52029,5,8,0:0:0:0:
406,241,52829,6,0,P|457:226|509:241,2,90,2|2|2,0:0|0:0|0:0,0:0:0:0:
358,277,53629,1,8,0:0:0:0:
205,181,54229,1,0,0:0:0:0:
205,181,54429,2,0,P|185:125|206:58,1,120,2|0,0:0|0:0,0:0:0:0:
315,29,55229,2,0,L|443:27,1,120,8|4,0:0|0:0,0:0:0:0:
419,146,56029,6,0,B|465:163|465:163|521:162,2,90,2|2|2,0:0|0:0|0:0,0:0:0:0:
370,110,56829,1,8,0:0:0:0:
375,229,57229,1,0,0:0:0:0:
378,348,57629,2,0,P|325:363|253:339,1,120,2|8,0:0|0:0,0:0:0:0:
193,248,58429,2,0,P|135:232|78:249,1,120,8|6,0:0|0:0,0:0:0:0:
49,132,59229,6,0,B|38:86|38:86|54:34,2,90,2|2|2,0:0|0:0|0:0,0:0:0:0:
107,146,60029,1,8,0:0:0:0:
256,45,60629,1,0,0:0:0:0:
256,45,60829,2,0,P|349:38|391:56,1,120,2|0,0:0|0:0,0:0:0:0:
356,165,61629,2,0,P|449:172|491:154,1,120,8|4,0:0|0:0,0:0:0:0:
449,281,62429,6,0,P|460:329|449:383,2,90,2|2|2,0:0|0:0|0:0,0:0:0:0:
390,268,63229,1,8,0:0:0:0:
279,314,63629,1,0,0:0:0:0:
168,360,64029,2,0,P|112:371|33:338,1,120,2|8,0:0|0:0,0:0:0:0:
111,248,64829,2,0,L|116:171,1,60,8|8,0:0|0:0,0:0:0:0:
63,157,65229,2,0,L|58:80,1,60,6|0,0:0|0:0,0:0:0:0:
81,41,65629,6,0,B|44:13|42:12|-18:17,2,90,2|2|2,0:0|0:0|0:0,0:0:0:0:
141,41,66429,1,8,0:0:0:0:
320,45,67029,1,0,0:0:0:0:
320,45,67229,2,0,B|277:91|277:91|278:160,1,120,2|0,0:0|0:0,0:0:0:0:
385,202,68029,2,0,B|428:248|428:248|427:317,1,120,8|4,0:0|0:0,0:0:0:0:
320,351,68829,6,0,P|232:352|213:341,2,90,2|2|2,0:0|0:0|0:0,0:0:0:0:
336,293,69629,1,8,0:0:0:0:
252,207,70029,1,0,0:0:0:0:
165,123,70429,2,0,P|106:121|43:163,1,120,2|8,0:0|0:0,0:0:0:0:
137,236,71229,2,0,L|142:361,1,120,8|6,0:0|0:0,0:0:0:0:
245,296,72029,6,0,B|356:290,2,90,2|2|2,0:0|0:0|0:0,0:0:0:0:
243,355,72829,1,8,0:0:0:0:
351,211,73429,1,0,0:0:0:0:
351,211,73629,2,0,P|376:156|356:95,1,120,2|0,0:0|0:0,0:0:0:0:
244,69,74429,2,0,L|108:65,1,120,8|4,0:0|0:0,0:0:0:0:
14,114,75229,6,0,P|4:53|18:18,2,90,2|2|2,0:0|0:0|0:0,0:0:0:0:
52,159,76029,2,0,L|43:290,1,120,8|0,0:0|0:0,0:0:0:0:
8,326,76629,1,0,0:0:0:0:
8,326,76829,1,2,0:0:0:0:
125,301,77229,2,0,B|200:283|200:283|268:293,2,120,8|10|4,0:0|0:0|0:0,0:0:0:0:
8,326,78429,5,4,0:0:0:0:
20,93,91229,6,0,B|85:70|85:70|221:85,1,192,2|8,0:0|0:0,0:0:0:0:
207,83,92829,2,0,B|193:205|193:205|216:270,1,192,2|8,0:0|0:0,0:0:0:0:
216,270,94429,2,0,L|411:268,1,192,2|8,0:0|0:0,0:0:0:0:
407,268,96029,2,0,P|427:215|416:165,1,96,2|0,0:0|0:0,0:0:0:0:
381,89,96829,1,8,0:0:0:0:
292,126,97229,1,0,0:0:0:0:
235,42,97629,6,0,B|150:24|140:94|31:62,1,192,2|8,0:0|0:0,0:0:0:0:
48,66,99229,2,0,L|50:265,1,192,2|8,0:0|0:0,0:0:0:0:
49,257,100829,2,0,P|166:274|208:263,1,144,2|8,0:0|0:0,0:0:0:0:
227,239,101629,2,0,P|298:232|367:251,1,144,2|8,0:0|0:0,0:0:0:0:
407,278,102429,1,2,0:0:0:0:
504,112,103229,1,10,0:0:0:0:
277,32,104029,6,0,P|207:31|157:67,1,120,6|0,0:0|0:0,0:0:0:0:
157,176,104829,2,0,L|33:170,1,120
16,51,105629,1,2,0:0:0:0:
169,348,107229,6,0,P|236:343|299:306,1,120,2|0,0:0|0:0,0:0:0:0:
288,199,108029,2,0,P|347:201|401:227,1,120,0|0,0:0|0:0,0:0:0:0:
454,335,108829,1,2,0:0:0:0:
494,98,109629,2,0,L|360:100,1,120
275,31,110429,6,0,P|257:90|265:148,1,120,2|0,0:0|0:0,0:0:0:0:
331,247,111229,2,0,L|197:249,1,120,0|0,0:0|0:0,0:0:0:0:
114,177,112029,2,0,P|96:236|104:294,1,120,2|0,0:0|0:0,0:0:0:0:
192,374,112829,2,0,L|311:372,1,120,0|0,0:0|0:0,0:0:0:0:
256,192,113629,12,0,116829,0:0:0:0:
100,74,119229,5,8,0:0:0:0:
132,295,120029,6,0,B|211:281|211:281|317:310,1,180,6|0,0:0|0:0,0:0:0:0:
363,329,120829,1,8,0:0:0:0:
500,114,121629,2,0,B|421:128|421:128|323:78,1,180,2|0,0:0|0:0,0:0:0:0:
273,95,122429,2,0,L|78:113,1,180,8|0,0:0|0:0,0:0:0:0:
37,133,123229,6,0,B|-12:241|119:269|11:376,1,240,2|8,0:0|0:0,0:0:0:0:
144,337,124429,1,0,0:0:0:0:
251,289,124829,2,0,P|335:374|464:341,1,240,2|8,0:0|0:0,0:0:0:0:
497,248,126029,1,0,0:0:0:0:
406,169,126429,6,0,B|301:111|277:215|169:166,1,240,2|8,0:0|0:0,0:0:0:0:
163,49,127629,1,0,0:0:0:0:
67,117,128029,2,0,B|52:229|52:229|141:341,1,240,2|8,0:0|0:0,0:0:0:0:
132,329,129629,6,0,B|233:375|257:271|362:329,1,240,2|8,0:0|0:0,0:0:0:0:
470,277,130829,1,0,0:0:0:0:
379,194,131229,2,0,P|330:132|329:72,1,120,2|0,0:0|0:0,0:0:0:0:
234,15,132029,5,8,0:0:0:0:
134,82,132429,2,0,L|10:70,1,120,0|4,0:0|0:0,0:0:0:0:
48,239,134429,5,2,0:0:0:0:
231,294,135229,2,0,L|310:296,1,60,10|2,0:0|0:0,0:0:0:0:
332,271,135629,2,0,L|391:269,1,60,2|2,0:0|0:0,0:0:0:0:
440,266,136029,1,2,0:0:0:0:
92,101,137629,5,2,0:0:0:0:
373,69,139229,1,2,0:0:0:0:
237,203,140229,2,0,L|232:263,2,60,0|2|0,0:0|0:0|0:0,0:0:0:0:
212,161,140829,5,2,0:0:0:0:
39,212,142429,1,2,0:0:0:0:
135,337,144029,5,6,0:0:0:0:
