osu file format v14

[General]
AudioFilename: audio.mp3
AudioLeadIn: 0
PreviewTime: 69510
Countdown: 0
SampleSet: Soft
StackLeniency: 0.5
Mode: 0
LetterboxInBreaks: 0
WidescreenStoryboard: 1

[Editor]
DistanceSpacing: 1
BeatDivisor: 4
GridSize: 32
TimelineZoom: 1

[Metadata]
Title:Blue Youth
TitleUnicode:ブルーユース
Artist:Hikarinonakani
ArtistUnicode:ひかりのなかに
Creator:xHappy-
Version:Normal
Source:
Tags:rock japanese j-rock jrock ヤマシタカホ yamashita kaho p_kung
BeatmapID:3236154
BeatmapSetID:1584289

[Difficulty]
HPDrainRate:3.5
CircleSize:3.2
OverallDifficulty:4
ApproachRate:5.5
SliderMultiplier:1.1
SliderTickRate:1

[Events]
//Background and Video events
0,0,"BG.jpg",0,0
//Break Periods
//Storyboard Layer 0 (Background)
//Storyboard Layer 1 (Fail)
//Storyboard Layer 2 (Pass)
//Storyboard Layer 3 (Foreground)
//Storyboard Layer 4 (Overlay)
//Storyboard Sound Samples

[TimingPoints]
1192,300,4,2,1,60,1,0
1192,-111.111111111111,4,2,1,60,0,0
9592,-111.111111111111,4,2,1,70,0,0
10792,-100,4,2,1,80,0,0
20392,-111.111111111111,4,2,1,60,0,0
39592,-111.111111111111,4,2,1,70,0,0
58792,-111.111111111111,4,2,1,60,0,0
63592,-100,4,2,1,70,0,0
69292,-100,4,2,1,80,0,0
69592,-90.9090909090909,4,2,1,90,0,1
98392,-90.9090909090909,4,2,1,100,0,1
103192,-90.9090909090909,4,2,1,90,0,1
106342,-90.9090909090909,4,2,1,45,0,1
106492,-90.9090909090909,4,2,1,90,0,1
106792,-100,4,2,1,80,0,0

[Colours]
Combo1 : 162,134,255
Combo2 : 255,181,149
Combo3 : 0,179,255
Combo4 : 220,148,109

[HitObjects]
96,128,1192,6,0,L|297:112,1,197.99999395752,4|0,1:2|1:3,0:0:0:0:
370,50,2092,1,0,1:0:0:0:
455,97,2392,2,0,P|498:156|492:229,1,148.49999546814,8|8,0:0|0:0,0:0:0:0:
405,349,3292,1,8,0:0:0:0:
316,304,3592,6,0,L|115:286,1,197.99999395752,4|0,1:2|1:3,0:0:0:0:
46,353,4492,1,2,1:3:0:0:
4,269,4792,1,8,0:0:0:0:
4,269,4942,2,0,L|13:165,1,98.9999969787599,2|10,0:0|0:0,0:0:0:0:
64,86,5542,2,0,L|59:31,2,49.4999984893799,2|8|8,0:0|0:0|0:0,0:0:0:0:
101,119,5992,6,0,P|143:128|198:118,1,98.9999969787599,6|0,1:2|1:0,0:0:0:0:
270,51,6592,2,0,P|312:41|367:52,1,98.9999969787599,2|0,1:2|1:0,0:0:0:0:
437,120,7192,2,0,L|422:275,1,148.49999546814,10|10,0:0|0:0,0:0:0:0:
412,316,7792,2,0,P|369:340|320:339,1,98.9999969787599,0|10,1:0|0:0,0:0:0:0:
230,298,8392,6,0,L|240:147,1,148.49999546814,14|8,0:0|0:0,0:0:0:0:
247,100,8992,2,0,P|204:78|153:83,1,98.9999969787599,2|8,1:2|0:0,0:0:0:0:
63,119,9592,2,0,L|58:181,1,49.4999984893799,10|10,0:2|0:2,0:0:0:0:
26,206,9892,2,0,L|31:268,1,49.4999984893799,10|10,0:2|0:2,0:0:0:0:
37,304,10192,2,0,P|81:324|130:322,1,98.9999969787599,10|8,0:2|0:0,0:0:0:0:
223,263,10792,6,0,L|340:269,1,110,6|10,1:2|0:0,0:0:0:0:
424,207,11392,2,0,L|418:147,1,55,0|0,1:2|1:2,0:0:0:0:
406,98,11692,1,8,0:0:0:0:
314,36,11992,1,2,1:2:0:0:
221,94,12292,1,8,0:2:0:0:
129,33,12592,2,0,L|121:88,1,55,0|0,1:2|1:2,0:0:0:0:
114,142,12892,1,8,0:2:0:0:
25,207,13192,6,0,P|63:244|117:251,1,110,2|8,1:2|0:2,0:0:0:0:
227,248,13792,2,0,L|238:321,2,55,0|0|8,1:2|1:2|0:0,0:0:0:0:
310,175,14392,1,0,1:2:0:0:
310,175,14542,1,2,0:2:0:0:
404,230,14842,1,2,0:0:0:0:
486,157,15142,1,2,1:2:0:0:
486,157,15292,1,8,0:0:0:0:
444,55,15592,6,0,L|320:47,1,110,6|10,1:2|0:0,0:0:0:0:
279,45,16042,1,2,0:0:0:0:
279,45,16192,2,0,P|236:79|182:81,1,110,2|8,1:2|0:0,0:0:0:0:
80,38,16792,2,0,P|69:90|91:145,1,110,2|8,1:2|0:0,0:0:0:0:
132,177,17242,1,2,0:0:0:0:
132,177,17392,2,0,L|126:231,1,55,0|0,1:2|1:2,0:0:0:0:
118,286,17692,1,8,0:2:0:0:
199,357,17992,6,0,P|253:359|296:326,1,110,14|0,0:2|1:2,0:0:0:0:
312,273,18442,2,0,L|307:155,1,110,14|0,0:2|1:2,0:0:0:0:
300,108,18892,1,14,0:2:0:0:
226,33,19192,1,2,1:2:0:0:
226,33,19342,2,0,P|281:4|329:9,1,110,14|0,0:2|1:2,0:0:0:0:
381,12,19792,2,0,L|389:74,1,55,14|0,0:2|1:2,0:0:0:0:
417,113,20092,2,0,L|409:175,1,55,14|0,0:0|1:0,0:0:0:0:
401,215,20392,6,0,P|366:250|318:255,1,98.9999969787599,6|2,1:2|1:2,0:0:0:0:
238,196,20992,2,0,P|189:200|155:235,1,98.9999969787599,2|2,1:2|1:2,0:0:0:0:
105,320,21592,1,2,1:2:0:0:
16,275,21892,1,2,1:2:0:0:
44,180,22192,2,0,P|56:133|34:89,1,98.9999969787599,2|2,1:2|1:2,0:0:0:0:
103,18,22792,6,0,L|201:27,1,98.9999969787599,2|2,1:2|1:2,0:0:0:0:
278,89,23392,1,2,1:2:0:0:
362,36,23692,1,2,1:2:0:0:
453,73,23992,2,0,P|479:113|474:169,2,98.9999969787599,2|2|2,1:2|1:2|1:2,0:0:0:0:
381,142,24892,1,0,1:2:0:0:
295,191,25192,6,0,P|323:230|370:243,1,98.9999969787599,2|2,1:2|1:2,0:0:0:0:
458,288,25792,2,0,P|430:327|383:340,1,98.9999969787599,2|2,1:2|1:2,0:0:0:0:
284,356,26392,1,2,1:2:0:0:
206,295,26692,1,2,1:2:0:0:
127,354,26992,2,0,L|23:349,1,98.9999969787599,2|2,1:2|1:2,0:0:0:0:
3,251,27592,6,0,P|-11:205|1:158,2,98.9999969787599,2|2|2,1:2|1:2|1:2,0:0:0:0:
90,203,28492,1,2,1:2:0:0:
174,254,28792,2,0,P|189:207|176:160,1,98.9999969787599,2|2,1:2|1:2,0:0:0:0:
110,85,29392,1,2,1:2:0:0:
172,8,29692,1,2,1:3:0:0:
270,16,29992,6,0,L|387:26,1,98.9999969787599,2|2,1:2|1:2,0:0:0:0:
466,37,30592,2,0,L|456:154,1,98.9999969787599,2|2,1:2|1:2,0:0:0:0:
444,233,31192,1,2,1:2:0:0:
345,225,31492,1,2,1:2:0:0:
246,215,31792,2,0,L|254:313,1,98.9999969787599,2|0,1:2|1:2,0:0:0:0:
172,367,32392,6,0,P|123:371|83:343,1,98.9999969787599,2|2,1:2|1:2,0:0:0:0:
62,304,32842,1,2,0:0:0:0:
62,304,32992,2,0,L|12:308,2,49.4999984893799,2|2|2,1:2|0:0|1:2,0:0:0:0:
97,211,33592,2,0,L|105:112,1,98.9999969787599,2|2,1:2|1:2,0:0:0:0:
113,63,34042,1,2,0:0:0:0:
113,62,34192,2,0,P|156:41|204:49,1,98.9999969787599,2|0,1:2|1:2,0:0:0:0:
280,113,34792,6,0,P|327:121|371:100,1,98.9999969787599,10|2,0:2|1:2,0:0:0:0:
456,48,35392,2,0,L|470:245,1,197.99999395752,2|0,1:2|1:0,0:0:0:0:
431,336,36292,1,0,1:0:0:0:
336,301,36592,2,0,P|288:297|243:316,1,98.9999969787599,2|2,1:2|1:2,0:0:0:0:
154,360,37192,6,0,P|105:364|60:345,1,98.9999969787599,2|2,1:2|1:2,0:0:0:0:
31,304,37642,2,0,L|36:199,1,98.9999969787599,2|2,0:0|0:0,0:0:0:0:
39,155,38092,1,2,1:2:0:0:
133,126,38392,1,4,1:2:0:0:
400,215,39592,6,0,P|412:263|400:311,1,98.9999969787599,6|10,1:2|0:0,0:0:0:0:
320,368,40192,2,0,L|251:361,1,49.4999984893799,2|2,1:2|1:2,0:0:0:0:
221,360,40492,1,10,0:0:0:0:
121,352,40792,2,0,P|89:316|81:268,1,98.9999969787599,2|10,1:2|0:0,0:0:0:0:
92,219,41242,2,0,L|202:211,1,98.9999969787599,2|0,0:0|1:2,0:0:0:0:
240,207,41692,1,8,0:0:0:0:
329,248,41992,6,0,L|388:251,1,49.4999984893799,2|2,1:2|0:0,0:0:0:0:
428,255,42292,2,0,P|476:252|512:219,1,98.9999969787599,8|2,0:0|1:2,0:0:0:0:
511,168,42742,1,0,1:0:0:0:
453,87,43042,2,0,L|343:82,1,98.9999969787599,2|0,0:0|0:0,0:0:0:0:
318,57,43492,1,10,0:0:0:0:
318,57,43642,2,0,P|270:44|222:54,1,98.9999969787599,2|0,0:0|1:0,0:0:0:0:
174,66,44092,1,8,0:0:0:0:
88,16,44392,6,0,P|72:61|84:109,1,98.9999969787599,2|10,1:2|0:2,0:0:0:0:
110,158,44842,1,2,0:2:0:0:
110,158,44992,2,0,L|107:216,1,49.4999984893799,2|2,1:2|1:2,0:0:0:0:
105,257,45292,1,10,0:0:0:0:
48,338,45592,2,0,P|94:352|143:346,1,98.9999969787599,2|10,1:2|0:0,0:0:0:0:
186,318,46042,1,2,0:0:0:0:
186,318,46192,1,2,1:2:0:0:
274,361,46492,1,10,0:0:0:0:
364,319,46792,6,0,P|385:276|381:227,1,98.9999969787599,2|10,1:2|0:0,0:0:0:0:
307,161,47392,2,0,L|244:155,1,49.4999984893799,2|0,1:2|1:0,0:0:0:0:
208,152,47692,1,10,0:0:0:0:
120,199,47992,2,0,P|110:152|122:104,1,98.9999969787599,2|10,1:2|0:2,0:0:0:0:
204,48,48592,2,0,L|198:-1,2,49.4999984893799,2|0|8,1:2|1:0|0:2,0:0:0:0:
298,76,49192,5,6,1:2:0:0:
379,19,49492,1,10,0:0:0:0:
459,76,49792,2,0,L|455:131,1,49.4999984893799,2|0,1:2|1:0,0:0:0:0:
454,175,50092,1,10,0:0:0:0:
497,264,50392,2,0,P|450:276|404:259,1,98.9999969787599,2|10,1:2|0:2,0:0:0:0:
317,212,50992,2,0,L|313:157,2,49.4999984893799,2|0|8,1:2|1:2|0:2,0:0:0:0:
219,192,51592,6,0,P|172:179|126:196,1,98.9999969787599,2|10,1:2|0:0,0:0:0:0:
61,271,52192,1,2,1:2:0:0:
117,351,52492,1,10,0:0:0:0:
211,322,52792,2,0,L|265:327,1,49.4999984893799,2|2,1:2|0:2,0:0:0:0:
294,362,53092,2,0,L|348:357,1,49.4999984893799,10|2,0:2|0:2,0:0:0:0:
387,380,53392,2,0,P|399:333|389:285,1,98.9999969787599,2|8,1:2|0:0,0:0:0:0:
345,195,53992,6,0,L|350:96,1,98.9999969787599,2|8,1:2|0:0,0:0:0:0:
273,32,54592,2,0,L|222:28,1,49.4999984893799,2|2,1:2|1:2,0:0:0:0:
177,27,54892,1,8,0:0:0:0:
177,27,55042,2,0,P|165:74|176:122,1,98.9999969787599,2|0,0:0|0:0,0:0:0:0:
209,159,55492,1,8,0:0:0:0:
145,235,55792,2,0,L|92:232,2,49.4999984893799,2|2|8,1:2|1:2|0:0,0:0:0:0:
169,277,56242,6,0,P|216:265|264:276,1,98.9999969787599,2|2,0:0|0:0,0:0:0:0:
300,311,56692,1,8,0:0:0:0:
394,282,56992,2,0,L|398:230,1,49.4999984893799,0|0,1:0|1:0,0:0:0:0:
403,183,57292,2,0,P|436:147|439:98,1,98.9999969787599,8|0,0:0|1:0,0:0:0:0:
419,58,57742,1,0,1:0:0:0:
419,58,57892,1,8,0:0:0:0:
326,23,58192,2,0,L|272:25,1,49.4999984893799,0|8,1:0|0:0,0:0:0:0:
231,45,58492,2,0,L|177:43,1,49.4999984893799,8|8,0:0|0:0,0:0:0:0:
135,24,58792,6,0,P|53:71|53:165,1,197.99999395752,6|10,1:2|0:2,0:0:0:0:
117,241,59692,1,2,1:2:0:0:
117,241,59842,1,0,1:0:0:0:
186,170,60142,2,0,L|284:176,1,98.9999969787599,8|0,0:0|1:0,0:0:0:0:
333,177,60592,2,0,P|358:220|360:269,1,98.9999969787599,8|0,0:0|0:0,0:0:0:0:
294,343,61192,5,2,1:2:0:0:
215,282,61492,1,2,1:2:0:0:
137,343,61792,1,10,0:2:0:0:
58,282,62092,2,0,L|74:84,1,197.99999395752,6|0,1:2|1:2,0:0:0:0:
143,14,62992,2,0,L|192:16,1,49.4999984893799,2|8,1:2|0:0,0:0:0:0:
232,45,63292,2,0,L|281:43,1,49.4999984893799,10|8,0:0|0:0,0:0:0:0:
328,13,63592,6,0,P|358:57|358:112,1,110,6|8,1:2|0:0,0:0:0:0:
335,162,64042,2,0,L|444:154,1,110,2|2,0:0|1:2,0:0:0:0:
499,149,64492,1,8,0:0:0:0:
511,258,64792,1,2,1:2:0:0:
511,258,64942,2,0,P|480:291|415:292,1,110,2|2,0:0|0:0,0:0:0:0:
368,266,65392,1,0,1:0:0:0:
294,347,65692,1,10,0:0:0:0:
192,304,65992,6,0,P|161:258|155:204,1,110,2|10,1:2|0:2,0:0:0:0:
227,121,66592,1,2,1:2:0:0:
176,23,66892,1,10,0:0:0:0:
35,106,67342,5,8,0:0:0:0:
35,106,67492,1,8,0:0:0:0:
4,214,67792,1,8,0:0:0:0:
4,214,67942,1,8,0:0:0:0:
94,286,68242,1,8,0:0:0:0:
94,286,68392,1,8,0:0:0:0:
126,183,68692,1,8,0:0:0:0:
126,183,68842,1,8,0:0:0:0:
367,365,69592,6,0,L|378:245,1,121.000003692627,6|10,1:2|0:0,0:0:0:0:
475,171,70192,2,0,L|468:110,1,60.5000018463135,2|0,1:2|1:2,0:0:0:0:
462,50,70492,1,8,0:0:0:0:
341,45,70792,2,0,P|284:65|227:50,1,121.000003692627,2|8,1:2|0:0,0:0:0:0:
125,8,71392,1,2,1:2:0:0:
125,8,71542,1,0,1:2:0:0:
125,8,71692,2,0,L|60:36,1,60.5000018463135,10|0,0:0|0:0,0:0:0:0:
25,74,71992,6,0,P|6:130|19:189,1,121.000003692627,2|8,1:2|0:0,0:0:0:0:
58,303,72592,2,0,L|130:298,1,60.5000018463135,2|0,1:2|1:0,0:0:0:0:
179,294,72892,1,8,0:0:0:0:
247,194,73192,2,0,P|303:174|364:187,1,121.000003692627,2|8,1:2|0:0,0:0:0:0:
471,237,73792,2,0,L|476:310,1,60.5000018463135,2|0,1:2|1:0,0:0:0:0:
414,302,74092,2,0,L|409:362,1,60.5000018463135,10|0,0:2|0:0,0:0:0:0:
348,372,74392,6,0,P|289:361|252:315,1,121.000003692627,6|8,1:2|0:0,0:0:0:0:
223,208,74992,1,2,1:2:0:0:
223,208,75142,1,0,1:0:0:0:
223,208,75292,1,8,0:0:0:0:
275,98,75592,1,2,1:2:0:0:
383,152,75892,1,10,0:0:0:0:
445,48,76192,2,0,L|506:55,2,60.5000018463135,2|0|10,1:2|1:0|0:0,0:0:0:0:
328,19,76792,6,0,P|269:8|212:27,1,121.000003692627,2|10,1:2|0:0,0:0:0:0:
126,112,77392,2,0,L|64:107,1,60.5000018463135,2|0,1:2|1:0,0:0:0:0:
4,104,77692,1,10,0:0:0:0:
3,224,77992,2,0,P|59:243|118:231,1,121.000003692627,2|8,1:2|0:0,0:0:0:0:
175,210,78442,1,0,1:0:0:0:
175,210,78592,2,0,L|237:205,1,60.5000018463135,0|0,1:2|1:0,0:0:0:0:
295,199,78892,1,10,0:0:0:0:
380,113,79192,6,0,P|436:94|490:117,1,121.000003692627,6|10,1:2|0:0,0:0:0:0:
511,237,79792,2,0,L|509:299,1,60.5000018463135,2|0,1:2|1:0,0:0:0:0:
509,358,80092,1,10,0:2:0:0:
388,358,80392,2,0,L|385:220,2,121.000003692627,2|8|2,1:2|0:0|1:2,0:0:0:0:
331,364,81142,1,0,1:2:0:0:
331,364,81292,2,0,P|311:341|283:330,1,60.5000018463135,10|0,0:0|0:0,0:0:0:0:
222,326,81592,6,0,P|176:362|116:365,1,121.000003692627,2|10,1:2|0:2,0:0:0:0:
6,311,82192,2,0,L|12:248,1,60.5000018463135,2|0,1:2|1:2,0:0:0:0:
18,190,82492,1,10,0:2:0:0:
65,78,82792,2,0,P|111:114|171:117,1,121.000003692627,2|8,1:2|0:2,0:0:0:0:
216,75,83242,1,0,1:2:0:0:
216,75,83392,2,0,L|282:80,1,60.5000018463135,2|0,1:2|1:0,0:0:0:0:
336,83,83692,1,8,0:2:0:0:
455,63,83992,6,0,L|452:3,2,60.5000018463135,6|2|8,1:2|0:0|0:2,0:0:0:0:
508,172,84592,2,0,L|505:240,1,60.5000018463135,2|0,1:2|1:2,0:0:0:0:
506,297,84892,1,10,0:0:0:0:
506,297,85042,2,0,P|452:321|393:312,1,121.000003692627,2|0,0:2|0:0,0:0:0:0:
347,278,85492,1,8,0:0:0:0:
347,278,85642,2,0,P|287:280|240:317,1,121.000003692627,2|0,0:2|1:0,0:0:0:0:
204,364,86092,1,10,0:0:0:0:
96,309,86392,6,0,L|100:234,1,60.5000018463135,2|2,1:2|0:2,0:0:0:0:
103,191,86692,1,10,0:0:0:0:
103,191,86842,2,0,P|59:150|55:91,1,121.000003692627,2|0,0:0|1:0,0:0:0:0:
63,31,87292,1,8,0:0:0:0:
183,66,87592,1,10,0:0:0:0:
183,66,87742,2,0,L|307:61,1,121.000003692627,2|2,1:2|1:2,0:0:0:0:
351,23,88192,2,0,L|419:26,1,60.5000018463135,10|2,0:0|1:2,0:0:0:0:
471,25,88492,2,0,P|464:54|465:84,1,60.5000018463135,14|2,0:0|0:2,0:0:0:0:
494,138,88792,6,0,P|445:172|385:170,1,121.000003692627,6|10,1:2|0:0,0:0:0:0:
265,153,89392,2,0,L|200:155,1,60.5000018463135,2|0,1:2|1:0,0:0:0:0:
163,110,89692,2,0,L|98:108,1,60.5000018463135,10|0,0:2|0:0,0:0:0:0:
44,88,89992,2,0,P|22:144|32:203,1,121.000003692627,2|8,1:2|0:0,0:0:0:0:
121,299,90592,1,2,1:2:0:0:
121,299,90742,1,0,1:2:0:0:
121,299,90892,2,0,P|152:298|181:289,1,60.5000018463135,10|0,0:0|0:0,0:0:0:0:
231,255,91192,6,0,L|351:259,1,121.000003692627,2|8,1:2|0:0,0:0:0:0:
472,268,91792,2,0,L|489:201,1,60.5000018463135,2|0,1:2|1:0,0:0:0:0:
502,150,92092,1,8,0:0:0:0:
410,70,92392,2,0,P|363:106|304:102,1,121.000003692627,2|8,1:2|0:0,0:0:0:0:
187,70,92992,2,0,L|127:66,1,60.5000018463135,2|0,1:2|1:0,0:0:0:0:
93,117,93292,2,0,L|33:121,1,60.5000018463135,10|0,0:2|0:0,0:0:0:0:
0,172,93592,6,0,P|3:231|40:278,1,121.000003692627,6|8,1:2|0:0,0:0:0:0:
158,337,94192,1,2,1:2:0:0:
158,337,94342,1,0,1:0:0:0:
158,337,94492,1,10,0:0:0:0:
253,263,94792,1,2,1:2:0:0:
167,177,95092,1,10,0:0:0:0:
240,81,95392,2,0,L|231:19,2,60.5000018463135,2|0|10,1:2|1:0|0:0,0:0:0:0:
341,146,95992,6,0,P|389:113|455:123,1,121.000003692627,2|10,1:2|0:2,0:0:0:0:
508,224,96592,2,0,L|503:289,1,60.5000018463135,2|0,1:2|1:0,0:0:0:0:
498,344,96892,1,10,0:2:0:0:
384,302,97192,2,0,P|336:268|270:278,1,121.000003692627,2|8,1:2|0:0,0:0:0:0:
224,302,97642,1,0,1:0:0:0:
224,302,97792,2,0,L|226:362,2,60.5000018463135,2|2|8,1:2|1:2|0:0,0:0:0:0:
112,255,98392,6,0,P|80:206|81:146,1,121.000003692627,14|10,0:2|0:0,0:0:0:0:
109,27,98992,2,0,L|175:32,1,60.5000018463135,10|0,0:0|1:0,0:0:0:0:
215,71,99292,2,0,L|281:66,1,60.5000018463135,10|0,0:0|1:0,0:0:0:0:
335,59,99592,1,10,0:0:0:0:
446,11,99892,1,10,0:0:0:0:
511,112,100192,2,0,L|507:179,1,60.5000018463135,10|0,0:0|1:3,0:0:0:0:
467,217,100492,2,0,L|471:284,1,60.5000018463135,10|0,0:0|1:3,0:0:0:0:
439,329,100792,6,0,P|383:347|326:329,1,121.000003692627,14|10,0:0|0:0,0:0:0:0:
240,242,101392,2,0,L|247:170,1,60.5000018463135,10|0,0:0|1:2,0:0:0:0:
284,134,101692,2,0,L|277:62,1,60.5000018463135,10|0,0:0|1:0,0:0:0:0:
251,17,101992,2,0,P|192:10|138:35,1,121.000003692627,10|8,0:2|0:0,0:0:0:0:
50,119,102592,1,8,0:0:0:0:
50,119,102742,1,0,1:0:0:0:
50,119,102892,2,0,L|23:175,1,60.5000018463135,8|0,0:0|1:0,0:0:0:0:
8,232,103192,6,0,P|67:239|121:214,1,121.000003692627,6|10,1:2|0:2,0:0:0:0:
209,130,103792,2,0,L|276:134,1,60.5000018463135,2|0,1:2|1:0,0:0:0:0:
330,139,104092,1,10,0:0:0:0:
436,80,104392,2,0,P|451:137|437:195,1,121.000003692627,2|8,1:2|0:0,0:0:0:0:
396,241,104842,1,0,1:0:0:0:
396,241,104992,2,0,L|404:309,2,60.5000018463135,2|0|8,1:2|1:0|0:0,0:0:0:0:
288,297,105592,6,0,L|150:289,1,121.000003692627,8|8,0:0|0:0,0:0:0:0:
110,289,106042,1,0,1:0:0:0:
110,289,106192,2,0,L|116:221,1,60.5000018463135,8|8,0:0|0:0,0:0:0:0:
144,175,106492,2,0,L|138:107,1,60.5000018463135,8|4,3:0|3:0,0:0:0:0:
133,59,106792,1,6,1:2:0:0:
