osu file format v14

[General]
AudioFilename: audio.mp3
AudioLeadIn: 0
PreviewTime: 69510
Countdown: 0
SampleSet: Soft
StackLeniency: 0.5
Mode: 0
LetterboxInBreaks: 0
WidescreenStoryboard: 0

[Editor]
DistanceSpacing: 1.3
BeatDivisor: 4
GridSize: 32
TimelineZoom: 2.7

[Metadata]
Title:Blue Youth
TitleUnicode:ブルーユース
Artist:Hikarinonakani
ArtistUnicode:ひかりのなかに
Creator:xHappy-
Version:Lifeline
Source:
Tags:rock japanese j-rock jrock ヤマシタカホ yamashita kaho p_kung
BeatmapID:3236151
BeatmapSetID:1584289

[Difficulty]
HPDrainRate:6
CircleSize:4
OverallDifficulty:8.5
ApproachRate:9.3
SliderMultiplier:2
SliderTickRate:1

[Events]
//Background and Video events
0,0,"BG.jpg",0,0
//Break Periods
//Storyboard Layer 0 (Background)
//Storyboard Layer 1 (Fail)
//Storyboard Layer 2 (Pass)
//Storyboard Layer 3 (Foreground)
//Storyboard Layer 4 (Overlay)
//Storyboard Sound Samples

[TimingPoints]
1192,300,4,2,1,60,1,0
1192,-125,4,2,1,60,0,0
9592,-111.111111111111,4,2,1,70,0,0
10792,-100,4,2,1,80,0,0
11017,-100,4,2,1,5,0,0
11092,-100,4,2,1,80,0,0
20392,-166.666666666667,4,2,1,60,0,0
33517,-166.666666666667,4,2,1,5,0,0
33592,-166.666666666667,4,2,1,60,0,0
39592,-111.111111111111,4,2,1,70,0,0
39817,-111.111111111111,4,2,1,5,0,0
39892,-111.111111111111,4,2,1,70,0,0
47917,-111.111111111111,4,2,1,5,0,0
47992,-111.111111111111,4,2,1,70,0,0
54217,-111.111111111111,4,2,1,5,0,0
54292,-111.111111111111,4,2,1,70,0,0
58792,-125,4,2,1,60,0,0
63592,-111.111111111111,4,2,1,70,0,0
65917,-111.111111111111,4,2,1,5,0,0
65992,-111.111111111111,4,2,1,70,0,0
69292,-100,4,2,1,80,0,0
69592,-90.9090909090909,4,2,1,90,0,1
73117,-90.9090909090909,4,2,1,5,0,1
73192,-90.9090909090909,4,2,1,90,0,1
74317,-90.9090909090909,4,2,1,5,0,1
74392,-90.9090909090909,4,2,1,90,0,1
75817,-90.9090909090909,4,2,1,5,0,1
75892,-90.9090909090909,4,2,1,90,0,1
79117,-90.9090909090909,4,2,1,5,0,1
79192,-90.9090909090909,4,2,1,90,0,1
81517,-90.9090909090909,4,2,1,5,0,1
81592,-90.9090909090909,4,2,1,90,0,1
83017,-90.9090909090909,4,2,1,5,0,1
83092,-90.9090909090909,4,2,1,90,0,1
92317,-90.9090909090909,4,2,1,5,0,1
92392,-90.9090909090909,4,2,1,90,0,1
93517,-90.9090909090909,4,2,1,5,0,1
93592,-90.9090909090909,4,2,1,90,0,1
95017,-90.9090909090909,4,2,1,5,0,1
95092,-90.9090909090909,4,2,1,90,0,1
98392,-83.3333333333333,4,2,1,100,0,1
103192,-90.9090909090909,4,2,1,90,0,1
105667,-90.9090909090909,4,2,1,45,0,1
105892,-90.9090909090909,4,2,1,90,0,1
105967,-90.9090909090909,4,2,1,45,0,1
106192,-90.9090909090909,4,2,1,90,0,1
106267,-90.9090909090909,4,2,1,45,0,1
106492,-90.9090909090909,4,2,1,90,0,1
106792,-100,4,2,1,80,0,0

[Colours]
Combo1 : 162,134,255
Combo2 : 255,181,149
Combo3 : 0,179,255
Combo4 : 220,148,109

[HitObjects]
448,349,1192,6,0,P|455:310|472:274,1,80,4|0,1:2|0:0,0:0:0:0:
358,233,1492,2,0,P|350:193|333:157,1,80,0|0,1:3|0:0,0:0:0:0:
450,72,1792,1,0,1:3:0:0:
445,103,1942,1,2,0:3:0:0:
336,28,2092,1,0,1:0:0:0:
341,59,2242,1,2,0:3:0:0:
227,113,2392,6,0,B|198:108|198:108|180:109|180:109|148:102,1,80,8|0,0:0|0:3,0:0:0:0:
148,102,2692,1,0,1:0:0:0:
16,193,2842,2,0,B|45:188|45:188|63:189|63:189|94:182,1,80,8|0,0:0|1:0,0:0:0:0:
95,182,3142,1,0,1:0:0:0:
227,271,3292,2,0,B|195:264|195:264|177:265|177:265|148:260,1,80,8|0,0:0|0:0,0:0:0:0:
11,358,3592,6,0,P|3:320|9:280,1,80,4|0,1:2|0:0,0:0:0:0:
100,186,3892,2,0,P|109:147|103:107,1,80,2|0,1:3|0:0,0:0:0:0:
5,28,4192,1,0,1:3:0:0:
0,59,4342,1,2,0:3:0:0:
117,6,4492,1,2,1:3:0:0:
141,25,4642,1,2,0:3:0:0:
297,19,4792,5,8,0:0:0:0:
223,79,4942,2,0,B|233:112|233:112|232:126|232:126|240:157,1,80,2|0,0:0|1:0,0:0:0:0:
397,168,5242,2,0,B|363:175|363:175|351:183|351:183|320:192,1,80,10|0,0:0|0:0,0:0:0:0:
190,297,5542,2,0,B|215:273|215:273|221:260|221:260|244:238,1,80,2|8,0:0|0:0,0:0:0:0:
314,106,5842,1,8,0:0:0:0:
455,263,5992,6,0,P|502:200|496:122,1,160,6|0,1:2|1:0,0:0:0:0:
442,46,6442,1,2,0:3:0:0:
442,46,6592,2,0,B|425:26|376:31|376:31|349:67|295:62,1,160,2|0,1:2|1:0,0:0:0:0:
214,16,7042,1,2,0:3:0:0:
89,53,7192,6,0,B|49:91|49:91|72:197,1,160,10|0,0:0|1:0,0:0:0:0:
146,250,7642,2,0,L|128:345,1,80,10|0,0:0|1:0,0:0:0:0:
228,192,7942,1,2,0:2:0:0:
228,192,8092,2,0,L|319:160,1,80,10|0,0:0|0:0,0:0:0:0:
153,99,8392,6,0,P|75:78|0:54,1,160,14|0,0:0|1:0,0:0:0:0:
238,24,8842,1,8,0:0:0:0:
238,24,8992,2,0,P|257:58|261:97,1,80,2|0,1:2|0:0,0:0:0:0:
436,28,9292,2,0,P|400:12|361:12,1,80,8|0,0:0|0:0,0:0:0:0:
260,98,9592,5,10,0:2:0:0:
319,363,9742,1,10,0:2:0:0:
422,123,9892,1,10,0:2:0:0:
205,249,10042,1,10,0:2:0:0:
459,281,10192,1,10,0:2:0:0:
332,218,10342,1,0,1:0:0:0:
332,218,10417,1,8,0:0:0:0:
332,218,10492,1,8,0:0:0:0:
180,166,10642,5,0,1:0:0:0:
180,166,10717,1,8,0:0:0:0:
180,166,10792,2,0,B|144:156|93:174|134:190|74:210|40:201,1,150,6|0,1:2|0:0,0:0:0:0:
16,191,11092,2,0,P|4:142|18:95,1,100,10|0,0:0|0:0,0:0:0:0:
165,242,11392,1,0,1:2:0:0:
27,287,11542,1,0,1:2:0:0:
109,95,11692,2,0,P|157:80|209:82,1,100,8|0,0:0|0:0,0:0:0:0:
416,288,11992,5,2,1:2:0:0:
474,134,12142,1,0,0:2:0:0:
409,306,12292,1,8,0:2:0:0:
289,165,12442,1,2,0:2:0:0:
486,232,12592,1,0,1:2:0:0:
308,262,12742,1,0,1:2:0:0:
390,92,12892,2,0,P|383:141|380:191,1,100,8|0,0:2|0:2,0:2:0:0:
206,81,13192,6,0,P|243:48|291:42,1,100,2|0,1:2|0:0,0:0:0:0:
191,231,13492,2,0,P|142:224|105:192,1,100,8|0,0:2|0:0,0:0:0:0:
115,35,13792,1,0,1:2:0:0:
281,132,13942,1,0,1:2:0:0:
104,192,14092,2,0,L|5:181,1,100,8|0,0:0|0:0,0:0:0:0:
164,334,14392,5,0,1:2:0:0:
281,131,14542,2,0,P|276:181|273:231,1,100,2|8,0:2|0:0,0:0:0:0:
103,192,14842,2,0,P|145:219|186:248,1,100,2|0,0:0|1:0,0:0:0:0:
74,377,15142,2,0,P|118:354|164:334,1,100,2|8,1:2|0:0,0:0:0:0:
360,276,15442,1,2,0:0:0:0:
141,116,15592,6,0,P|58:116|19:222,1,200,6|10,1:2|0:0,0:0:0:0:
74,377,16042,1,2,0:0:0:0:
198,224,16192,1,2,1:2:0:0:
198,224,16342,2,0,L|104:192,1,100,2|8,1:2|0:0,0:0:0:0:
239,56,16642,1,2,0:0:0:0:
336,228,16792,6,0,P|383:216|416:179,1,100,2|0,1:2|0:2,0:0:0:0:
330,20,17092,1,8,0:0:0:0:
237,143,17242,1,2,0:0:0:0:
411,77,17392,1,0,1:2:0:0:
217,153,17542,1,0,1:2:0:0:
418,272,17692,2,0,P|431:225|416:178,1,100,8|2,0:2|0:0,0:0:0:0:
239,56,17992,5,14,0:2:0:0:
85,150,18142,1,0,1:0:0:0:
236,247,18292,1,0,1:0:0:0:
70,67,18442,5,14,0:2:0:0:
74,229,18592,1,0,1:0:0:0:
217,153,18742,1,0,1:0:0:0:
11,287,18892,5,14,0:2:0:0:
143,355,19042,1,0,1:0:0:0:
236,247,19192,1,0,1:0:0:0:
70,66,19342,6,0,P|39:106|34:155,1,100,14|0,0:0|1:0,0:0:0:0:
143,355,19642,1,0,1:0:0:0:
382,343,19792,6,0,P|430:331|479:322,1,100,14|0,0:0|1:0,0:0:0:0:
132,176,20092,2,0,P|82:167|34:154,1,100,14|0,0:0|1:0,0:0:0:0:
352,32,20392,6,0,L|358:91,1,59.9999981689454,6|0,1:2|0:0,0:0:0:0:
280,88,20692,2,0,L|286:147,1,59.9999981689454,2|0,1:2|0:0,0:0:0:0:
132,176,20992,6,0,L|125:235,1,59.9999981689454,2|0,1:2|0:0,0:0:0:0:
204,232,21292,2,0,L|197:291,1,59.9999981689454,2|0,1:2|0:0,0:0:0:0:
298,238,21592,6,0,L|357:231,1,59.9999981689454,2|0,1:2|0:0,0:0:0:0:
354,310,21892,2,0,L|413:303,1,59.9999981689454,2|0,1:2|0:0,0:0:0:0:
197,291,22192,6,0,L|137:284,1,59.9999981689454,2|0,1:2|0:0,0:0:0:0:
141,363,22492,2,0,L|81:356,1,59.9999981689454,2|0,1:2|0:0,0:0:0:0:
0,160,22792,6,0,P|21:139|50:134,1,59.9999981689454,2|0,1:2|0:0,0:0:0:0:
116,89,23092,2,0,P|97:66|69:58,1,59.9999981689454,2|0,1:2|0:0,0:0:0:0:
191,69,23392,2,0,P|197:97|187:125,1,59.9999981689454,2|0,1:2|0:3,0:3:0:0:
196,201,23692,2,0,P|225:196|247:176,1,59.9999981689454,2|0,1:2|0:3,0:3:0:0:
174,276,23992,2,0,P|145:267|126:244,1,59.9999981689454,2|0,1:2|0:3,0:3:0:0:
55,213,24292,2,0,P|45:241|52:270,1,59.9999981689454,2|0,1:2|0:3,0:3:0:0:
120,169,24592,1,2,1:2:0:0:
120,169,24892,1,0,1:2:0:0:
288,352,25192,6,0,L|292:292,1,59.9999981689454,2|0,1:2|0:0,0:0:0:0:
369,306,25492,2,0,L|373:246,1,59.9999981689454,2|0,1:2|0:0,0:0:0:0:
512,192,25792,6,0,L|507:132,1,59.9999981689454,2|0,1:2|0:0,0:0:0:0:
431,146,26092,2,0,L|426:86,1,59.9999981689454,2|0,1:2|0:0,0:0:0:0:
320,32,26392,6,0,L|315:91,1,59.9999981689454,2|0,1:2|0:0,0:0:0:0:
239,78,26692,2,0,L|234:137,1,59.9999981689454,2|0,1:2|0:0,0:0:0:0:
96,192,26992,6,0,L|100:251,1,59.9999981689454,2|0,1:2|0:0,0:0:0:0:
177,238,27292,2,0,L|181:297,1,59.9999981689454,2|0,1:2|0:0,0:0:0:0:
357,190,27592,6,0,P|327:184|300:194,1,59.9999981689454,2|0,1:2|0:0,0:0:0:0:
436,216,27892,2,0,P|441:186|431:159,1,59.9999981689454,2|0,1:2|0:0,0:0:0:0:
413,293,28192,2,0,P|442:298|469:288,1,59.9999981689454,2|0,1:2|0:0,0:0:0:0:
334,267,28492,2,0,P|328:296|338:323,1,59.9999981689454,2|0,1:2|0:0,0:0:0:0:
256,352,28792,5,2,1:2:0:0:
194,303,28942,2,0,L|197:273,2,29.9999990844727,2|2|2,0:3|0:3|1:2,0:0:0:0:
133,352,29242,1,2,0:3:0:0:
69,306,29392,1,2,1:2:0:0:
69,306,29542,1,2,0:3:0:0:
124,250,29692,1,2,1:3:0:0:
0,64,29992,6,0,L|59:60,1,59.9999981689454,2|0,1:2|0:0,0:0:0:0:
94,130,30292,2,0,L|153:126,1,59.9999981689454,2|0,1:2|0:0,0:0:0:0:
256,32,30592,6,0,L|315:35,1,59.9999981689454,2|0,1:2|0:0,0:0:0:0:
345,106,30892,2,0,L|404:109,1,59.9999981689454,2|0,1:2|0:0,0:0:0:0:
512,224,31192,6,0,L|505:299,1,59.9999981689454,2|0,1:2|0:0,0:0:0:0:
431,307,31492,2,0,L|424:232,1,59.9999981689454,2|0,1:2|0:0,0:0:0:0:
354,214,31792,2,0,P|312:254|254:251,1,119.999996337891,2|0,1:2|1:0,0:0:0:0:
128,158,32392,6,0,L|135:277,1,119.999996337891,2|2,1:2|1:2,0:0:0:0:
88,340,32842,1,2,0:0:0:0:
23,296,32992,2,0,L|26:236,1,59.9999981689454,2|2,1:2|0:0,0:0:0:0:
33,158,33292,2,0,P|37:114|68:83,1,89.9999972534181,2|0,1:2|0:0,0:0:0:0:
109,78,33592,6,0,L|180:83,1,59.9999981689454,2|2,1:2|0:2,0:0:0:0:
218,22,33892,2,0,L|289:17,1,59.9999981689454,2|0,1:2|0:2,0:0:0:0:
355,14,34192,2,0,P|397:53|389:110,1,119.999996337891,2|0,1:2|1:0,0:0:0:0:
332,162,34642,5,0,3:0:0:0:
332,162,34717,1,0,3:0:0:0:
332,162,34792,2,0,P|302:212|247:232,1,119.999996337891,10|2,0:0|1:2,0:0:0:0:
148,110,35392,2,0,P|206:109|251:148,1,119.999996337891,2|0,1:2|1:0,0:0:0:0:
195,294,35992,2,0,P|165:243|176:185,2,119.999996337891,0|0|2,1:3|1:3|1:2,0:3:0:0:
325,380,36892,1,2,1:2:0:0:
452,289,37192,6,0,L|448:202,1,59.9999981689454,2|2,1:2|0:0,0:0:0:0:
449,229,37492,1,2,1:2:0:0:
502,164,37642,2,0,P|447:147|394:171,1,119.999996337891,2|2,0:0|0:0,0:0:0:0:
317,137,38092,2,0,L|319:77,1,59.9999981689454,2|0,1:2|0:0,0:0:0:0:
192,128,38392,5,4,1:2:0:0:
192,128,39292,1,8,0:0:0:0:
132,203,39442,5,8,0:0:0:0:
132,203,39517,1,8,0:0:0:0:
132,203,39592,2,0,B|171:196|209:211|180:227|227:244|257:234,1,134.999995880127,6|0,1:2|0:0,0:0:0:0:
293,233,39892,2,0,P|317:195|322:151,1,89.9999972534181,10|0,0:0|0:0,0:0:0:0:
221,35,40192,1,2,1:2:0:0:
322,151,40342,1,2,1:2:0:0:
423,31,40492,2,0,P|458:57|472:99,1,89.9999972534181,10|2,0:0|0:0,0:0:0:0:
473,208,40792,5,2,1:2:0:0:
395,326,40942,1,2,1:2:0:0:
257,234,41092,1,10,0:0:0:0:
148,354,41242,2,0,P|161:266|176:177,1,179.999994506836,2|0,0:0|1:2,0:0:0:0:
45,72,41692,2,0,P|43:117|60:158,1,89.9999972534181,8|2,0:0|0:0,0:0:0:0:
243,22,41992,5,2,1:2:0:0:
124,104,42142,1,2,0:0:0:0:
274,176,42292,2,0,P|362:162|452:152,1,179.999994506836,8|2,0:0|1:2,0:0:0:0:
512,233,42742,1,0,1:0:0:0:
405,68,42892,1,8,0:0:0:0:
297,255,43042,6,0,B|248:267|192:244|233:227|176:203|128:217,1,179.999994506836,2|0,0:2|0:0,0:0:0:0:
185,316,43492,1,10,0:0:0:0:
278,171,43642,2,0,P|241:145|200:127,1,89.9999972534181,2|0,0:0|1:0,0:0:0:0:
74,292,43942,1,0,1:0:0:0:
15,217,44092,2,0,P|18:173|31:130,1,89.9999972534181,8|0,0:0|0:0,0:0:0:0:
164,39,44392,5,2,1:2:0:0:
328,80,44542,1,2,0:2:0:0:
351,250,44692,1,10,0:2:0:0:
200,127,44842,1,2,0:2:0:0:
74,292,44992,1,2,1:2:0:0:
122,177,45142,1,2,1:2:0:0:
258,269,45292,2,0,P|214:269|172:253,1,89.9999972534181,10|0,0:0|0:0,0:0:0:0:
164,39,45592,6,0,P|230:95|316:82,1,179.999994506836,2|10,1:2|0:0,0:0:0:0:
436,17,46042,1,2,0:0:0:0:
512,155,46192,2,0,P|477:126|434:118,1,89.9999972534181,2|0,1:2|1:2,0:0:0:0:
386,291,46492,2,0,P|430:283|474:275,1,89.9999972534181,10|0,0:0|0:0,0:0:0:0:
319,177,46792,6,0,B|255:172|255:172|216:186|216:186|141:182,1,179.999994506836,2|10,1:2|0:0,0:0:0:0:
27,301,47242,1,0,0:0:0:0:
27,301,47392,2,0,L|130:293,1,89.9999972534181,2|0,1:2|1:0,0:0:0:0:
164,100,47692,2,0,P|98:105|57:156,1,134.999995880127,10|0,0:0|0:0,0:0:0:0:
40,187,47992,6,0,P|21:148|27:98,1,89.9999972534181,2|0,1:2|0:0,0:0:0:0:
259,0,48292,2,0,L|244:91,1,89.9999972534181,10|0,0:0|0:0,0:0:0:0:
212,275,48592,1,2,1:2:0:0:
212,275,48742,1,0,1:0:0:0:
141,182,48892,2,0,L|244:190,1,89.9999972534181,8|0,0:2|0:0,0:0:0:0:
483,281,49192,6,0,P|418:339|334:318,1,179.999994506836,6|10,1:2|0:0,0:0:0:0:
408,163,49642,1,0,0:0:0:0:
408,163,49792,2,0,L|397:260,1,89.9999972534181,2|0,1:2|1:0,0:0:0:0:
303,99,50092,2,0,P|291:56|306:15,1,89.9999972534181,10|0,0:0|0:0,0:0:0:0:
424,67,50392,5,2,1:2:0:0:
424,67,50542,1,0,0:2:0:0:
326,186,50692,2,0,L|236:180,1,89.9999972534181,10|0,0:2|0:0,0:0:0:0:
109,229,50992,1,2,1:2:0:0:
109,229,51142,1,0,1:2:0:0:
158,315,51292,2,0,L|248:308,1,89.9999972534181,8|0,0:2|0:0,0:0:0:0:
63,138,51592,6,0,P|12:197|30:296,1,179.999994506836,2|10,1:2|0:0,0:0:0:0:
162,126,52042,1,0,0:0:0:0:
162,126,52192,2,0,L|156:34,1,89.9999972534181,2|0,1:2|1:0,0:0:0:0:
238,178,52492,2,0,P|280:193|323:181,1,89.9999972534181,10|2,0:0|0:0,0:0:0:0:
453,15,52792,5,2,1:2:0:0:
462,176,52942,1,2,0:2:0:0:
338,59,53092,1,10,0:2:0:0:
512,95,53242,1,2,0:2:0:0:
338,59,53392,2,0,L|215:66,1,89.9999972534181,2|0,1:2|1:0,0:0:0:0:
159,101,53692,2,0,P|151:57|162:15,1,89.9999972534181,8|0,0:0|0:0,0:0:0:0:
283,147,53992,6,0,L|295:284,1,134.999995880127,2|0,1:2|0:2,0:2:0:0:
293,330,54292,2,0,P|333:310|377:312,1,89.9999972534181,8|0,0:0|0:0,0:0:0:0:
512,369,54592,1,2,1:2:0:0:
434,207,54742,1,2,1:2:0:0:
349,384,54892,1,8,0:0:0:0:
198,200,55042,6,0,B|149:188|93:211|134:228|77:252|29:238,1,179.999994506836,2|0,0:2|0:0,0:0:0:0:
40,76,55492,2,0,L|64:179,1,89.9999972534181,8|2,0:0|0:0,0:0:0:0:
170,278,55792,1,2,1:2:0:0:
103,351,55942,2,0,L|0:327,1,89.9999972534181,2|8,1:2|0:0,0:0:0:0:
205,182,56242,6,0,P|242:206|259:249,1,89.9999972534181,2|0,0:0|1:0,0:0:0:0:
233,343,56542,1,2,0:0:0:0:
170,278,56692,2,0,L|350:259,1,179.999994506836,8|0,0:0|1:0,0:0:0:0:
504,308,57142,1,0,1:0:0:0:
447,367,57292,2,0,P|423:329|424:285,1,89.9999972534181,8|0,0:0|0:0,0:0:0:0:
492,93,57592,5,0,1:0:0:0:
394,188,57742,1,0,1:0:0:0:
266,131,57892,2,0,L|165:138,1,89.9999972534181,8|0,0:0|0:0,0:0:0:0:
106,229,58192,1,0,1:0:0:0:
131,63,58342,1,8,0:0:0:0:
251,214,58492,1,8,0:0:0:0:
276,19,58642,1,8,0:0:0:0:
492,93,58792,6,0,L|327:75,1,160,6|2,1:2|1:2,0:0:0:0:
266,131,59242,1,0,1:0:0:0:
206,65,59392,2,0,P|128:63|81:123,1,160,10|2,0:2|1:2,0:2:0:0:
161,220,59842,1,0,1:0:0:0:
161,220,60142,2,0,P|169:169|164:131,1,80,8|0,0:0|0:0,0:0:0:0:
68,213,60442,1,0,1:0:0:0:
140,307,60592,2,0,P|210:300|247:220,1,160,8|0,0:0|0:0,0:0:0:0:
512,318,61192,6,0,P|480:293|441:285,1,80,2|0,1:2|0:0,0:0:0:0:
472,203,61492,2,0,P|433:197|396:210,1,80,2|0,1:2|0:0,0:0:0:0:
379,122,61792,2,0,P|342:136|316:166,1,80,10|0,0:2|0:0,0:0:0:0:
290,336,62092,6,0,P|274:218|259:98,1,240,6|0,1:2|0:0,0:0:0:0:
179,45,62692,2,0,P|140:52|110:77,1,80,0|0,1:2|0:0,0:0:0:0:
47,193,62992,1,2,1:2:0:0:
211,293,63142,1,8,0:0:0:0:
179,122,63292,1,10,0:0:0:0:
94,294,63442,1,8,0:0:0:0:
316,166,63592,6,0,B|365:154|421:177|380:194|437:218|485:204,1,179.999994506836,6|8,1:2|0:0,0:0:0:0:
414,100,64042,2,0,P|372:83|327:84,1,89.9999972534181,2|0,0:0|1:0,0:0:0:0:
228,204,64342,1,2,1:2:0:0:
300,283,64492,2,0,L|390:275,1,89.9999972534181,8|0,0:0|0:0,0:0:0:0:
232,364,64792,5,2,1:2:0:0:
159,283,64942,2,0,P|114:276|73:291,1,89.9999972534181,2|8,0:0|0:0,0:0:0:0:
0,130,65242,2,0,P|63:189|149:178,1,179.999994506836,2|0,0:0|1:2,0:0:0:0:
201,17,65692,2,0,P|130:22|98:78,1,134.999995880127,10|0,0:0|0:0,0:0:0:0:
92,105,65992,6,0,P|137:98|182:96,1,89.9999972534181,2|0,1:2|0:0,0:0:0:0:
287,12,66292,2,0,P|303:54|324:94,1,89.9999972534181,10|0,0:2|0:0,0:0:0:0:
474,37,66592,2,0,P|429:30|384:28,1,89.9999972534181,2|0,1:2|1:0,0:0:0:0:
363,187,66892,2,0,P|439:194|422:118,1,179.999994506836,10|0,0:2|0:0,0:0:0:0:
244,205,67342,5,8,0:0:0:0:
83,46,67492,1,8,0:0:0:0:
265,206,67792,5,8,0:0:0:0:
76,328,67942,1,8,0:0:0:0:
272,186,68242,5,8,0:0:0:0:
381,382,68392,1,8,0:0:0:0:
255,174,68692,5,8,0:0:0:0:
479,169,68842,1,8,0:0:0:0:
453,165,69592,6,0,B|373:159|373:159|327:181|327:181|237:175,1,220.000006713867,6|10,1:2|0:0,0:3:0:0:
88,46,70042,1,2,0:3:0:0:
88,46,70117,1,2,0:3:0:0:
88,46,70192,2,0,P|101:101|109:176,1,110.000003356934,2|0,1:2|1:0,0:0:0:0:
145,360,70492,2,0,P|152:305|164:251,1,110.000003356934,8|0,0:2|0:0,0:0:0:0:
334,70,70792,6,0,L|356:289,2,220.000006713867,2|8|2,1:2|0:0|1:2,0:0:0:0:
250,197,71542,1,0,1:2:0:0:
445,113,71692,2,0,L|434:234,1,110.000003356934,10|0,0:0|0:0,0:0:0:0:
146,364,71992,6,0,P|107:325|100:271,1,110.000003356934,2|0,1:2|0:0,0:0:0:0:
190,116,72292,1,8,0:0:0:0:
355,288,72442,1,2,0:3:0:0:
355,288,72517,1,2,0:3:0:0:
355,288,72592,2,0,P|300:280|245:279,1,110.000003356934,2|0,1:2|1:0,0:0:0:0:
25,170,72892,2,0,P|102:190|168:145,1,165.000005035401,8|0,0:0|0:0,0:0:0:0:
190,116,73192,6,0,B|243:95|320:118|269:144|345:169|397:147,1,220.000006713867,2|8,1:2|0:0,0:0:0:0:
318,26,73642,1,0,0:0:0:0:
444,221,73792,2,0,P|478:178|479:124,1,110.000003356934,2|0,1:2|1:0,0:0:0:0:
318,26,74092,2,0,P|235:29|153:35,1,165.000005035401,10|0,0:0|0:0,0:0:0:0:
102,11,74392,6,0,B|54:60|54:60|80:212,1,220.000006713867,6|8,1:2|0:0,0:0:0:0:
205,355,74842,1,2,0:3:0:0:
205,355,74917,1,2,0:3:0:0:
205,355,74992,2,0,L|225:240,1,110.000003356934,2|0,1:2|1:0,0:0:0:0:
432,334,75292,2,0,P|384:359|330:355,1,110.000003356934,8|0,0:0|0:0,0:0:0:0:
169,147,75592,6,0,P|235:131|316:188,1,165.000005035401,2|0,1:2|0:0,0:0:0:0:
343,212,75892,2,0,P|348:157|353:102,1,110.000003356934,10|0,0:0|0:0,0:0:0:0:
223,246,76192,2,0,P|228:301|233:356,1,110.000003356934,2|0,1:2|1:0,0:0:0:0:
32,265,76492,2,0,P|75:231|129:231,1,110.000003356934,10|0,0:0|0:0,0:0:0:0:
327,313,76792,6,0,P|382:310|425:277,1,110.000003356934,2|0,1:2|0:2,0:0:0:0:
353,102,77092,2,0,P|348:157|343:212,1,110.000003356934,10|0,0:0|0:0,0:0:0:0:
477,71,77392,1,2,1:2:0:0:
512,224,77542,1,0,1:0:0:0:
376,17,77692,2,0,P|321:16|277:48,1,110.000003356934,10|0,0:0|0:0,0:0:0:0:
161,0,77992,6,0,P|175:109|190:218,1,220.000006713867,2|8,1:2|0:0,0:0:0:0:
62,335,78442,1,2,0:3:0:0:
62,335,78517,1,2,0:3:0:0:
62,335,78592,2,0,L|78:198,1,110.000003356934,0|0,1:0|1:0,0:0:0:0:
317,308,78892,2,0,P|237:315|177:261,1,165.000005035401,10|0,0:0|0:0,0:0:0:0:
190,218,79192,6,0,B|249:241|249:241|406:220,1,220.000006713867,6|10,1:2|0:0,0:0:0:0:
471,307,79642,1,0,0:0:0:0:
471,307,79792,2,0,P|509:255|511:205,1,110.000003356934,2|0,1:2|1:0,0:0:0:0:
416,12,80092,2,0,P|378:64|376:114,1,110.000003356934,10|0,0:2|0:0,0:0:0:0:
265,12,80392,6,0,B|212:-9|135:14|186:40|110:65|58:43,1,220.000006713867,2|8,1:2|0:0,0:0:0:0:
10,143,80842,1,2,0:3:0:0:
10,143,80917,1,2,0:3:0:0:
10,143,80992,2,0,P|86:152|145:159,1,110.000003356934,2|0,1:2|1:2,0:0:0:0:
319,215,81292,2,0,P|245:184|232:106,1,165.000005035401,10|0,0:0|0:0,0:0:0:0:
244,63,81592,6,0,P|320:54|379:47,1,110.000003356934,2|0,1:2|0:2,0:0:0:0:
119,155,81892,2,0,P|43:146|-16:139,1,110.000003356934,10|0,0:2|0:2,0:0:0:0:
155,348,82192,2,0,P|164:272|171:213,1,110.000003356934,2|0,1:2|1:2,0:0:0:0:
353,50,82492,2,0,P|362:126|369:185,1,110.000003356934,10|0,0:2|0:2,0:0:0:0:
322,326,82792,6,0,P|382:273|463:277,1,165.000005035401,2|0,1:2|0:0,0:0:0:0:
497,305,83092,2,0,P|506:229|513:170,1,110.000003356934,8|0,0:2|0:2,0:0:0:0:
416,366,83392,1,2,1:2:0:0:
416,366,83542,1,0,1:2:0:0:
282,222,83692,2,0,P|227:215|172:209,1,110.000003356934,8|0,0:2|0:2,0:0:0:0:
0,346,83992,5,6,1:2:0:0:
51,155,84142,1,2,0:0:0:0:
227,315,84292,2,0,P|179:334|117:327,1,110.000003356934,8|0,0:2|0:2,0:0:0:0:
238,124,84592,2,0,P|292:118|342:138,1,110.000003356934,2|0,1:2|1:2,0:0:0:0:
417,368,84892,1,10,0:0:0:0:
512,189,85042,6,0,B|459:168|382:191|433:217|357:242|305:220,1,220.000006713867,2|0,0:2|0:0,0:0:0:0:
172,123,85492,1,8,0:0:0:0:
90,259,85642,2,0,P|138:284|191:276,1,110.000003356934,2|0,0:2|1:2,0:0:0:0:
342,138,85942,1,0,1:0:0:0:
245,37,86092,2,0,P|253:91|262:145,1,110.000003356934,10|0,0:0|0:0,0:0:0:0:
303,359,86392,5,2,1:2:0:0:
152,202,86542,1,2,0:2:0:0:
18,375,86692,1,10,0:0:0:0:
191,276,86842,2,0,L|329:251,1,110.000003356934,2|0,0:0|1:2,0:0:0:0:
126,352,87142,1,0,1:0:0:0:
71,271,87292,2,0,P|48:221|57:169,1,110.000003356934,8|2,0:0|0:0,0:0:0:0:
245,37,87592,5,10,0:0:0:0:
245,37,87742,2,0,L|354:58,1,110.000003356934,2|8,1:2|0:0,0:0:0:0:
472,251,88042,1,2,1:2:0:0:
316,158,88192,1,10,0:0:0:0:
505,95,88342,1,2,1:2:0:0:
403,326,88492,2,0,P|345:345|295:325,1,110.000003356934,14|0,0:0|0:0,0:0:0:0:
0,318,88792,6,0,B|80:312|80:312|130:335|130:335|216:328,1,220.000006713867,6|10,1:2|0:0,0:3:0:0:
358,157,89242,1,2,0:3:0:0:
358,157,89317,1,2,0:3:0:0:
358,157,89392,2,0,L|349:270,1,110.000003356934,2|0,1:2|1:0,0:0:0:0:
152,206,89692,2,0,L|143:96,1,110.000003356934,10|0,0:2|0:0,0:0:0:0:
358,33,89992,6,0,P|429:50|464:185,2,220.000006713867,2|8|2,1:2|0:0|1:2,0:0:0:0:
256,160,90742,1,0,1:2:0:0:
72,69,90892,2,0,P|108:29|161:25,1,110.000003356934,10|0,0:0|0:0,0:0:0:0:
272,175,91192,6,0,L|162:188,1,110.000003356934,2|0,1:2|0:0,0:0:0:0:
72,326,91492,1,8,0:0:0:0:
9,141,91642,1,2,0:3:0:0:
9,141,91717,1,2,0:3:0:0:
9,141,91792,2,0,P|17:195|26:249,1,110.000003356934,2|0,1:2|1:0,0:0:0:0:
211,373,92092,2,0,P|233:297|314:296,1,165.000005035401,8|0,0:2|0:0,0:0:0:0:
342,320,92392,6,0,B|363:267|340:190|314:241|289:165|311:113,1,220.000006713867,2|8,1:2|0:0,0:0:0:0:
430,163,92842,1,0,0:0:0:0:
230,85,92992,2,0,P|264:43|317:33,1,110.000003356934,2|0,1:2|1:0,0:0:0:0:
430,163,93292,2,0,P|453:243|455:328,1,165.000005035401,10|0,0:0|0:0,0:0:0:0:
424,356,93592,6,0,B|269:376|269:376|214:341,1,220.000006713867,6|8,1:2|0:0,0:0:0:0:
135,209,94042,1,2,0:3:0:0:
135,209,94117,1,2,0:3:0:0:
135,209,94192,2,0,L|252:224,1,110.000003356934,2|0,1:2|1:0,0:0:0:0:
406,92,94492,2,0,P|352:86|299:116,1,110.000003356934,10|0,0:0|0:0,0:0:0:0:
49,39,94792,6,0,P|122:75|199:53,1,165.000005035401,2|0,1:2|0:0,0:0:0:0:
226,18,95092,2,0,L|220:129,1,110.000003356934,10|0,0:0|0:0,0:0:0:0:
374,278,95392,2,0,L|368:167,1,110.000003356934,2|0,1:2|1:0,0:0:0:0:
143,200,95692,2,0,P|190:225|244:220,1,110.000003356934,10|0,0:0|0:0,0:0:0:0:
441,343,95992,6,0,P|393:368|339:363,1,110.000003356934,2|0,1:2|0:0,0:0:0:0:
368,167,96292,2,0,P|422:163|469:188,1,110.000003356934,10|0,0:2|0:0,0:0:0:0:
286,304,96592,1,2,1:2:0:0:
220,127,96742,1,0,1:0:0:0:
86,273,96892,2,0,P|54:228|52:174,1,110.000003356934,10|0,0:2|0:0,0:0:0:0:
138,14,97192,6,0,B|189:46|189:46|355:22,1,220.000006713867,2|8,1:2|0:0,0:0:0:0:
451,94,97642,1,0,0:0:0:0:
341,229,97792,1,2,1:2:0:0:
341,229,97942,2,0,L|233:213,1,110.000003356934,2|8,1:2|0:0,0:0:0:0:
114,107,98242,1,2,0:0:0:0:
27,348,98392,6,0,P|80:371|136:354,1,119.999996337891,14|0,0:0|0:0,0:0:0:0:
282,148,98692,2,0,P|226:132|173:155,1,119.999996337891,10|0,0:0|0:0,0:0:0:0:
315,361,98992,5,10,0:0:0:0:
232,212,99142,1,0,1:0:0:0:
138,354,99292,5,10,0:0:0:0:
341,229,99442,1,0,1:0:0:0:
114,107,99592,5,10,0:0:0:0:
198,289,99742,1,0,0:0:0:0:
263,65,99892,5,10,0:0:0:0:
232,212,100042,1,0,0:0:0:0:
509,135,100192,5,10,0:0:0:0:
341,229,100342,1,0,1:0:0:0:
512,361,100492,5,10,0:0:0:0:
309,332,100642,1,0,1:0:0:0:
113,232,100792,6,0,P|171:219|231:211,1,119.999996337891,14|0,0:0|0:0,0:0:0:0:
427,351,101092,2,0,P|368:339|308:331,1,119.999996337891,10|0,0:0|0:0,0:0:0:0:
511,278,101392,5,10,0:0:0:0:
426,105,101542,1,0,1:2:0:0:
341,229,101692,5,10,0:0:0:0:
512,167,101842,1,0,1:0:0:0:
305,59,101992,5,10,0:0:0:0:
420,186,102142,1,0,0:0:0:0:
204,30,102292,5,8,0:0:0:0:
255,232,102442,1,0,0:0:0:0:
98,4,102592,5,8,0:0:0:0:
85,278,102742,1,0,1:0:0:0:
98,4,102892,2,0,L|115:126,1,119.999996337891,10|0,0:0|1:0,0:0:0:0:
120,361,103192,6,0,P|65:364|16:340,1,110.000003356934,6|0,1:2|0:0,0:0:0:0:
115,123,103492,2,0,P|163:99|218:102,1,110.000003356934,10|0,0:2|0:0,0:0:0:0:
351,264,103792,1,2,1:2:0:0:
271,368,103942,1,0,1:0:0:0:
167,292,104092,2,0,L|182:177,1,110.000003356934,10|0,0:0|0:0,0:0:0:0:
403,3,104392,6,0,L|430:225,1,220.000006713867,2|8,1:2|0:0,0:0:0:0:
347,331,104842,1,2,0:3:0:0:
347,331,104917,1,2,0:3:0:0:
347,331,104992,2,0,P|306:294|253:287,1,110.000003356934,2|0,1:2|1:0,0:0:0:0:
73,336,105292,2,0,P|126:328|166:291,1,110.000003356934,8|2,0:2|0:0,0:0:0:0:
336,185,105592,5,8,0:0:0:0:
294,187,105667,1,8,0:0:0:0:
253,183,105742,1,8,0:0:0:0:
216,166,105817,1,8,0:0:0:0:
186,138,105892,1,10,0:0:0:0:
153,114,105967,1,8,0:0:0:0:
113,104,106042,1,8,0:0:0:0:
72,103,106117,1,8,0:0:0:0:
31,108,106192,6,0,P|36:139|39:168,1,55.0000016784668,8|8,0:0|0:0,0:0:0:0:
206,57,106342,2,0,P|208:27|213:-2,1,55.0000016784668,8|8,0:0|0:0,0:0:0:0:
374,173,106492,5,8,3:0:0:0:
423,143,106567,1,8,3:0:0:0:
435,87,106642,1,12,3:0:0:0:
400,40,106717,1,12,3:0:0:0:
343,35,106792,1,4,1:2:0:0:
