osu file format v14

[General]
AudioFilename: audio.mp3
AudioLeadIn: 0
PreviewTime: 69510
Countdown: 0
SampleSet: Soft
StackLeniency: 0.5
Mode: 0
LetterboxInBreaks: 0
WidescreenStoryboard: 1

[Editor]
DistanceSpacing: 1.1
BeatDivisor: 4
GridSize: 32
TimelineZoom: 1

[Metadata]
Title:Blue Youth
TitleUnicode:ブルーユース
Artist:Hikarinonakani
ArtistUnicode:ひかりのなかに
Creator:xHappy-
Version:Hard
Source:
Tags:rock japanese j-rock jrock ヤマシタカホ yamashita kaho p_kung
BeatmapID:3236152
BeatmapSetID:1584289

[Difficulty]
HPDrainRate:5
CircleSize:3.6
OverallDifficulty:6
ApproachRate:8
SliderMultiplier:1.5
SliderTickRate:1

[Events]
//Background and Video events
0,0,"BG.jpg",0,0
//Break Periods
//Storyboard Layer 0 (Background)
//Storyboard Layer 1 (Fail)
//Storyboard Layer 2 (Pass)
//Storyboard Layer 3 (Foreground)
//Storyboard Layer 4 (Overlay)
//Storyboard Sound Samples

[TimingPoints]
1192,300,4,2,1,60,1,0
1192,-125,4,2,1,60,0,0
9592,-111.111111111111,4,2,1,70,0,0
10792,-100,4,2,1,80,0,0
20392,-125,4,2,1,60,0,0
39592,-111.111111111111,4,2,1,70,0,0
54217,-111.111111111111,4,2,1,5,0,0
54292,-111.111111111111,4,2,1,70,0,0
58792,-125,4,2,1,60,0,0
63592,-111.111111111111,4,2,1,70,0,0
69292,-100,4,2,1,80,0,0
69592,-90.9090909090909,4,2,1,90,0,1
98392,-83.3333333333333,4,2,1,100,0,1
103192,-90.9090909090909,4,2,1,90,0,1
105667,-90.9090909090909,4,2,1,45,0,1
105892,-90.9090909090909,4,2,1,90,0,1
105967,-90.9090909090909,4,2,1,45,0,1
106192,-90.9090909090909,4,2,1,90,0,1
106267,-90.9090909090909,4,2,1,45,0,1
106492,-90.9090909090909,4,2,1,90,0,1
106792,-100,4,2,1,80,0,0

[Colours]
Combo1 : 162,134,255
Combo2 : 255,181,149
Combo3 : 0,179,255
Combo4 : 220,148,109

[HitObjects]
262,24,1192,6,0,L|253:169,1,120,4|0,1:2|1:3,0:0:0:0:
144,192,1792,2,0,L|149:266,1,60,0|2,1:3|0:3,0:0:0:0:
91,313,2092,2,0,P|115:330|144:336,1,60,0|2,1:0|0:3,0:0:0:0:
225,312,2392,2,0,B|261:302|294:316|269:326|306:341|338:331,1,120,8|0,0:0|1:0,0:0:0:0:
419,353,2842,2,0,P|375:313|370:254,1,120,8|0,0:0|1:0,0:0:0:0:
410,180,3292,1,8,0:0:0:0:
425,165,3592,6,0,L|412:35,1,120,4|2,1:2|1:3,0:0:0:0:
338,7,4042,1,0,0:0:0:0:
338,7,4192,2,0,P|309:14|286:33,1,60,0|2,1:3|0:3,0:0:0:0:
226,91,4492,2,0,P|197:84|174:65,1,60,2|2,1:3|0:3,0:0:0:0:
112,6,4792,1,8,0:0:0:0:
112,6,4942,2,0,L|102:144,1,120,2|10,0:0|0:0,0:0:0:0:
35,172,5392,1,0,1:0:0:0:
35,172,5542,2,0,P|56:195|83:206,1,60,2|8,0:0|0:0,0:0:0:0:
158,241,5842,1,8,0:0:0:0:
241,183,5992,6,0,L|386:178,1,120,6|0,1:2|1:0,0:0:0:0:
423,122,6442,1,2,0:3:0:0:
423,122,6591,2,0,P|443:177|424:232,1,120,2|0,1:2|1:0,0:0:0:0:
363,291,7042,1,2,0:3:0:0:
363,291,7192,2,0,B|326:281|294:295|319:305|282:320|249:310,1,120,10|0,0:0|1:0,0:0:0:0:
180,358,7642,2,0,P|166:331|166:301,1,60,10|0,0:0|1:0,0:0:0:0:
200,224,7942,1,2,0:0:0:0:
200,224,8092,2,0,P|213:197|213:167,1,60,10|0,0:0|0:0,0:0:0:0:
172,74,8392,6,0,B|208:93|208:93|313:77,1,120,14|0,0:0|1:0,0:0:0:0:
343,19,8842,1,8,0:0:0:0:
343,19,8992,2,0,P|401:18|448:55,1,120,2|8,1:2|0:0,0:0:0:0:
493,237,9592,1,10,0:2:0:0:
493,237,9742,1,10,0:2:0:0:
422,299,9892,1,10,0:2:0:0:
422,299,10042,1,10,0:2:0:0:
358,236,10192,1,10,0:2:0:0:
358,236,10342,2,0,L|364:183,2,33.7499989700318,0|8|8,1:0|0:0|0:0,0:0:0:0:
277,278,10642,5,0,1:0:0:0:
277,278,10717,1,8,0:0:0:0:
277,278,10792,2,0,B|247:268|194:282|231:305|169:322|137:313,1,150,6|10,1:2|0:0,0:0:0:0:
69,253,11242,1,0,0:0:0:0:
112,174,11392,1,0,1:2:0:0:
112,174,11542,2,0,P|133:143|136:106,1,75,0|8,1:2|0:0,0:0:0:0:
79,35,11842,1,0,0:0:0:0:
162,0,11992,2,0,L|315:7,1,150,2|8,1:2|0:2,0:0:0:0:
401,13,12442,1,2,0:0:0:0:
401,13,12592,2,0,P|409:49|398:84,1,75,0|0,1:2|1:2,0:0:0:0:
363,167,12892,1,8,0:2:0:0:
387,169,13192,6,0,P|437:188|455:277,1,150,2|8,1:2|0:2,0:0:0:0:
397,343,13642,1,0,0:0:0:0:
397,343,13792,2,0,L|322:336,1,75,0|0,1:2|1:2,0:0:0:0:
240,375,14092,2,0,P|231:339|239:303,1,75,8|0,0:0|0:0,0:0:0:0:
280,225,14392,1,0,1:2:0:0:
280,225,14542,2,0,P|289:188|281:152,1,75,2|8,0:2|0:0,0:0:0:0:
232,75,14842,2,0,L|82:82,1,150,2|2,0:0|1:2,0:0:0:0:
24,152,15292,1,8,0:0:0:0:
24,152,15442,1,2,0:0:0:0:
72,253,15592,6,0,B|110:282|110:282|215:277,1,150,6|10,1:2|0:0,0:0:0:0:
277,340,16042,1,2,0:0:0:0:
343,278,16192,1,2,1:2:0:0:
343,278,16342,2,0,L|444:280,1,75,2|8,1:2|0:0,0:0:0:0:
470,205,16642,1,2,0:0:0:0:
433,122,16792,2,0,P|368:157|295:148,1,150,2|8,1:2|0:0,0:0:0:0:
227,96,17242,1,2,0:0:0:0:
227,96,17392,2,0,P|211:129|211:166,2,75,0|0|8,1:2|1:2|0:2,0:0:0:0:
289,31,17842,1,2,0:0:0:0:
179,5,17992,6,0,L|90:13,1,75,14|0,0:2|1:2,0:0:0:0:
104,11,18292,1,0,1:2:0:0:
123,107,18442,6,0,L|65:175,1,75,14|0,0:2|1:2,0:0:0:0:
74,164,18742,1,0,1:2:0:0:
143,234,18892,6,0,L|151:323,1,75,14|0,0:2|1:2,0:0:0:0:
150,308,19192,1,2,1:2:0:0:
247,306,19342,6,0,L|315:363,1,75,14|0,0:2|1:2,0:0:0:0:
305,353,19642,1,0,1:2:0:0:
381,292,19792,5,14,0:2:0:0:
381,292,19942,1,0,1:2:0:0:
452,357,20092,2,0,P|473:326|477:289,1,75,14|0,0:0|1:0,0:0:0:0:
444,204,20392,6,0,L|453:84,1,120,6|2,1:2|1:2,0:0:0:0:
329,9,20992,2,0,L|320:129,1,120,2|2,1:2|1:2,0:0:0:0:
300,271,21592,1,2,1:2:0:0:
171,335,21892,1,2,1:2:0:0:
71,233,22192,2,0,P|118:199|178:197,1,120,2|2,1:2|1:2,0:0:0:0:
229,65,22792,5,2,1:2:0:0:
229,65,23092,1,2,1:2:0:0:
336,169,23392,1,2,1:2:0:0:
336,169,23692,1,2,1:2:0:0:
254,288,23992,1,2,1:2:0:0:
254,288,24292,1,2,1:2:0:0:
336,169,24592,2,0,P|394:167|470:165,1,120,2|0,1:2|1:0,0:0:0:0:
389,13,25192,6,0,P|337:42|278:38,1,120,2|2,1:2|1:2,0:0:0:0:
138,3,25792,2,0,P|78:-1|27:28,1,120,2|2,1:2|1:2,0:0:0:0:
85,177,26392,1,2,1:2:0:0:
190,78,26692,1,2,1:2:0:0:
85,177,26992,1,2,1:2:0:0:
167,294,27292,1,2,1:2:0:0:
268,192,27592,6,0,B|305:214|305:214|380:199,1,120,2|2,1:2|1:2,0:0:0:0:
274,101,28192,2,0,B|311:79|311:79|386:93,1,120,2|2,1:2|1:2,0:0:0:0:
496,186,28792,1,2,1:2:0:0:
466,258,28942,2,0,L|472:307,2,30,2|2|2,0:3|0:3|1:3,0:0:0:0:
392,295,29242,1,2,0:3:0:0:
392,295,29392,2,0,L|332:290,1,60,2|2,1:2|0:3,0:0:0:0:
254,287,29692,1,2,1:3:0:0:
109,370,29992,6,0,P|68:329|67:271,1,120,2|2,1:2|1:2,0:0:0:0:
85,197,30442,1,0,0:0:0:0:
85,197,30592,2,0,L|219:185,1,120,2|2,1:2|1:2,0:0:0:0:
338,240,31192,2,0,P|332:269|338:298,1,60,2|0,1:2|0:0,0:0:0:0:
416,298,31492,2,0,P|421:268|415:239,1,60,2|0,1:2|0:0,0:0:0:0:
440,165,31792,2,0,L|306:153,1,120,2|0,1:2|1:0,0:0:0:0:
210,61,32392,6,0,L|338:53,1,120,2|2,1:2|1:2,0:0:0:0:
391,4,32842,1,2,0:2:0:0:
391,4,32991,2,0,P|404:30|406:62,1,60,2|2,1:2|0:2,0:0:0:0:
374,132,33292,2,0,L|388:256,1,120,2|2,1:2|1:2,0:0:0:0:
457,296,33742,1,2,0:2:0:0:
457,296,33892,2,0,P|437:319|410:332,1,60,2|2,1:2|0:2,0:0:0:0:
326,310,34192,2,0,P|270:288|211:291,1,120,2|0,1:2|1:0,0:0:0:0:
126,346,34642,5,0,3:0:0:0:
126,346,34717,1,0,3:0:0:0:
126,346,34792,2,0,L|123:226,1,120,10|2,0:0|1:2,0:0:0:0:
36,110,35392,2,0,B|83:86|174:111|110:147|206:178|258:151,1,240,2|0,1:2|1:0,0:0:0:0:
370,59,36292,1,0,1:0:0:0:
370,59,36592,2,0,P|352:115|355:175,1,120,2|2,1:2|1:2,0:0:0:0:
476,253,37192,6,0,L|482:182,2,60,2|2|2,1:2|0:0|1:2,0:0:0:0:
424,311,37642,2,0,P|366:323|310:302,1,120,2|2,0:0|0:0,0:0:0:0:
256,244,38092,1,2,1:2:0:0:
143,334,38392,1,4,1:2:0:0:
143,334,39292,1,8,0:0:0:0:
76,278,39442,5,8,0:0:0:0:
76,278,39517,1,8,0:0:0:0:
76,278,39592,2,0,P|47:218|67:155,1,134.999995880127,6|10,1:2|0:0,0:0:0:0:
129,92,40042,1,0,0:0:0:0:
194,150,40192,2,0,P|211:121|212:87,1,67.4999979400635,2|2,1:2|1:2,0:0:0:0:
194,2,40492,1,10,0:0:0:0:
194,2,40642,1,2,0:0:0:0:
281,8,40792,2,0,L|348:15,1,67.4999979400635,2|2,1:2|1:2,0:0:0:0:
412,74,41092,1,10,0:0:0:0:
477,15,41242,2,0,P|499:79|471:141,1,134.999995880127,2|0,0:0|1:0,0:0:0:0:
394,178,41692,2,0,L|401:250,1,67.4999979400635,8|2,0:0|0:0,0:0:0:0:
340,336,41992,5,2,1:2:0:0:
340,336,42142,1,2,0:0:0:0:
266,287,42292,2,0,B|233:277|188:293|221:305|172:324|138:314,1,134.999995880127,8|2,0:0|1:2,0:0:0:0:
53,289,42742,2,0,P|50:322|58:355,1,67.4999979400635,0|8,1:0|0:0,0:0:0:0:
116,226,43042,2,0,L|106:92,1,134.999995880127,2|0,0:0|0:0,0:0:0:0:
37,36,43492,1,10,0:0:0:0:
105,91,43642,2,0,P|169:107|231:84,1,134.999995880127,2|0,0:0|1:0,0:0:0:0:
287,17,44092,1,8,0:0:0:0:
310,30,44392,6,0,L|381:25,1,67.4999979400635,2|2,1:2|0:2,0:0:0:0:
468,21,44692,1,10,0:2:0:0:
468,21,44842,1,2,0:2:0:0:
509,98,44992,2,0,L|504:165,1,67.4999979400635,2|2,1:2|1:2,0:0:0:0:
445,293,45292,2,0,L|441:226,1,67.4999979400635,10|0,0:0|0:0,0:0:0:0:
371,171,45592,2,0,P|307:154|249:186,1,134.999995880127,2|10,1:2|0:0,0:0:0:0:
183,135,46042,1,2,0:0:0:0:
183,135,46192,2,0,P|167:164|169:198,1,67.4999979400635,2|0,1:2|1:2,0:0:0:0:
213,274,46492,1,10,0:0:0:0:
200,293,46792,6,0,L|38:283,1,134.999995880127,2|10,1:2|0:0,0:0:0:0:
20,209,47242,1,0,0:0:0:0:
20,209,47392,2,0,P|40:183|49:151,1,67.4999979400635,2|0,1:2|1:0,0:0:0:0:
6,4,47692,2,0,P|15:36|35:63,1,67.4999979400635,10|0,0:0|0:0,0:0:0:0:
120,89,47992,2,0,L|279:73,2,134.999995880127,2|10|2,1:2|0:2|1:2,0:0:0:0:
157,173,48742,1,0,1:0:0:0:
157,173,48892,1,8,0:2:0:0:
177,185,49192,6,0,B|210:175|255:191|222:203|271:222|305:212,1,134.999995880127,6|10,1:2|0:0,0:0:0:0:
394,209,49642,1,0,0:0:0:0:
394,209,49792,2,0,P|391:242|375:272,1,67.4999979400635,2|0,1:2|1:0,0:0:0:0:
347,134,50092,2,0,L|339:60,1,67.4999979400635,10|0,0:0|0:0,0:0:0:0:
408,13,50392,2,0,P|473:17|505:73,2,134.999995880127,2|10|2,1:2|0:2|1:2,0:0:0:0:
339,66,51142,1,0,1:2:0:0:
339,66,51292,1,8,0:2:0:0:
323,48,51592,6,0,L|183:43,1,134.999995880127,2|10,1:2|0:0,0:0:0:0:
108,5,52042,1,0,0:0:0:0:
108,5,52192,2,0,P|96:38|105:76,1,67.4999979400635,2|0,1:2|1:0,0:0:0:0:
172,193,52492,2,0,P|177:160|166:129,1,67.4999979400635,10|2,0:0|0:0,0:0:0:0:
38,127,52792,1,2,1:2:0:0:
38,127,52942,1,2,0:2:0:0:
10,212,53092,1,10,0:2:0:0:
10,212,53242,1,2,0:2:0:0:
62,282,53392,2,0,L|129:285,1,67.4999979400635,2|0,1:2|1:0,0:0:0:0:
217,289,53692,1,8,0:0:0:0:
230,304,53992,6,0,P|268:337|318:342,1,101.249996910095,2|0,1:2|0:2,0:0:0:0:
359,328,54292,2,0,L|364:260,1,67.4999979400635,8|0,0:0|0:0,0:0:0:0:
286,141,54592,2,0,L|292:209,1,67.4999979400635,2|2,1:2|1:2,0:0:0:0:
373,173,54892,1,8,0:0:0:0:
373,173,55042,2,0,L|381:31,1,134.999995880127,2|0,0:0|0:0,0:0:0:0:
296,14,55492,2,0,P|262:10|232:23,1,67.4999979400635,8|2,0:0|0:0,0:0:0:0:
229,115,55792,1,2,1:2:0:0:
229,115,55942,2,0,P|262:118|292:105,1,67.4999979400635,2|8,1:2|0:0,0:0:0:0:
154,62,56242,6,0,B|121:52|76:68|109:80|60:99|26:89,1,134.999995880127,2|2,0:0|0:0,0:0:0:0:
3,177,56692,1,8,0:0:0:0:
19,198,56992,2,0,P|26:231|31:264,1,67.4999979400635,0|0,1:0|1:0,0:0:0:0:
104,356,57292,2,0,P|109:323|117:290,1,67.4999979400635,8|0,0:0|0:0,0:0:0:0:
153,205,57592,1,0,1:0:0:0:
153,205,57742,1,0,1:0:0:0:
225,254,57892,2,0,L|359:259,1,134.999995880127,8|0,0:0|1:0,0:0:0:0:
423,320,58342,1,8,0:0:0:0:
498,274,58492,1,8,0:0:0:0:
470,190,58642,1,8,0:0:0:0:
511,96,58792,5,6,1:2:0:0:
499,74,59092,2,0,P|470:68|440:70,1,60,2|0,1:2|1:0,0:0:0:0:
374,122,59392,2,0,P|315:123|275:81,1,120,10|2,0:2|1:2,0:0:0:0:
237,6,59842,1,0,1:0:0:0:
218,20,60142,2,0,L|144:32,1,60,8|0,0:0|0:0,0:0:0:0:
95,85,60442,1,0,1:0:0:0:
17,52,60592,2,0,P|14:112|50:158,1,120,8|0,0:0|0:0,0:0:0:0:
49,157,61192,6,0,L|42:241,1,60,2|0,1:2|0:0,0:0:0:0:
127,214,61492,2,0,L|134:298,1,60,2|0,1:2|0:0,0:0:0:0:
216,171,61792,2,0,L|212:231,1,60,10|0,0:2|0:0,0:0:0:0:
316,294,62092,6,0,L|296:49,1,240,6|0,1:2|1:2,0:0:0:0:
462,13,62992,1,2,1:2:0:0:
462,13,63142,1,8,0:0:0:0:
509,95,63292,1,10,0:0:0:0:
509,95,63442,1,8,0:0:0:0:
456,199,63592,6,0,L|449:355,1,134.999995880127,6|8,1:2|0:0,0:0:0:0:
368,369,64042,2,0,P|336:377|303:372,1,67.4999979400635,2|0,0:0|1:0,0:0:0:0:
251,308,64342,1,2,1:2:0:0:
251,308,64492,2,0,P|218:299|185:304,1,67.4999979400635,8|0,0:0|0:0,0:0:0:0:
122,365,64792,1,2,1:2:0:0:
51,312,64942,2,0,L|59:177,1,134.999995880127,2|2,0:0|0:0,0:0:0:0:
12,103,65392,1,0,1:0:0:0:
12,103,65542,1,0,1:0:0:0:
36,18,65692,2,0,P|68:12|100:23,1,67.4999979400635,10|0,0:0|0:0,0:0:0:0:
186,101,65992,6,0,P|253:97|320:93,1,134.999995880127,2|10,1:2|0:2,0:0:0:0:
382,30,66442,1,0,0:0:0:0:
457,74,66592,1,2,1:2:0:0:
457,74,66742,1,0,1:0:0:0:
422,154,66892,2,0,P|478:194|472:262,1,134.999995880127,10|0,0:0|0:3,0:0:0:0:
438,343,67342,5,8,0:0:0:0:
330,286,67492,1,8,0:0:0:0:
314,263,67792,5,8,0:0:0:0:
240,367,67942,1,8,0:0:0:0:
261,382,68242,5,8,0:0:0:0:
120,344,68392,1,8,0:0:0:0:
120,370,68692,5,8,0:0:0:0:
38,254,68842,1,8,0:0:0:0:
25,241,69592,6,0,L|38:75,1,165.000005035401,6|10,1:2|0:0,0:0:0:0:
131,64,70042,1,2,0:3:0:0:
131,64,70117,1,2,0:3:0:0:
131,64,70192,2,0,P|166:83|207:80,1,82.5000025177003,2|0,1:2|1:0,0:0:0:0:
345,30,70492,2,0,P|309:10|269:14,1,82.5000025177003,8|0,0:2|0:0,0:0:0:0:
284,139,70792,6,0,B|320:151|380:135|335:114|399:96|439:110,1,165.000005035401,2|8,1:2|0:0,0:0:0:0:
491,185,71242,1,0,0:0:0:0:
453,269,71392,1,2,1:2:0:0:
453,269,71542,1,0,1:2:0:0:
363,253,71692,2,0,L|278:245,1,82.5000025177003,10|0,0:0|0:0,0:0:0:0:
192,331,71992,6,0,P|241:270|213:196,1,165.000005035401,2|8,1:2|0:0,0:0:0:0:
134,150,72442,1,2,0:3:0:0:
134,150,72517,1,2,0:3:0:0:
134,150,72592,2,0,P|123:189|130:229,1,82.5000025177003,2|0,1:2|1:0,0:0:0:0:
212,108,72892,2,0,L|208:26,1,82.5000025177003,8|0,0:0|0:0,0:0:0:0:
330,2,73192,6,0,B|366:-10|426:5|381:26|445:44|485:30,1,165.000005035401,2|8,1:2|0:0,0:0:0:0:
510,118,73642,1,0,0:0:0:0:
510,118,73792,2,0,P|509:159|499:199,1,82.5000025177003,2|0,1:2|1:0,0:0:0:0:
393,115,74092,2,0,P|394:157|404:197,1,82.5000025177003,10|0,0:0|0:0,0:0:0:0:
448,309,74392,6,0,B|416:341|416:341|295:330,1,165.000005035401,6|8,1:2|0:0,0:0:0:0:
237,261,74842,1,0,0:0:0:0:
169,321,74992,2,0,P|151:284|152:243,1,82.5000025177003,2|0,1:2|1:0,0:0:0:0:
226,94,75292,2,0,P|226:135|209:172,1,82.5000025177003,8|0,0:0|0:0,0:0:0:0:
134,72,75592,6,0,P|215:52|295:33,2,165.000005035401,2|10|2,1:2|0:0|1:2,0:0:0:0:
67,11,76342,1,0,1:0:0:0:
0,73,76492,2,0,P|1:113|21:149,1,82.5000025177003,10|0,0:0|0:0,0:0:0:0:
66,263,76792,6,0,P|102:192|180:179,1,165.000005035401,2|10,1:2|0:0,0:0:0:0:
270,195,77242,1,0,0:0:0:0:
350,153,77392,2,0,P|361:192|350:231,1,82.5000025177003,2|0,1:2|1:0,0:0:0:0:
289,299,77692,1,10,0:0:0:0:
289,299,77842,1,0,0:0:0:0:
399,352,77992,6,0,P|453:290|470:210,1,165.000005035401,2|8,1:2|0:0,0:0:0:0:
479,119,78442,1,0,0:0:0:0:
402,81,78592,1,0,1:0:0:0:
402,81,78742,1,0,1:0:0:0:
350,153,78892,1,10,0:0:0:0:
334,170,79192,6,0,B|298:182|238:167|283:146|219:128|179:142,1,165.000005035401,6|10,1:2|0:0,0:0:0:0:
113,86,79642,1,0,0:0:0:0:
113,86,79792,2,0,P|93:122|94:163,1,82.5000025177003,2|0,1:2|1:0,0:0:0:0:
131,244,80092,2,0,P|150:279|149:320,1,82.5000025177003,10|0,0:2|0:0,0:0:0:0:
252,250,80392,6,0,P|334:254|416:263,2,165.000005035401,2|8|2,1:2|0:0|1:2,0:0:0:0:
199,176,81142,1,0,1:2:0:0:
199,176,81292,2,0,P|218:140|218:99,1,82.5000025177003,10|0,0:0|0:0,0:0:0:0:
135,6,81592,6,0,B|183:21|183:21|296:5,1,165.000005035401,2|10,1:2|0:2,0:0:0:0:
383,63,82042,1,0,0:2:0:0:
383,63,82192,2,0,P|367:100|371:141,1,82.5000025177003,2|0,1:2|1:2,0:0:0:0:
476,78,82492,2,0,P|480:119|465:157,1,82.5000025177003,10|0,0:2|0:2,0:0:0:0:
348,230,82792,6,0,P|428:234|468:302,1,165.000005035401,2|8,1:2|0:2,0:0:0:0:
408,371,83242,1,0,0:2:0:0:
333,319,83392,1,2,1:2:0:0:
333,319,83542,1,0,1:2:0:0:
260,372,83692,2,0,P|242:335|244:294,1,82.5000025177003,8|0,0:2|0:2,0:0:0:0:
282,175,83992,5,6,1:2:0:0:
221,107,84142,1,2,0:0:0:0:
221,107,84292,2,0,L|139:116,1,82.5000025177003,8|0,0:2|0:2,0:0:0:0:
63,166,84592,2,0,P|47:129|51:89,1,82.5000025177003,2|0,1:2|1:2,0:0:0:0:
112,21,84892,1,10,0:0:0:0:
235,19,85042,6,0,B|271:7|331:22|286:43|350:61|390:47,1,165.000005035401,2|0,0:2|0:0,0:0:0:0:
473,4,85492,1,8,0:0:0:0:
473,4,85642,2,0,P|483:45|477:86,1,82.5000025177003,2|0,0:2|1:2,0:0:0:0:
429,161,85942,1,0,1:0:0:0:
340,140,86092,2,0,L|257:135,1,82.5000025177003,10|0,0:0|0:0,0:0:0:0:
166,219,86392,5,2,1:2:0:0:
166,219,86542,1,2,0:2:0:0:
105,151,86692,1,10,0:0:0:0:
27,200,86842,2,0,P|10:237|11:277,1,82.5000025177003,2|0,0:0|1:2,0:0:0:0:
64,351,87142,1,0,1:0:0:0:
64,351,87292,2,0,L|153:341,1,82.5000025177003,8|2,0:0|0:0,0:0:0:0:
252,279,87592,5,10,0:0:0:0:
309,349,87742,2,0,P|347:362|388:361,1,82.5000025177003,2|8,1:2|0:0,0:0:0:0:
471,325,88042,1,2,1:2:0:0:
490,236,88192,2,0,P|451:222|410:223,1,82.5000025177003,10|0,0:2|1:0,0:0:0:0:
319,222,88492,1,14,0:0:0:0:
333,202,88792,6,0,P|404:178|412:81,1,165.000005035401,6|10,1:2|0:0,0:0:0:0:
358,30,89242,1,2,0:3:0:0:
358,30,89317,1,2,0:3:0:0:
358,30,89392,2,0,L|262:24,1,82.5000025177003,2|0,1:2|1:0,0:0:0:0:
139,102,89692,2,0,P|179:109|218:95,1,82.5000025177003,10|0,0:2|0:0,0:0:0:0:
135,2,89992,6,0,P|59:25|35:101,1,165.000005035401,2|8,1:2|0:0,0:0:0:0:
79,180,90442,1,0,0:0:0:0:
15,244,90592,1,2,1:2:0:0:
15,244,90742,1,0,1:2:0:0:
75,311,90892,2,0,P|114:320|154:311,1,82.5000025177003,10|0,0:0|0:0,0:0:0:0:
252,233,91192,6,0,L|429:245,1,165.000005035401,2|8,1:2|0:0,0:0:0:0:
455,165,91642,1,2,0:3:0:0:
455,165,91717,1,2,0:3:0:0:
455,165,91792,2,0,P|420:144|406:106,1,82.5000025177003,2|0,1:2|1:0,0:0:0:0:
503,11,92092,2,0,L|488:102,1,82.5000025177003,8|0,0:2|0:0,0:0:0:0:
393,12,92392,6,0,B|357:0|297:15|342:36|278:54|238:40,1,165.000005035401,2|8,1:2|0:0,0:0:0:0:
149,7,92842,1,0,0:0:0:0:
149,7,92992,2,0,B|160:47|160:47|147:86,1,82.5000025177003,2|0,1:2|1:0,0:0:0:0:
54,6,93292,2,0,B|43:46|43:46|56:86,1,82.5000025177003,10|0,0:0|0:0,0:0:0:0:
110,200,93592,6,0,B|232:206|232:206|265:179,1,165.000005035401,6|8,1:2|0:0,0:0:0:0:
325,110,94042,1,0,0:0:0:0:
388,175,94192,2,0,L|470:181,1,82.5000025177003,2|0,1:2|1:0,0:0:0:0:
378,265,94492,2,0,L|290:272,1,82.5000025177003,10|0,0:0|0:0,0:0:0:0:
174,299,94792,6,0,P|254:300|315:353,2,165.000005035401,2|10|2,1:2|0:0|1:2,0:0:0:0:
106,359,95542,1,0,1:0:0:0:
33,304,95692,2,0,L|25:214,1,82.5000025177003,10|0,0:0|0:0,0:0:0:0:
54,100,95992,6,0,B|91:126|91:126|213:112,1,165.000005035401,2|10,1:2|0:2,0:0:0:0:
283,166,96442,1,0,0:0:0:0:
328,87,96592,2,0,P|368:79|406:92,1,82.5000025177003,2|0,1:2|1:0,0:0:0:0:
476,151,96892,1,10,0:2:0:0:
476,151,97042,1,0,0:0:0:0:
417,259,97192,6,0,B|381:247|321:262|366:283|302:301|262:287,1,165.000005035401,2|8,1:2|0:0,0:0:0:0:
204,215,97642,1,0,0:0:0:0:
141,280,97792,1,2,1:2:0:0:
141,280,97942,2,0,P|118:245|116:203,1,82.5000025177003,2|8,1:2|0:0,0:0:0:0:
150,121,98242,1,2,0:0:0:0:
236,29,98392,6,0,L|43:35,1,179.999994506836,14|10,0:2|0:0,0:0:0:0:
2,118,98842,1,0,0:0:0:0:
2,118,98992,2,0,P|23:164|28:218,1,89.9999972534181,10|0,0:0|1:0,0:0:0:0:
0,317,99292,2,0,P|46:296|100:291,1,89.9999972534181,10|0,0:0|1:0,0:0:0:0:
260,352,99592,6,0,P|216:345|176:326,1,89.9999972534181,10|0,0:0|0:0,0:0:0:0:
164,231,99892,1,10,0:0:0:0:
164,231,100042,1,0,0:2:0:0:
257,186,100192,1,10,0:0:0:0:
257,186,100342,1,0,1:3:0:0:
344,232,100492,2,0,P|388:239|428:258,1,89.9999972534181,10|0,0:0|0:0,0:0:0:0:
490,137,100792,6,0,L|470:38,1,89.9999972534181,14|0,0:0|0:0,0:0:0:0:
360,15,101092,2,0,L|340:114,1,89.9999972534181,10|0,0:0|0:0,0:0:0:0:
257,186,101392,1,10,0:0:0:0:
257,186,101542,1,0,1:2:0:0:
181,96,101692,2,0,L|163:7,1,89.9999972534181,10|0,0:0|1:0,0:0:0:0:
53,85,101992,6,0,P|2:154|34:234,1,179.999994506836,10|8,0:2|0:0,0:0:0:0:
117,288,102442,1,0,0:0:0:0:
187,219,102592,1,8,0:0:0:0:
187,219,102742,1,0,1:0:0:0:
110,156,102892,1,8,0:0:0:0:
125,137,103192,6,0,L|311:126,1,165.000005035401,6|10,1:2|0:2,0:0:0:0:
361,71,103642,1,0,0:0:0:0:
361,71,103792,2,0,P|382:107|379:154,1,82.5000025177003,2|0,1:2|1:0,0:0:0:0:
313,293,104092,2,0,L|318:211,1,82.5000025177003,10|0,0:0|0:0,0:0:0:0:
396,306,104392,6,0,B|356:292|292:310|337:331|277:346|241:334,1,165.000005035401,2|8,1:2|0:0,0:0:0:0:
167,279,104842,1,0,0:0:0:0:
99,338,104992,1,2,1:2:0:0:
99,338,105142,1,0,1:0:0:0:
26,280,105292,2,0,P|8:244|9:203,1,82.5000025177003,8|2,0:0|0:0,0:0:0:0:
67,111,105592,6,0,L|120:117,3,41.2500012588501,8|8|8|8,0:0|0:0|0:0|0:0,0:0:0:0:
147,78,105892,2,0,L|200:72,3,41.2500012588501,10|8|8|8,0:0|0:0|0:0|0:0,0:0:0:0:
225,112,106192,2,0,L|278:118,3,41.2500012588501,8|8|8|8,0:0|0:0|0:0|0:0,0:0:0:0:
321,90,106492,5,8,3:0:0:0:
321,90,106567,1,8,3:0:0:0:
321,90,106642,1,4,3:0:0:0:
321,90,106717,1,4,3:0:0:0:
321,90,106792,1,4,1:2:0:0:
