osu file format v14

[General]
AudioFilename: audio.mp3
AudioLeadIn: 0
PreviewTime: 61590
Countdown: 0
SampleSet: Soft
StackLeniency: 0.3
Mode: 0
LetterboxInBreaks: 0
WidescreenStoryboard: 0

[Editor]
Bookmarks: 2559,15461,25784,30945,41268,51590,61913,72235,82558,92880,103203,112235,122557,132880,143202,148364,153525,163847,176751,187073,197396
DistanceSpacing: 1
BeatDivisor: 4
GridSize: 16
TimelineZoom: 1.299998

[Metadata]
Title:stlaeria
TitleUnicode:ストレリア
Artist:Hijirime Laeria
ArtistUnicode:聖女れりあ
Creator:Hinsvar
Version:Normal
Source:
Tags:Strelia Sutoreria Japanese Rock J-Rock JRock かいりきベア Kairiki bear VTuber Virtual YouTuber original song indie independent
BeatmapID:2806229
BeatmapSetID:1352739

[Difficulty]
HPDrainRate:3.7
CircleSize:3.2
OverallDifficulty:4
ApproachRate:6
SliderMultiplier:1.2
SliderTickRate:1

[Events]
//Background and Video events
0,0,"laeria.jpg",0,0
//Break Periods
2,25984,28605
2,82758,90540
2,143402,147314
//Storyboard Layer 0 (Background)
//Storyboard Layer 1 (Fail)
//Storyboard Layer 2 (Pass)
//Storyboard Layer 3 (Foreground)
//Storyboard Layer 4 (Overlay)
//Storyboard Sound Samples

[TimingPoints]
623,322.58064516129,6,2,1,65,1,0
2559,322.58064516129,4,2,1,65,1,0
5139,322.58064516129,4,2,1,75,1,0
15461,-100,4,2,1,55,0,0
24493,-100,4,2,1,60,0,0
25784,-100,4,2,1,65,0,0
41268,-100,4,2,1,70,0,0
51590,-100,4,2,1,75,0,0
54171,-100,4,2,1,70,0,0
56751,-100,4,2,1,75,0,0
61913,-95.2380952380952,4,2,1,85,0,1
82235,-100,4,2,1,75,0,0
82558,-100,4,2,1,75,0,1
82638,-100,4,2,1,75,0,0
92880,-100,4,2,1,60,0,0
98042,-100,4,2,1,65,0,0
103203,-100,4,2,1,75,0,0
108364,-100,4,2,1,80,0,0
109816,-100,4,2,1,75,0,0
112235,322.58064516129,4,2,1,85,1,1
112235,-95.2380952380952,4,2,1,85,0,1
122557,-100,4,2,1,70,0,0
124815,-100,4,2,1,60,0,0
125138,-100,4,2,1,70,0,0
127396,-100,4,2,1,60,0,0
127718,-100,4,2,1,70,0,0
129976,-100,4,2,1,60,0,0
130299,-100,4,2,1,70,0,0
132557,-100,4,2,1,60,0,0
132880,-100,4,2,1,75,0,0
138041,-100,4,2,1,65,0,0
139331,-100,4,2,1,75,0,0
143202,-100,4,2,1,55,0,0
148364,-111.111111111111,4,2,1,65,0,0
150944,-100,4,2,1,75,0,0
153525,-95.2380952380952,4,2,1,85,0,1
174170,-100,4,2,1,75,0,0
175299,-95.2380952380952,4,2,1,85,0,1
176428,-100,4,2,1,75,0,0
176751,322.58064516129,4,2,1,75,1,1
176831,-100,4,2,1,75,0,0
187073,-95.2380952380952,4,2,1,80,0,0
197073,-86.9565217391304,4,2,1,80,0,0
197396,-86.9565217391304,4,2,1,60,0,0

[Colours]
Combo1 : 218,158,105
Combo2 : 145,138,202

[HitObjects]
165,96,2559,6,0,L|149:36,2,60,8|8|8,0:0|0:0|0:0,0:0:0:0:
223,125,3042,1,8,0:0:0:0:
223,125,3204,1,10,0:0:0:0:
131,202,3526,6,0,L|60:191,2,60,8|8|8,0:0|0:0|0:0,0:0:0:0:
171,253,4010,1,8,0:0:0:0:
171,253,4171,1,10,0:0:0:0:
256,337,4494,1,10,0:0:0:0:
367,291,4817,1,10,0:0:0:0:
435,190,5139,6,0,P|466:182|497:177,2,60,6|0|8,3:2|0:0|0:0,0:0:0:0:
384,158,5622,1,2,0:0:0:0:
277,207,5945,2,0,P|253:158|243:79,1,120,2|0,0:0|0:0,0:0:0:0:
239,33,6429,2,0,P|208:17|184:11,2,60,2|0|8,3:2|0:0|0:0,0:0:0:0:
295,12,6913,1,2,0:0:0:0:
383,101,7235,1,0,0:0:0:0:
383,101,7397,1,8,0:0:0:0:
284,169,7719,6,0,P|252:179|212:189,2,60,2|0|8,3:2|0:0|0:0,0:0:0:0:
331,206,8203,1,2,0:0:0:0:
294,320,8526,2,0,P|248:320|156:296,1,120,2|0,0:0|0:0,0:0:0:0:
143,253,9009,2,0,P|145:221|137:192,2,60,2|0|8,3:2|0:0|0:0,0:0:0:0:
86,274,9493,1,2,0:0:0:0:
19,180,9816,1,0,0:0:0:0:
19,180,9977,1,10,0:0:0:0:
100,91,10300,6,0,P|96:58|84:21,2,60,6|0|8,3:2|0:0|0:0,0:0:0:0:
149,125,10784,1,2,0:0:0:0:
254,67,11106,2,0,P|303:89|337:151,1,120,2|0,0:0|0:0,0:0:0:0:
309,198,11590,2,0,P|276:200|236:222,2,60,2|0|8,3:2|0:0|0:0,0:0:0:0:
346,244,12074,1,2,0:0:0:0:
300,355,12397,1,0,0:0:0:0:
300,355,12558,1,8,0:0:0:0:
185,319,12880,6,0,P|155:310|116:309,2,60,6|0|8,3:2|0:0|0:0,0:0:0:0:
224,273,13364,1,2,0:0:0:0:
171,165,13687,2,0,P|156:103|160:36,1,120,2|0,0:0|0:0,0:0:0:0:
208,13,14171,1,10,0:0:0:0:
310,75,14493,2,0,B|345:69|345:69|363:47,2,60,10|0|8,0:0|3:0|0:0,0:0:0:0:
269,188,15138,2,0,P|263:218|261:248,1,60,10|2,0:0|3:2,0:0:0:0:
273,306,15461,6,0,P|335:305|400:330,2,120,6|0|0,3:2|3:0|3:0,0:0:0:0:
237,354,16268,1,2,0:0:0:0:
124,313,16590,2,0,P|110:258|110:191,1,120,10|0,0:0|0:0,0:0:0:0:
127,137,17074,2,0,P|102:117|71:109,2,60,2|0|2,3:2|0:0|3:2,0:0:0:0:
233,191,17719,1,0,3:0:0:0:
339,135,18042,5,2,3:2:0:0:
445,191,18364,2,0,L|463:250,2,60,0|2|0,3:0|0:0|3:0,0:0:0:0:
482,143,18848,1,2,0:0:0:0:
443,29,19171,2,0,B|388:12|388:12|306:26,1,120,8|0,0:0|0:0,0:0:0:0:
290,70,19655,2,0,P|261:76|229:78,2,60,0|0|0,3:0|0:0|3:0,0:0:0:0:
373,156,20300,1,2,3:2:0:0:
294,246,20622,6,0,P|285:313|287:367,2,120,6|0|0,3:2|3:0|3:0,0:0:0:0:
255,199,21429,1,2,0:0:0:0:
151,258,21751,2,0,P|98:250|45:200,1,120,10|0,0:0|0:0,0:0:0:0:
33,149,22235,2,0,P|29:118|36:76,2,60,2|0|0,3:2|0:0|3:0,0:0:0:0:
147,113,22880,1,10,0:0:0:0:
238,190,23203,5,6,3:2:0:0:
291,297,23526,2,0,P|274:328|251:359,2,60,2|0|0,3:2|0:0|3:0,0:0:0:0:
414,282,24171,1,8,0:0:0:0:
414,282,24332,2,0,B|409:252|409:252|393:216,1,60,10|8,0:0|0:0,0:0:0:0:
355,181,24655,2,0,P|367:123|417:69,2,120,2|2|2,0:0|0:0|0:0,0:0:0:0:
298,199,25461,1,2,3:2:0:0:
233,97,25784,5,4,3:2:0:0:
71,343,29655,6,0,B|42:291|42:291|57:221,1,120,14|2,0:0|0:0,0:0:0:0:
73,175,30138,1,14,0:0:0:0:
169,103,30461,2,0,P|168:68|160:36,2,60,2|14|0,0:0|0:0|3:0,0:0:0:0:
217,139,30945,6,0,P|268:114|338:106,2,120,6|8|2,3:2|0:0|3:2,0:0:0:0:
203,197,31751,1,2,0:0:0:0:
138,298,32074,2,0,P|81:272|37:219,1,120,2|0,0:0|0:0,0:0:0:0:
17,175,32558,2,0,P|35:145|43:109,1,60,8|0,0:0|0:0,0:0:0:0:
22,64,32880,1,2,3:2:0:0:
131,14,33203,1,8,0:0:0:0:
219,95,33526,6,0,P|276:90|341:72,1,120,2|8,3:2|0:0,0:0:0:0:
364,21,34009,1,2,0:0:0:0:
458,99,34332,1,2,0:0:0:0:
458,99,34493,2,0,B|471:130|471:130|461:173,1,60,8|0,0:0|0:0,0:0:0:0:
430,204,34816,6,0,P|416:254|410:333,1,120,2|8,3:2|0:0,0:0:0:0:
301,283,35461,1,2,3:2:0:0:
301,283,35622,2,0,P|300:251|292:222,2,60,2|10|2,0:0|0:0|0:0,0:0:0:0:
267,333,36106,6,0,P|216:348|156:383,2,120,6|8|0,3:2|0:0|3:0,0:0:0:0:
314,370,36913,1,2,0:0:0:0:
406,294,37235,2,0,P|418:241|407:163,1,120,2|0,0:0|0:0,0:0:0:0:
352,163,37719,2,0,B|317:162|317:162|286:148,1,60,8|0,0:0|0:0,0:0:0:0:
256,105,38042,1,2,3:2:0:0:
326,8,38364,1,8,0:0:0:0:
447,36,38687,5,2,3:2:0:0:
447,36,38848,2,0,P|471:87|467:155,1,120,0|2,0:0|0:0,0:0:0:0:
431,196,39332,1,2,3:2:0:0:
328,133,39655,2,0,P|298:130|265:139,1,60,8|0,0:0|0:0,0:0:0:0:
239,85,39977,2,0,B|192:52|192:52|120:47,1,120,2|10,3:2|0:0,0:0:0:0:
73,156,40622,1,2,3:2:0:0:
73,156,40784,2,0,P|46:139|28:115,2,60,2|10|2,0:0|0:0|0:0,0:0:0:0:
123,188,41268,6,0,P|152:239|154:306,1,120,6|8,3:2|0:0,0:0:0:0:
260,367,41913,1,2,3:2:0:0:
260,367,42074,1,0,0:0:0:0:
330,269,42397,2,0,P|377:235|438:217,1,120,2|0,0:0|0:0,0:0:0:0:
440,157,42880,2,0,B|408:152|408:152|379:137,1,60,8|0,0:0|0:0,0:0:0:0:
334,105,43203,1,2,3:2:0:0:
256,13,43526,1,10,0:0:0:0:
151,68,43848,5,0,3:0:0:0:
151,68,44009,2,0,P|127:124|125:197,2,120,2|2|0,0:0|0:0|0:0,0:0:0:0:
205,93,44816,2,0,B|219:124|219:124|223:156,1,60,10|0,0:0|0:0,0:0:0:0:
226,209,45138,1,2,3:2:0:0:
144,297,45461,2,0,P|111:287|79:257,2,60,8|0|2,0:0|0:0|3:2,0:0:0:0:
187,346,45945,1,2,0:0:0:0:
187,346,46106,2,0,B|217:343|217:343|254:327,1,60,10|2,0:0|0:0,0:0:0:0:
290,292,46429,6,0,P|287:239|306:168,1,120,6|8,3:2|0:0,0:0:0:0:
404,108,47074,1,0,3:0:0:0:
404,108,47235,1,2,0:0:0:0:
483,195,47558,2,0,P|486:248|467:319,1,120,2|0,0:0|0:0,0:0:0:0:
425,353,48042,2,0,B|406:336|406:336|367:328,1,60,8|0,0:0|0:0,0:0:0:0:
322,362,48364,1,2,3:2:0:0:
243,271,48687,1,8,0:0:0:0:
136,325,49009,5,6,3:2:0:0:
136,325,49171,2,0,P|114:272|35:234,1,120,0|2,0:0|0:0,0:0:0:0:
30,187,49655,2,0,P|79:154|102:100,1,120,0|10,3:0|0:0,0:0:0:0:
193,21,50300,2,0,P|223:25|254:46,1,60,14|2,0:0|0:0,0:0:0:0:
289,90,50622,1,0,3:0:0:0:
289,90,50784,1,14,0:0:0:0:
369,178,51106,2,0,P|427:163|479:125,1,120,0|0,3:0|3:0,0:0:0:0:
491,68,51590,6,0,B|487:35|487:35|472:8,2,60,8|8|8,0:0|0:0|0:0,0:0:0:0:
370,73,52235,1,10,0:0:0:0:
281,154,52558,2,0,B|260:130|260:130|231:111,2,60,8|8|8,0:0|0:0|0:0,0:0:0:0:
345,255,53203,1,10,0:0:0:0:
247,324,53526,2,0,P|219:323|182:310,1,60,10|0,0:0|3:0,0:0:0:0:
149,267,53848,1,8,0:0:0:0:
224,173,54171,6,0,P|224:114|206:40,1,120,6|8,3:2|0:0,0:0:0:0:
156,29,54655,1,2,0:0:0:0:
47,78,54977,1,2,0:0:0:0:
21,199,55300,1,2,0:0:0:0:
21,199,55461,2,0,P|11:231|9:281,2,60,2|0|8,3:2|0:0|0:0,0:0:0:0:
78,181,55945,2,0,P|125:216|156:283,1,120,2|2,0:0|0:0,0:0:0:0:
166,328,56429,1,8,0:0:0:0:
279,369,56751,6,0,B|313:369|313:369|346:349,2,60,8|8|8,0:0|0:0|0:0,0:0:0:0:
283,248,57397,1,10,0:0:0:0:
394,203,57719,2,0,B|418:178|418:178|427:141,2,60,8|8|8,0:0|0:0|0:0,0:0:0:0:
318,109,58364,1,10,0:0:0:0:
201,79,58687,2,0,P|171:80|138:89,1,60,10|0,0:0|3:0,0:0:0:0:
115,140,59009,1,8,0:0:0:0:
220,197,59332,6,0,B|237:258|237:258|206:320,1,120,6|8,3:2|0:0,0:0:0:0:
106,362,59977,1,10,0:0:0:0:
106,362,60138,1,10,0:0:0:0:
43,259,60461,2,0,P|27:199|26:130,1,120,10|10,0:0|0:0,0:0:0:0:
68,100,60945,2,0,B|98:98|98:98|128:113,1,60,10|10,0:0|0:0,0:0:0:0:
157,162,61268,1,2,3:2:0:0:
265,110,61590,1,8,0:0:0:0:
301,236,61913,6,0,P|369:244|426:216,1,125.999996154785,6|8,3:2|0:0,0:0:0:0:
422,161,62397,1,0,0:0:0:0:
422,161,62558,2,0,P|430:123|446:94,2,62.9999980773926,2|0|8,3:2|0:0|0:0,0:0:0:0:
310,102,63203,2,0,P|306:63|295:28,2,62.9999980773926,2|0|8,3:2|0:0|0:0,0:0:0:0:
267,148,63687,1,0,0:0:0:0:
267,148,63848,2,0,B|219:111|219:111|144:98,1,125.999996154785,2|8,3:2|0:0,0:0:0:0:
53,175,64493,6,0,P|38:230|27:302,1,125.999996154785,2|8,3:2|0:0,0:0:0:0:
145,356,65138,1,2,3:2:0:0:
145,356,65300,2,0,P|151:315|148:286,2,62.9999980773926,0|8|0,0:0|0:0|0:0,0:0:0:0:
204,376,65784,1,2,3:2:0:0:
297,291,66106,1,10,0:0:0:0:
405,354,66429,2,0,B|433:359|433:359|474:326,2,62.9999980773926,2|8|10,3:2|0:0|0:0,0:0:0:0:
442,233,67074,6,0,P|450:174|446:100,1,125.999996154785,6|8,3:2|0:0,0:0:0:0:
414,60,67558,1,0,0:0:0:0:
414,60,67719,2,0,P|379:52|343:28,2,62.9999980773926,2|0|8,3:2|0:0|0:0,0:0:0:0:
310,131,68364,2,0,P|276:138|245:156,2,62.9999980773926,2|0|8,3:2|0:0|0:0,0:0:0:0:
355,183,68848,1,0,0:0:0:0:
355,183,69009,2,0,B|354:244|354:244|313:321,1,125.999996154785,2|8,3:2|0:0,0:0:0:0:
211,242,69655,6,0,P|155:209|85:213,1,125.999996154785,2|8,3:2|0:0,0:0:0:0:
73,270,70138,1,0,0:0:0:0:
73,270,70300,2,0,P|43:289|5:299,2,62.9999980773926,2|0|8,3:2|0:0|0:0,0:0:0:0:
179,337,70945,5,10,0:0:0:0:
289,276,71268,1,10,0:0:0:0:
388,355,71590,2,0,P|418:350|450:329,1,62.9999980773926,10|0,0:0|3:0,0:0:0:0:
473,276,71913,1,10,0:0:0:0:
422,160,72235,6,0,P|427:120|438:94,2,62.9999980773926,6|2|10,3:2|0:0|0:0,0:0:0:0:
336,252,72880,2,0,P|303:205|284:129,1,125.999996154785,2|8,3:2|0:0,0:0:0:0:
226,115,73364,2,0,P|181:151|139:219,1,125.999996154785,2|2,0:0|0:0,0:0:0:0:
111,262,73848,1,10,0:0:0:0:
26,171,74171,2,0,B|11:106|11:106|51:46,1,125.999996154785,2|8,3:2|0:0,0:0:0:0:
161,102,74816,6,0,P|228:105|299:82,2,125.999996154785,6|8|0,3:2|0:0|3:0,0:0:0:0:
125,153,75622,1,2,0:0:0:0:
231,220,75945,2,0,P|248:285|255:348,1,125.999996154785,2|0,0:0|0:0,0:0:0:0:
313,367,76429,2,0,P|333:339|348:301,1,62.9999980773926,8|0,0:0|0:0,0:0:0:0:
377,259,76751,2,0,B|407:244|407:244|445:258,2,62.9999980773926,2|2|8,3:2|3:2|0:0,0:0:0:0:
313,149,77397,6,0,P|315:117|324:82,2,62.9999980773926,6|2|10,3:2|0:0|0:0,0:0:0:0:
202,210,78042,2,0,P|151:230|71:239,1,125.999996154785,2|8,3:2|0:0,0:0:0:0:
40,287,78526,2,0,P|104:298|163:322,1,125.999996154785,2|2,0:0|0:0,0:0:0:0:
198,370,79009,1,10,0:0:0:0:
297,292,79332,2,0,P|309:241|291:161,1,125.999996154785,2|8,3:2|0:0,0:0:0:0:
223,66,79977,5,6,3:2:0:0:
341,22,80300,1,8,0:0:0:0:
446,90,80622,2,0,P|458:121|459:154,1,62.9999980773926,2|2,3:2|0:0,0:0:0:0:
437,212,80945,1,8,0:0:0:0:
437,212,81106,2,0,B|377:198|377:198|333:246,1,125.999996154785,4|10,0:0|0:0,0:0:0:0:
312,305,81590,2,0,B|286:322|286:322|240:320,1,62.9999980773926,10|8,0:0|0:0,0:0:0:0:
200,286,81913,1,10,0:0:0:0:
176,168,82235,1,10,0:0:0:0:
63,208,82558,5,6,3:2:0:0:
391,277,91590,6,0,B|400:302|400:302|400:338,2,60,10|0|8,0:0|3:0|0:0,0:0:0:0:
352,230,92074,1,2,3:2:0:0:
246,288,92397,2,0,P|216:297|176:301,2,60,2|10|2,3:2|3:2|3:2,0:0:0:0:
247,228,92880,6,0,P|221:172|221:106,2,120,6|0|10,3:2|3:0|0:0,0:0:0:0:
302,204,93687,1,0,0:0:0:0:
390,285,94009,2,0,B|452:290|452:290|496:236,1,120,10|8,0:0|0:0,0:0:0:0:
506,187,94493,1,2,3:2:0:0:
472,71,94816,2,0,B|423:46|423:46|357:58,1,120,8|2,0:0|3:2,0:0:0:0:
244,92,95461,6,0,P|224:67|211:34,2,60,2|0|8,3:2|0:0|0:0,0:0:0:0:
272,213,96106,1,8,0:0:0:0:
272,213,96268,2,0,B|264:242|264:242|247:271,2,60,2|0|8,0:0|3:0|0:0,0:0:0:0:
325,185,96751,1,2,3:2:0:0:
435,234,97074,1,2,3:2:0:0:
347,316,97397,1,8,0:0:0:0:
347,316,97558,2,0,P|347:346|358:377,2,60,2|10|2,0:0|0:0|0:0,0:0:0:0:
303,274,98042,6,0,P|248:257|175:263,2,120,6|0|10,3:2|3:0|0:0,0:0:0:0:
326,219,98848,1,0,0:0:0:0:
237,138,99171,2,0,P|219:84|244:17,1,120,10|8,0:0|0:0,0:0:0:0:
294,5,99655,2,0,B|322:23|322:23|339:49,1,60,2|0,3:2|0:0,0:0:0:0:
331,104,99977,1,8,0:0:0:0:
434,165,100300,1,2,3:2:0:0:
379,271,100622,6,0,L|387:333,1,60,8|8,0:0|0:0,0:0:0:0:
271,294,101106,2,0,L|249:237,2,60,2|8|8,3:2|0:0|0:0,0:0:0:0:
163,341,101751,1,0,3:0:0:0:
163,341,101913,2,0,L|106:315,2,60,10|8|2,0:0|0:0|0:0,0:0:0:0:
214,372,102397,1,6,3:2:0:0:
315,306,102719,1,0,3:0:0:0:
315,306,102880,1,8,0:0:0:0:
429,343,103203,6,0,B|462:343|462:343|489:321,2,60,8|8|8,0:0|0:0|0:0,0:0:0:0:
379,233,103848,1,10,0:0:0:0:
271,287,104171,2,0,B|260:314|260:314|261:362,2,60,8|8|8,0:0|0:0|0:0,0:0:0:0:
177,211,104816,1,10,0:0:0:0:
287,164,105138,2,0,P|293:139|295:97,1,60,10|0,0:0|3:0,0:0:0:0:
271,49,105461,1,8,0:0:0:0:
188,136,105784,5,6,3:2:0:0:
188,136,105945,2,0,B|168:159|168:159|130:184,2,60,8|8|0,0:0|0:0|3:0,0:0:0:0:
149,89,106429,2,0,B|135:60|135:60|145:30,1,60,8|0,0:0|3:0,0:0:0:0:
259,0,106913,2,0,P|316:13|376:36,1,120,6|0,3:2|3:0,0:0:0:0:
333,79,107397,2,0,P|321:105|309:146,1,60,10|0,0:0|3:0,0:0:0:0:
340,187,107719,1,10,0:0:0:0:
423,273,108042,1,10,0:0:0:0:
337,358,108364,6,0,P|292:374|216:361,1,120,6|8,3:2|0:0,0:0:0:0:
162,265,109009,1,10,0:0:0:0:
162,265,109171,1,10,0:0:0:0:
278,237,109493,2,0,B|301:178|301:178|289:108,1,120,2|10,3:2|0:0,0:0:0:0:
253,75,109977,2,0,P|228:74|190:87,1,60,10|8,0:0|0:0,0:0:0:0:
156,133,110300,5,10,0:0:0:0:
156,133,111913,1,10,0:0:0:0:
273,89,112235,6,0,P|333:110|385:151,1,125.999996154785,6|8,3:2|0:0,0:0:0:0:
395,214,112718,1,0,0:0:0:0:
395,214,112880,2,0,P|391:251|378:283,2,62.9999980773926,2|0|8,3:2|0:0|0:0,0:0:0:0:
366,91,113525,2,0,P|399:73|433:67,2,62.9999980773926,2|0|8,3:2|0:0|0:0,0:0:0:0:
315,63,114009,1,0,0:0:0:0:
315,63,114170,2,0,B|259:33|259:33|187:38,1,125.999996154785,2|8,3:2|0:0,0:0:0:0:
175,163,114815,6,0,P|128:205|68:219,1,125.999996154785,2|8,3:2|0:0,0:0:0:0:
82,97,115460,1,2,3:2:0:0:
82,97,115622,2,0,B|47:86|47:86|17:86,2,62.9999980773926,0|8|0,0:0|0:0|0:0,0:0:0:0:
134,63,116105,1,2,3:2:0:0:
235,137,116428,1,10,0:0:0:0:
181,251,116751,2,0,B|164:280|164:280|157:328,2,62.9999980773926,2|8|8,3:2|0:0|0:0,0:0:0:0:
304,224,117396,6,0,P|366:206|404:150,1,125.999996154785,6|8,3:2|0:0,0:0:0:0:
443,113,117880,1,0,0:0:0:0:
443,113,118041,2,0,B|474:103|474:103|508:118,2,62.9999980773926,2|0|8,3:2|0:0|0:0,0:0:0:0:
491,229,118686,2,0,P|505:258|511:300,2,62.9999980773926,2|0|8,3:2|0:0|0:0,0:0:0:0:
436,208,119170,1,0,0:0:0:0:
436,208,119331,2,0,P|379:236|309:246,1,125.999996154785,2|8,3:2|0:0,0:0:0:0:
227,157,119976,6,0,P|227:97|298:77,1,125.999996154785,2|8,3:2|0:0,0:0:0:0:
340,106,120460,1,0,0:0:0:0:
340,106,120622,2,0,P|376:102|406:89,2,62.9999980773926,2|0|8,3:2|0:0|0:0,0:0:0:0:
293,222,121267,5,10,0:0:0:0:
400,286,121589,1,10,0:0:0:0:
486,195,121912,2,0,B|493:159|493:159|486:126,1,62.9999980773926,10|0,0:0|3:0,0:0:0:0:
469,73,122234,1,10,0:0:0:0:
378,151,122557,6,0,B|349:168|349:168|319:168,2,60,8|8|8,0:0|0:0|0:0,0:0:0:0:
316,47,123202,1,10,0:0:0:0:
214,111,123525,2,0,B|196:139|196:139|196:169,2,60,8|8|8,0:0|0:0|0:0,0:0:0:0:
133,21,124170,1,10,0:0:0:0:
36,92,124493,2,0,P|30:117|28:163,1,60,8|0,0:0|3:0,0:0:0:0:
57,202,124815,1,10,0:0:0:0:
142,286,125138,6,0,P|141:317|133:364,2,60,6|8|8,3:2|0:0|0:0,0:0:0:0:
229,203,125783,1,10,0:0:0:0:
324,275,126105,2,0,P|338:302|365:341,2,60,8|8|8,0:0|0:0|0:0,0:0:0:0:
373,164,126751,1,10,0:0:0:0:
476,224,127073,2,0,P|483:258|481:297,1,60,8|0,0:0|3:0,0:0:0:0:
455,336,127396,1,10,0:0:0:0:
349,285,127718,6,0,B|319:273|319:273|285:284,2,60,6|8|8,3:2|0:0|0:0,0:0:0:0:
397,174,128364,1,10,0:0:0:0:
354,62,128686,2,0,B|322:57|322:57|298:30,2,60,8|8|8,0:0|0:0|0:0,0:0:0:0:
262,140,129331,1,10,0:0:0:0:
304,252,129654,2,0,P|287:276|261:299,1,60,8|0,0:0|3:0,0:0:0:0:
218,334,129976,1,10,0:0:0:0:
100,366,130299,6,0,P|68:352|35:322,1,60,6|8,3:2|0:0,0:0:0:0:
59,277,130622,2,0,P|88:258|111:236,1,60,8|8,0:0|0:0,0:0:0:0:
98,182,130944,1,10,0:0:0:0:
24,95,131267,1,8,0:0:0:0:
24,95,131428,1,10,0:0:0:0:
260,38,132073,5,2,3:2:0:0:
260,38,132234,1,2,3:2:0:0:
488,95,132880,6,0,P|490:158|477:237,1,120,6|8,3:2|0:0,0:0:0:0:
448,264,133364,1,2,0:0:0:0:
448,264,133525,2,0,P|461:293|469:331,2,60,2|2|8,3:2|0:0|0:0,0:0:0:0:
345,201,134170,2,0,B|286:178|286:178|219:189,1,120,2|8,3:2|0:0,0:0:0:0:
189,231,134654,1,2,0:0:0:0:
189,231,134815,2,0,P|163:243|128:251,1,60,2|0,3:2|0:0,0:0:0:0:
93,204,135138,2,0,P|66:194|35:175,1,60,10|2,0:0|0:0,0:0:0:0:
25,119,135460,5,2,3:2:0:0:
135,72,135783,2,0,B|142:42|142:42|141:4,2,60,8|2|0,0:0|0:0|3:0,0:0:0:0:
190,107,136267,1,2,0:0:0:0:
190,107,136428,2,0,P|219:109|253:95,1,60,10|2,0:0|0:0,0:0:0:0:
278,46,136751,1,2,3:2:0:0:
388,94,137073,1,10,0:0:0:0:
419,209,137396,2,0,B|454:212|454:212|480:196,2,60,2|8|8,3:2|0:0|0:0,0:0:0:0:
305,174,138041,6,0,P|271:229|264:296,1,120,6|10,3:2|0:0,0:0:0:0:
293,341,138525,1,0,0:0:0:0:
293,341,138686,2,0,P|357:342|419:315,1,120,2|10,3:2|0:0,0:0:0:0:
481,226,139331,1,2,3:2:0:0:
420,124,139654,2,0,B|413:87|413:87|422:59,2,60,10|0|0,0:0|0:0|3:0,0:0:0:0:
383,172,140138,1,2,0:0:0:0:
383,172,140299,1,10,0:0:0:0:
286,99,140622,6,0,B|228:92|228:92|165:135,1,120,6|10,3:2|0:0,0:0:0:0:
138,240,141267,2,0,B|131:298|131:298|174:361,1,120,2|10,3:2|0:0,0:0:0:0:
285,363,141912,1,10,0:0:0:0:
374,283,142234,1,10,0:0:0:0:
279,208,142557,2,0,B|250:200|250:200|211:228,2,60,10|0|8,0:0|3:0|0:0,0:0:0:0:
329,98,143202,5,4,0:0:0:0:
105,35,148364,5,6,3:2:0:0:
57,131,148686,1,0,3:0:0:0:
147,195,149009,2,0,P|173:192|196:174,2,53.9999983520508,2|0|0,3:2|0:0|3:0,0:0:0:0:
88,286,149654,2,0,P|119:337|180:358,1,107.999996704102,2|0,3:2|3:0,0:0:0:0:
269,347,150299,2,0,P|276:310|285:286,1,53.9999983520508,2|0,3:2|3:0,0:0:0:0:
321,258,150622,1,8,0:0:0:0:
425,316,150944,6,0,P|457:317|485:304,2,60,10|0|10,0:0|3:0|0:0,0:0:0:0:
461,201,151589,2,0,P|474:146|475:72,1,120,10|10,0:0|0:0,0:0:0:0:
445,31,152073,1,0,3:0:0:0:
445,31,152234,1,10,0:0:0:0:
336,82,152557,1,10,0:0:0:0:
237,12,152880,2,0,P|221:37|206:74,1,60,10|0,0:0|3:0,0:0:0:0:
232,119,153202,1,10,0:0:0:0:
297,227,153525,6,0,P|294:288|223:301,1,125.999996154785,6|8,3:2|0:0,0:0:0:0:
185,288,154009,1,0,0:0:0:0:
185,288,154170,2,0,P|153:290|109:312,2,62.9999980773926,2|0|8,3:2|0:0|0:0,0:0:0:0:
122,178,154815,2,0,P|103:147|97:109,2,62.9999980773926,2|0|8,3:2|0:0|0:0,0:0:0:0:
188,190,155299,1,0,0:0:0:0:
188,190,155460,2,0,B|225:140|225:140|293:157,1,125.999996154785,2|8,3:2|0:0,0:0:0:0:
335,271,156105,6,0,P|399:283|438:230,1,125.999996154785,2|8,3:2|0:0,0:0:0:0:
454,123,156751,1,2,3:2:0:0:
454,123,156912,2,0,P|470:96|500:68,2,62.9999980773926,0|8|0,0:0|0:0|0:0,0:0:0:0:
391,134,157396,1,2,3:2:0:0:
283,68,157718,1,10,0:0:0:0:
197,160,158041,2,0,P|187:190|187:224,2,62.9999980773926,2|8|10,3:2|0:0|0:0,0:0:0:0:
71,147,158686,6,0,P|50:99|67:28,1,125.999996154785,6|8,3:2|0:0,0:0:0:0:
132,20,159170,1,0,0:0:0:0:
132,20,159331,2,0,P|164:27|201:28,2,62.9999980773926,2|0|8,3:2|0:0|0:0,0:0:0:0:
179,136,159976,2,0,P|206:165|216:189,2,62.9999980773926,2|0|8,3:2|0:0|0:0,0:0:0:0:
119,137,160460,1,0,0:0:0:0:
119,137,160622,2,0,B|91:194|91:194|108:268,1,125.999996154785,2|8,3:2|0:0,0:0:0:0:
191,346,161267,6,0,P|242:295|312:282,1,125.999996154785,2|8,3:2|0:0,0:0:0:0:
348,322,161751,1,0,0:0:0:0:
348,322,161912,2,0,P|375:347|402:364,2,62.9999980773926,2|0|8,3:2|0:0|0:0,0:0:0:0:
444,240,162557,5,10,0:0:0:0:
406,119,162880,1,8,0:0:0:0:
290,168,163202,1,8,0:0:0:0:
185,97,163525,1,10,0:0:0:0:
98,187,163847,6,0,P|65:182|38:165,2,62.9999980773926,6|2|10,3:2|0:0|0:0,0:0:0:0:
217,234,164493,2,0,P|249:282|269:350,1,125.999996154785,2|8,3:2|0:0,0:0:0:0:
326,322,164976,2,0,P|344:258|379:208,1,125.999996154785,2|2,0:0|0:0,0:0:0:0:
431,176,165460,1,10,0:0:0:0:
402,53,165783,2,0,P|346:35|285:79,1,125.999996154785,2|8,3:2|0:0,0:0:0:0:
205,159,166428,6,0,B|161:118|161:118|133:33,2,125.999996154785,6|8|0,3:2|0:0|3:0,0:0:0:0:
264,179,167234,1,2,0:0:0:0:
233,301,167557,2,0,P|178:337|107:334,1,125.999996154785,2|0,0:0|0:0,0:0:0:0:
74,292,168041,2,0,P|82:265|87:219,1,62.9999980773926,8|0,0:0|0:0,0:0:0:0:
43,184,168364,2,0,B|33:155|33:155|46:116,2,62.9999980773926,2|2|8,3:2|3:2|0:0,0:0:0:0:
154,124,169009,6,0,P|151:88|141:54,2,62.9999980773926,6|2|10,3:2|0:0|0:0,0:0:0:0:
254,200,169654,2,0,P|319:191|378:169,1,125.999996154785,2|8,3:2|0:0,0:0:0:0:
434,192,170138,2,0,P|428:252|474:312,1,125.999996154785,2|0,0:0|0:0,0:0:0:0:
437,362,170622,1,10,0:0:0:0:
317,321,170944,2,0,B|257:313|257:313|184:354,1,125.999996154785,2|8,3:2|0:0,0:0:0:0:
95,274,171589,5,6,3:2:0:0:
123,151,171912,1,8,0:0:0:0:
226,223,172234,2,0,P|259:219|295:204,1,62.9999980773926,2|0,3:2|0:0,0:0:0:0:
337,170,172557,1,8,0:0:0:0:
337,170,172718,2,0,P|390:206|463:179,1,125.999996154785,4|8,0:0|0:0,0:0:0:0:
483,141,173202,2,0,B|488:110|488:110|479:72,1,62.9999980773926,8|8,0:0|0:0,0:0:0:0:
453,22,173525,1,14,0:0:0:0:
335,65,173847,2,0,B|270:71|270:71|215:29,1,125.999996154785,10|0,0:0|0:0,0:0:0:0:
221,34,175299,6,0,P|246:118|252:179,1,125.999996154785,6|2,3:2|3:2,0:0:0:0:
205,200,175783,2,0,B|189:230|189:230|190:266,1,62.9999980773926,2|2,3:2|3:2,0:0:0:0:
206,319,176105,1,14,0:0:0:0:
308,381,176428,1,10,0:0:0:0:
411,327,176751,6,0,P|447:330|485:344,2,60,6|0|8,3:2|0:0|0:0,0:0:0:0:
381,274,177234,1,2,0:0:0:0:
483,211,177557,2,0,P|489:143|465:76,1,120,2|0,0:0|0:0,0:0:0:0:
448,39,178041,2,0,P|472:20|502:10,2,60,2|0|8,3:2|0:0|0:0,0:0:0:0:
390,20,178525,1,2,0:0:0:0:
284,76,178847,1,0,0:0:0:0:
284,76,179009,1,8,0:0:0:0:
234,187,179331,6,0,P|243:214|253:257,2,60,2|0|8,3:2|0:0|0:0,0:0:0:0:
177,164,179815,1,2,0:0:0:0:
58,183,180138,2,0,P|34:240|42:315,1,120,2|0,0:0|0:0,0:0:0:0:
91,320,180621,2,0,P|105:343|112:379,2,60,2|0|8,3:2|0:0|0:0,0:0:0:0:
133,277,181105,1,2,0:0:0:0:
243,336,181428,1,0,0:0:0:0:
243,336,181589,1,10,0:0:0:0:
332,252,181912,6,0,B|341:218|341:218|341:184,2,60,6|0|8,3:2|0:0|0:0,0:0:0:0:
369,299,182396,1,2,0:0:0:0:
482,259,182718,2,0,P|485:201|465:138,1,120,2|0,0:0|0:0,0:0:0:0:
436,90,183202,2,0,B|449:61|449:61|478:38,2,60,2|0|8,3:2|0:0|0:0,0:0:0:0:
375,92,183686,1,2,0:0:0:0:
279,28,184009,1,0,0:0:0:0:
279,28,184170,1,8,0:0:0:0:
240,139,184492,6,0,P|251:167|254:206,2,60,6|0|8,3:2|0:0|0:0,0:0:0:0:
185,114,184976,1,2,0:0:0:0:
76,165,185299,2,0,P|57:213|51:296,1,120,2|0,0:0|0:0,0:0:0:0:
82,331,185783,1,10,0:0:0:0:
200,345,186105,2,0,B|222:321|222:321|222:276,2,60,8|2|8,0:0|3:2|0:0,0:0:0:0:
136,242,186751,2,0,P|129:209|131:171,1,60,10|10,0:0|0:0,0:0:0:0:
161,128,187073,6,0,B|223:113|223:113|280:152,1,125.999996154785,14|8,0:0|0:0,0:0:0:0:
310,200,187557,1,2,3:2:0:0:
391,296,187880,2,0,P|449:268|490:214,1,125.999996154785,2|0,3:2|3:0,0:0:0:0:
451,168,188363,2,0,B|420:159|420:159|372:182,2,62.9999980773926,10|0|2,0:0|3:0|0:0,0:0:0:0:
489,117,188847,1,0,3:0:0:0:
390,48,189170,1,0,3:0:0:0:
390,48,189331,1,8,0:0:0:0:
272,93,189654,6,0,B|255:63|255:63|263:25,2,62.9999980773926,2|0|8,3:2|0:0|0:0,0:0:0:0:
234,143,190138,1,2,3:2:0:0:
115,184,190460,2,0,P|67:153|32:85,1,125.999996154785,2|0,3:2|3:0,0:0:0:0:
43,31,190944,2,0,B|72:12|72:12|118:14,1,62.9999980773926,10|0,0:0|3:0,0:0:0:0:
154,57,191267,1,10,0:0:0:0:
154,57,191428,2,0,P|209:73|283:79,1,125.999996154785,0|0,3:0|3:0,0:0:0:0:
303,21,191912,1,10,0:0:0:0:
408,89,192234,6,0,B|433:147|433:147|428:226,1,125.999996154785,14|8,0:0|0:0,0:0:0:0:
382,252,192718,1,2,3:2:0:0:
264,205,193041,2,0,P|204:207|142:254,1,125.999996154785,2|0,3:2|3:0,0:0:0:0:
126,301,193525,2,0,B|89:307|89:307|46:287,2,62.9999980773926,10|0|10,0:0|3:0|0:0,0:0:0:0:
155,356,194009,1,0,3:0:0:0:
272,304,194331,1,0,3:0:0:0:
272,304,194492,1,8,0:0:0:0:
394,332,194815,6,0,B|429:340|429:340|462:321,2,62.9999980773926,14|0|8,0:0|0:0|0:0,0:0:0:0:
378,270,195299,1,2,3:2:0:0:
461,175,195621,2,0,P|469:131|466:42,1,125.999996154785,2|0,3:2|3:0,0:0:0:0:
418,19,196105,1,14,0:0:0:0:
418,19,196267,2,0,B|387:13|387:13|343:41,2,62.9999980773926,0|10|0,3:0|0:0|3:0,0:0:0:0:
367,134,196912,1,0,3:0:0:0:
367,134,197073,6,0,B|327:136|327:136|309:125|309:125|291:125|291:125|272:113|272:113|234:115,1,138.000002632141,10|0,0:0|0:0,0:0:0:0:
