osu file format v14

[General]
AudioFilename: audio.mp3
AudioLeadIn: 0
PreviewTime: 61590
Countdown: 0
SampleSet: Soft
StackLeniency: 0.7
Mode: 0
LetterboxInBreaks: 0
WidescreenStoryboard: 0

[Editor]
Bookmarks: 2559,15461,25784,30945,41268,51590,61913,72235,82558,92880,103203,112235,122557,132880,143202,148364,153525,163847,176751,187073,197396
DistanceSpacing: 1
BeatDivisor: 3
GridSize: 4
TimelineZoom: 1.399998

[Metadata]
Title:stlaeria
TitleUnicode:ストレリア
Artist:Hijirime Laeria
ArtistUnicode:聖女れりあ
Creator:Hinsvar
Version:Hard
Source:
Tags:Strelia Sutoreria Japanese Rock J-Rock JRock かいりきベア Kairiki bear VTuber Virtual YouTuber original song indie independent
BeatmapID:2804595
BeatmapSetID:1352739

[Difficulty]
HPDrainRate:4.5
CircleSize:3.7
OverallDifficulty:6.6
ApproachRate:8
SliderMultiplier:1.44
SliderTickRate:1

[Events]
//Background and Video events
0,0,"laeria.jpg",0,0
//Break Periods
2,25984,28905
2,82758,90840
2,143402,147614
//Storyboard Layer 0 (Background)
//Storyboard Layer 1 (Fail)
//Storyboard Layer 2 (Pass)
//Storyboard Layer 3 (Foreground)
//Storyboard Layer 4 (Overlay)
//Storyboard Sound Samples

[TimingPoints]
623,322.58064516129,6,2,1,65,1,0
2559,322.58064516129,4,2,1,65,1,0
5058,-100,4,2,1,5,0,0
5139,322.58064516129,4,2,1,75,1,0
15461,-111.111111111111,4,2,1,55,0,0
24493,-100,4,2,1,60,0,0
25784,-100,4,2,1,65,0,0
41268,-100,4,2,1,70,0,0
51590,-100,4,2,1,75,0,0
54171,-100,4,2,1,70,0,0
56751,-100,4,2,1,75,0,0
61913,-90.9090909090909,4,2,1,85,0,1
81913,-100,4,2,1,85,0,1
82235,-100,4,2,1,75,0,0
82558,-100,4,2,1,75,0,1
82638,-100,4,2,1,75,0,0
92880,-100,4,2,1,60,0,0
98042,-100,4,2,1,65,0,0
103203,-100,4,2,1,75,0,0
108364,-90.9090909090909,4,2,1,80,0,0
109816,-100,4,2,1,75,0,0
110300,-125,4,2,1,75,0,0
110945,-125,4,2,1,5,0,0
111913,-166.666666666667,4,2,1,75,0,0
112235,322.58064516129,4,2,1,85,1,1
112235,-90.9090909090909,4,2,1,85,0,1
122557,-100,4,2,1,70,0,0
124815,-100,4,2,1,60,0,0
125138,-100,4,2,1,70,0,0
127396,-100,4,2,1,60,0,0
127718,-100,4,2,1,70,0,0
129976,-100,4,2,1,60,0,0
130299,-100,4,2,1,70,0,0
132557,-100,4,2,1,60,0,0
132880,-100,4,2,1,75,0,0
138041,-111.111111111111,4,2,1,65,0,0
139331,-111.111111111111,4,2,1,75,0,0
140622,-100,4,2,1,75,0,0
143202,-100,4,2,1,55,0,0
148364,-111.111111111111,4,2,1,65,0,0
150944,-100,4,2,1,75,0,0
153525,-90.9090909090909,4,2,1,85,0,1
174170,-100,4,2,1,75,0,0
175299,-90.9090909090909,4,2,1,85,0,1
176428,-90.9090909090909,4,2,1,85,0,0
176751,322.58064516129,4,2,1,75,1,1
176831,-100,4,2,1,75,0,0
187073,-95.2380952380952,4,2,1,80,0,0
197073,-83.3333333333333,4,2,1,80,0,0
197396,-83.3333333333333,4,2,1,60,0,0

[Colours]
Combo1 : 218,158,105
Combo2 : 145,138,202

[HitObjects]
145,277,2559,6,0,P|150:309|163:352,2,72,8|8|8,0:0|0:0|0:0,0:0:0:0:
152,190,3042,1,8,0:0:0:0:
202,120,3204,1,10,0:0:0:0:
367,277,3526,6,0,P|361:309|348:352,2,72,8|8|8,0:0|0:0|0:0,0:0:0:0:
360,190,4009,1,8,0:0:0:0:
310,120,4171,2,0,B|322:47|322:47|381:3,2,144,10|10|10,0:0|0:0|0:0,0:0:0:0:
194,326,5139,6,0,P|162:348|117:352,2,72,6|0|8,3:2|0:0|0:0,0:0:0:0:
230,247,5622,1,2,0:0:0:0:
230,247,5945,2,0,P|210:162|205:85,1,144,2|0,0:0|0:0,0:0:0:0:
140,18,6429,2,0,P|129:49|102:97,1,72,2|0,3:2|0:0,0:0:0:0:
127,168,6751,2,0,P|98:184|47:204,1,72,8|2,0:0|0:0,0:0:0:0:
13,370,7235,2,0,P|4:349|-14:329,2,36,0|0|8,0:0|0:0|0:0,0:0:0:0:
83,319,7558,1,0,0:0:0:0:
157,363,7719,6,0,P|186:358|227:339,2,72,2|0|8,3:2|0:0|0:0,0:0:0:0:
128,246,8203,1,2,0:0:0:0:
128,246,8526,2,0,P|144:175|175:96,1,144,2|0,0:0|0:0,0:0:0:0:
189,5,9009,2,0,P|208:32|259:63,1,72,2|0,3:2|0:0,0:0:0:0:
312,138,9332,2,0,B|342:118|342:118|386:126,1,72,8|2,0:0|0:0,0:0:0:0:
497,248,9816,1,0,0:0:0:0:
497,248,9897,1,0,0:0:0:0:
497,248,9977,2,0,B|479:284|479:284|485:331,1,72,10|0,0:0|0:0,0:0:0:0:
382,378,10300,6,0,P|351:354|317:337,2,72,6|0|8,3:2|0:0|0:0,0:0:0:0:
399,274,10784,1,2,0:0:0:0:
399,274,11106,2,0,P|381:196|320:146,1,144,2|0,0:0|0:0,0:0:0:0:
284,53,11590,2,0,P|270:86|235:119,1,72,2|0,3:2|0:0,0:0:0:0:
141,161,11913,2,0,P|169:182|203:193,1,72,8|2,0:0|0:0,0:0:0:0:
69,343,12397,2,0,P|51:355|31:371,2,36,0|0|8,0:0|0:0|0:0,0:0:0:0:
152,366,12719,1,0,0:0:0:0:
226,280,12880,6,0,P|228:321|243:369,2,72,6|0|8,3:2|0:0|0:0,0:0:0:0:
281,213,13364,1,2,0:0:0:0:
281,213,13687,2,0,P|275:143|282:64,1,144,2|0,0:0|0:0,0:0:0:0:
425,25,14171,6,0,B|406:54|406:54|363:73,1,72,10|0,0:0|0:0,0:0:0:0:
368,178,14493,2,0,B|397:197|397:197|416:240,2,72,10|0|8,0:0|3:0|0:0,0:0:0:0:
290,217,14977,1,2,3:2:0:0:
219,167,15138,1,10,0:0:0:0:
228,80,15300,1,2,3:2:0:0:
302,41,15461,6,0,P|333:32|449:29,2,129.599996044922,6|0|0,3:2|3:0|3:0,0:0:0:0:
228,80,16268,1,2,0:0:0:0:
51,12,16590,2,0,B|70:61|70:61|76:158,1,129.599996044922,10|0,0:0|0:0,0:0:0:0:
125,205,17074,2,0,P|120:233|92:275,1,64.799998022461,2|0,3:2|0:0,0:0:0:0:
51,331,17397,1,2,3:2:0:0:
256,375,17719,1,0,3:0:0:0:
461,331,18042,5,2,3:2:0:0:
461,331,18364,2,0,P|458:305|444:262,2,64.799998022461,0|2|0,3:0|0:0|3:0,0:0:0:0:
495,187,18848,1,2,0:0:0:0:
495,187,19171,6,0,B|443:156|443:156|458:85,1,129.599996044922,8|0,0:0|0:0,0:0:0:0:
404,22,19655,2,0,P|371:13|336:7,2,64.799998022461,0|0|0,3:0|0:0|3:0,0:0:0:0:
323,89,20138,2,0,P|302:99|280:114,2,32.3999990112305,2|0|2,3:2|3:0|3:2,0:0:0:0:
376,156,20461,1,10,0:0:0:0:
315,249,20622,6,0,P|258:234|194:187,2,129.599996044922,6|0|0,3:2|3:0|3:0,0:0:0:0:
249,321,21429,1,2,0:0:0:0:
249,321,21751,2,0,B|185:314|185:314|123:355,1,129.599996044922,10|0,0:0|0:0,0:0:0:0:
33,363,22235,2,0,P|47:334|54:290,1,64.799998022461,2|0,3:2|0:0,0:0:0:0:
3,233,22558,1,0,3:0:0:0:
94,45,22880,1,10,0:0:0:0:
247,185,23203,5,4,3:2:0:0:
309,129,23364,1,2,0:0:0:0:
309,129,23445,1,2,0:0:0:0:
309,129,23526,2,0,P|369:133|447:163,1,129.599996044922,2|0,3:2|3:0,0:0:0:0:
434,155,24171,1,8,0:0:0:0:
487,237,24332,1,10,0:0:0:0:
401,286,24493,5,8,0:0:0:0:
401,286,24655,2,0,P|326:290|276:235,2,144,2|2|2,0:0|0:0|0:0,0:0:0:0:
499,246,25461,2,0,P|503:258|504:281,3,36,2|2|2|2,3:2|0:0|0:0|0:0,0:0:0:0:
498,313,25784,5,4,3:2:0:0:
169,42,29655,6,0,P|152:77|142:142,1,72,14|0,0:0|3:0,0:0:0:0:
167,192,29977,1,2,0:0:0:0:
286,144,30138,1,14,0:0:0:0:
286,144,30461,1,2,0:0:0:0:
372,144,30622,1,14,0:0:0:0:
402,225,30784,1,0,3:0:0:0:
352,295,30945,6,0,P|278:302|200:267,2,144,6|8|2,3:2|0:0|3:2,0:0:0:0:
436,365,31751,2,0,B|457:337|457:337|462:290,1,72,2|8,0:0|0:0,0:0:0:0:
426,220,32074,2,0,P|417:138|441:72,1,144,2|0,0:0|0:0,0:0:0:0:
357,15,32558,2,0,B|324:18|324:18|295:52,1,72,8|0,0:0|0:0,0:0:0:0:
262,125,32880,1,2,3:2:0:0:
69,26,33203,1,8,0:0:0:0:
262,125,33526,5,2,3:2:0:0:
216,198,33687,2,0,P|148:223|57:227,1,144,0|2,0:0|0:0,0:0:0:0:
30,155,34171,1,0,3:0:0:0:
30,155,34251,1,2,0:0:0:0:
30,155,34332,2,0,P|29:115|45:79,2,72,2|8|0,0:0|0:0|0:0,0:0:0:0:
124,105,34816,5,2,3:2:0:0:
261,255,35138,2,0,P|274:216|276:177,2,72,8|0|2,0:0|0:0|3:2,0:0:0:0:
205,321,35622,1,2,0:0:0:0:
274,373,35784,1,10,0:0:0:0:
352,336,35945,1,2,0:0:0:0:
466,364,36106,6,0,P|465:303|453:214,1,144,6|8,3:2|0:0,0:0:0:0:
357,29,36751,1,2,3:2:0:0:
357,29,36832,1,2,0:0:0:0:
357,29,36913,2,0,P|340:56|328:107,1,72,2|8,0:0|0:0,0:0:0:0:
280,165,37235,2,0,P|219:185|122:193,1,144,2|0,0:0|0:0,0:0:0:0:
73,92,37719,2,0,B|111:87|111:87|154:111,1,72,8|0,0:0|0:0,0:0:0:0:
220,9,38042,2,0,P|227:42|229:93,1,72,2|0,3:2|0:0,0:0:0:0:
215,165,38364,1,8,0:0:0:0:
215,165,38687,5,2,3:2:0:0:
256,265,38848,2,0,P|326:296|401:292,1,144,0|2,0:0|0:0,0:0:0:0:
424,176,39332,2,0,P|387:187|349:212,1,72,2|0,3:2|0:0,0:0:0:0:
281,127,39655,2,0,L|273:91,2,36,8|0|0,0:0|0:0|0:0,0:0:0:0:
201,188,39977,6,0,L|169:168,2,36,2|0|0,3:2|0:0|0:0,0:0:0:0:
185,288,40300,2,0,L|149:296,2,36,10|0|0,0:0|0:0|0:0,0:0:0:0:
250,364,40622,1,2,3:2:0:0:
324,275,40784,1,2,0:0:0:0:
408,294,40945,1,10,0:0:0:0:
349,357,41106,1,2,0:0:0:0:
324,275,41268,6,0,P|316:201|318:119,2,144,6|8|2,3:2|0:0|3:2,0:0:0:0:
228,212,42074,2,0,P|234:246|237:293,1,72,0|8,0:0|0:0,0:0:0:0:
178,347,42397,2,0,P|110:327|12:316,1,144,2|0,0:0|0:0,0:0:0:0:
19,202,42880,2,0,B|50:226|50:226|91:212,1,72,8|0,0:0|0:0,0:0:0:0:
113,134,43203,1,2,3:2:0:0:
256,293,43526,1,10,0:0:0:0:
399,134,43848,5,0,3:0:0:0:
478,170,44009,2,0,B|497:100|497:100|436:53,1,144,2|2,0:0|0:0,0:0:0:0:
358,28,44493,1,0,3:0:0:0:
301,94,44655,1,2,0:0:0:0:
301,94,44735,1,2,0:0:0:0:
301,94,44816,2,0,B|268:105|268:105|227:86,1,72,10|0,0:0|0:0,0:0:0:0:
144,18,45138,5,2,3:2:0:0:
144,18,45461,2,0,B|125:47|125:47|112:92,1,72,8|0,0:0|0:0,0:0:0:0:
141,165,45784,1,2,3:2:0:0:
57,250,45945,1,2,0:0:0:0:
139,274,46106,1,10,0:0:0:0:
221,298,46268,1,2,0:0:0:0:
328,242,46429,6,0,P|374:290|359:376,1,144,6|8,3:2|0:0,0:0:0:0:
152,356,47074,1,2,3:2:0:0:
152,356,47155,1,2,0:0:0:0:
151,355,47235,2,0,P|141:320|137:284,1,72,2|8,0:0|0:0,0:0:0:0:
210,202,47558,2,0,P|231:124|202:47,1,144,2|0,0:0|0:0,0:0:0:0:
313,21,48042,2,0,B|312:59|312:59|335:93,1,72,8|0,0:0|0:0,0:0:0:0:
404,132,48364,1,2,3:2:0:0:
256,268,48687,1,8,0:0:0:0:
108,132,49009,5,6,3:2:0:0:
48,195,49171,2,0,P|31:252|28:346,1,144,0|2,0:0|0:0,0:0:0:0:
133,384,49655,2,0,P|149:326|153:233,1,144,0|10,3:0|0:0,0:0:0:0:
217,184,50138,1,0,0:0:0:0:
297,271,50300,5,14,0:0:0:0:
297,271,50380,1,2,0:0:0:0:
297,271,50461,1,2,0:0:0:0:
377,238,50622,2,0,L|417:247,2,36,0|0|14,3:0|3:0|0:0,0:0:0:0:
194,333,51106,2,0,P|170:265|192:189,1,144,0|0,3:0|3:0,0:0:0:0:
254,116,51590,6,0,L|324:153,1,72,8|10,0:0|0:0,0:0:0:0:
390,196,51913,1,8,0:0:0:0:
468,160,52074,1,8,0:0:0:0:
486,75,52235,1,10,0:0:0:0:
486,75,52558,5,8,0:0:0:0:
419,20,52719,1,10,0:0:0:0:
332,20,52880,1,8,0:0:0:0:
271,81,53042,2,0,L|237:150,1,72,8|10,0:0|0:0,0:0:0:0:
82,29,53526,2,0,L|8:15,2,72,10|0|8,0:0|3:0|0:0,0:0:0:0:
198,210,54171,5,6,3:2:0:0:
146,277,54332,2,0,P|131:310|129:360,1,72,0|8,0:0|0:0,0:0:0:0:
60,260,54655,2,0,P|44:187|8:114,2,144,2|2|2,0:0|0:0|0:0,0:0:0:0:
128,347,55461,6,0,P|162:345|211:332,2,72,2|0|8,3:2|0:0|0:0,0:0:0:0:
191,250,55945,1,2,0:0:0:0:
345,355,56268,1,2,0:0:0:0:
469,215,56590,1,2,0:0:0:0:
410,155,56751,6,0,L|393:82,1,72,8|10,0:0|0:0,0:0:0:0:
324,32,57074,1,8,0:0:0:0:
246,69,57235,1,8,0:0:0:0:
169,27,57397,1,10,0:0:0:0:
169,27,57719,5,8,0:0:0:0:
117,97,57881,1,10,0:0:0:0:
31,87,58042,1,8,0:0:0:0:
22,173,58204,2,0,L|80:223,1,72,8|10,0:0|0:0,0:0:0:0:
285,287,58687,2,0,L|260:371,2,72,10|0|8,0:0|3:0|0:0,0:0:0:0:
182,97,59332,5,6,3:2:0:0:
150,181,59493,1,8,0:0:0:0:
150,181,59574,1,8,0:0:0:0:
150,181,59655,2,0,B|115:192|115:192|69:182,1,72,10|0,0:0|3:0,0:0:0:0:
23,120,59977,1,10,0:0:0:0:
98,33,60138,1,10,0:0:0:0:
302,103,60461,5,10,0:0:0:0:
192,275,60784,1,10,0:0:0:0:
192,275,60864,1,10,0:0:0:0:
192,275,60945,2,0,B|183:310|183:310|200:362,2,72,10|10|2,0:0|0:0|3:2,0:0:0:0:
347,199,61590,1,8,0:0:0:0:
347,199,61913,6,0,P|361:125|440:55,1,158.400004833985,6|8,3:2|0:0,0:0:0:0:
490,125,62397,1,0,0:0:0:0:
442,207,62558,2,0,P|440:250|451:298,1,79.2000024169923,2|0,3:2|0:0,0:0:0:0:
372,377,62880,2,0,B|345:349|345:349|298:333,1,79.2000024169923,8|0,0:0|0:0,0:0:0:0:
218,372,63203,6,0,P|180:382|133:384,2,79.2000024169923,2|0|8,3:2|0:0|0:0,0:0:0:0:
172,287,63687,1,0,0:0:0:0:
94,200,63848,2,0,P|159:194|233:133,1,158.400004833985,2|8,3:2|0:0,0:0:0:0:
176,58,64332,1,0,0:0:0:0:
57,25,64493,6,0,P|43:55|34:110,1,79.2000024169923,2|0,3:2|0:0,0:0:0:0:
112,190,64816,2,0,P|104:228|89:265,1,79.2000024169923,8|0,0:0|0:0,0:0:0:0:
29,338,65138,1,2,3:2:0:0:
29,338,65300,2,0,P|63:364|112:374,2,79.2000024169923,0|8|0,0:0|0:0|0:0,0:0:0:0:
2,246,65784,5,2,3:2:0:0:
173,82,66106,1,10,0:0:0:0:
275,296,66429,1,2,3:2:0:0:
340,227,66590,1,8,0:0:0:0:
340,227,66671,1,8,0:0:0:0:
340,227,66751,1,10,0:0:0:0:
473,32,67074,6,0,P|409:34|291:66,1,158.400004833985,6|8,3:2|0:0,0:0:0:0:
251,124,67558,1,0,0:0:0:0:
136,32,67719,2,0,P|154:66|166:115,1,79.2000024169923,2|0,3:2|0:0,0:0:0:0:
233,211,68042,2,0,P|221:248|195:292,1,79.2000024169923,8|0,0:0|0:0,0:0:0:0:
117,327,68364,6,0,P|80:313|33:314,2,79.2000024169923,2|0|8,3:2|0:0|0:0,0:0:0:0:
197,378,68848,1,0,0:0:0:0:
312,304,69009,2,0,B|384:284|384:284|452:337,1,158.400004833985,2|8,3:2|0:0,0:0:0:0:
506,258,69493,1,0,0:0:0:0:
397,193,69655,6,0,P|386:150|387:105,1,79.2000024169923,2|0,3:2|0:0,0:0:0:0:
296,83,69977,2,0,P|307:40|331:1,1,79.2000024169923,8|0,0:0|0:0,0:0:0:0:
443,25,70300,2,0,B|472:52|472:52|487:98,1,79.2000024169923,2|0,3:2|0:0,0:0:0:0:
475,184,70622,2,0,B|456:218|456:218|415:245,1,79.2000024169923,8|0,0:0|0:0,0:0:0:0:
302,179,70945,5,10,0:0:0:0:
302,179,71268,1,10,0:0:0:0:
302,179,71590,1,10,0:0:0:0:
223,232,71751,1,0,3:0:0:0:
211,326,71913,1,10,0:0:0:0:
302,378,72074,1,8,0:0:0:0:
302,378,72155,1,8,0:0:0:0:
302,378,72235,5,6,3:2:0:0:
391,325,72397,2,0,L|398:283,2,39.6000012084961,2|2|10,0:0|0:0|0:0,0:0:0:0:
485,362,72719,1,0,0:0:0:0:
499,245,72880,6,0,L|446:85,1,158.400004833985,2|8,3:2|0:0,0:0:0:0:
390,198,73364,2,0,L|264:85,1,158.400004833985,2|2,0:0|0:0,0:0:0:0:
274,214,73848,1,10,0:0:0:0:
274,214,74171,2,0,L|108:179,1,158.400004833985,2|8,3:2|0:0,0:0:0:0:
51,245,74655,1,0,3:0:0:0:
3,123,74816,6,0,P|13:41|75:-1,2,158.400004833985,6|8|0,3:2|0:0|3:0,0:0:0:0:
91,156,75622,2,0,B|119:131|119:131|175:144,1,79.2000024169923,2|8,0:0|0:0,0:0:0:0:
225,238,75945,6,0,P|296:264|399:266,1,158.400004833985,2|0,0:0|0:0,0:0:0:0:
462,349,76429,2,0,P|471:315|489:266,1,79.2000024169923,8|0,0:0|0:0,0:0:0:0:
442,163,76751,1,2,3:2:0:0:
358,115,76913,1,2,3:2:0:0:
275,162,77074,1,8,0:0:0:0:
275,162,77397,5,6,3:2:0:0:
214,235,77558,1,2,0:0:0:0:
214,235,77638,1,2,0:0:0:0:
214,235,77719,1,10,0:0:0:0:
306,307,77880,1,0,0:0:0:0:
202,362,78042,6,0,P|131:372|33:378,1,158.400004833985,2|8,3:2|0:0,0:0:0:0:
0,293,78526,2,0,P|26:226|70:138,1,158.400004833985,2|2,0:0|0:0,0:0:0:0:
163,151,79009,1,10,0:0:0:0:
163,151,79332,2,0,P|207:207|261:289,1,158.400004833985,2|8,3:2|0:0,0:0:0:0:
327,341,79816,1,0,0:0:0:0:
440,290,79977,6,0,B|467:223|467:223|439:138,1,158.400004833985,6|8,3:2|0:0,0:0:0:0:
366,80,80461,1,0,3:0:0:0:
366,80,80542,1,0,3:0:0:0:
366,80,80622,2,0,P|366:39|382:3,2,79.2000024169923,2|2|8,3:2|0:0|0:0,0:0:0:0:
256,126,81106,5,4,0:0:0:0:
256,126,81429,1,10,0:0:0:0:
187,191,81590,1,10,0:0:0:0:
97,160,81751,1,8,0:0:0:0:
79,66,81913,2,0,P|84:35|120:2,2,72,10|0|10,0:0|3:0|0:0,0:0:0:0:
136,276,82558,5,6,3:2:0:0:
54,103,91590,6,0,B|88:88|88:88|141:85,1,72,10|0,0:0|3:0,0:0:0:0:
188,29,91913,2,0,B|222:42|222:42|262:77,1,72,8|2,0:0|3:2,0:0:0:0:
311,257,92397,1,2,3:2:0:0:
384,301,92558,1,10,3:2:0:0:
452,248,92719,1,2,3:2:0:0:
438,162,92880,6,0,P|460:93|497:27,2,144,6|0|10,3:2|3:0|0:0,0:0:0:0:
327,117,93687,2,0,P|335:152|324:198,1,72,0|0,0:0|3:0,0:0:0:0:
268,247,94009,2,0,P|208:253|113:271,1,144,10|8,0:0|0:0,0:0:0:0:
53,351,94493,1,2,3:2:0:0:
1,281,94655,1,0,0:0:0:0:
35,202,94816,2,0,B|47:140|47:140|35:55,1,144,8|2,0:0|3:2,0:0:0:0:
232,14,95461,6,0,P|221:50|217:87,2,72,2|0|8,3:2|0:0|0:0,0:0:0:0:
395,96,96106,1,8,0:0:0:0:
395,96,96187,1,2,0:0:0:0:
395,96,96268,1,2,0:0:0:0:
460,154,96429,2,0,P|430:178|377:176,1,72,0|8,3:0|0:0,0:0:0:0:
317,263,96751,6,0,P|305:297|304:345,2,72,2|8|2,3:2|0:0|3:2,0:0:0:0:
317,263,97397,1,8,0:0:0:0:
269,161,97558,2,0,B|268:125|268:125|287:85,2,72,2|10|2,0:0|0:0|0:0,0:0:0:0:
194,247,98042,6,0,P|132:280|53:287,2,144,6|0|10,3:2|3:0|0:0,0:0:0:0:
108,195,98848,2,0,P|90:188|61:169,2,36,2|2|0,0:0|0:0|3:0,0:0:0:0:
166,131,99171,1,10,0:0:0:0:
321,279,99493,2,0,P|359:270|389:254,2,72,8|2|0,0:0|3:2|0:0,0:0:0:0:
212,330,99977,2,0,P|227:301|234:255,1,72,8|0,0:0|0:0,0:0:0:0:
186,190,100300,1,2,3:2:0:0:
344,23,100622,5,8,0:0:0:0:
417,69,100784,1,8,0:0:0:0:
226,136,101106,1,2,3:2:0:0:
262,216,101268,1,8,0:0:0:0:
296,294,101429,1,8,0:0:0:0:
89,193,101751,5,0,3:0:0:0:
116,275,101913,2,0,L|159:284,2,36,10|2|8,0:0|0:0|0:0,0:0:0:0:
48,328,102235,2,0,L|5:341,2,36,2|2|6,0:0|0:0|3:2,0:0:0:0:
257,379,102719,1,0,3:0:0:0:
257,379,102800,1,0,3:0:0:0:
257,379,102880,1,8,0:0:0:0:
442,298,103203,6,0,B|452:266|452:266|445:221,1,72,8|10,0:0|0:0,0:0:0:0:
368,188,103526,1,8,0:0:0:0:
314,255,103687,1,8,0:0:0:0:
362,326,103848,1,10,0:0:0:0:
362,326,104171,5,8,0:0:0:0:
314,255,104332,1,10,0:0:0:0:
368,188,104493,1,8,0:0:0:0:
446,227,104655,2,0,B|452:266|452:266|442:298,1,72,8|10,0:0|0:0,0:0:0:0:
285,367,105138,2,0,P|251:351|214:346,2,72,10|0|8,0:0|3:0|0:0,0:0:0:0:
161,171,105784,5,6,3:2:0:0:
230,120,105945,1,8,0:0:0:0:
230,120,106026,1,8,0:0:0:0:
230,120,106106,2,0,B|236:82|236:82|222:34,1,72,8|0,0:0|3:0,0:0:0:0:
146,22,106429,1,10,0:0:0:0:
56,82,106590,1,0,3:0:0:0:
237,197,106913,5,6,3:2:0:0:
111,311,107235,2,0,P|106:290|103:271,2,36,0|0|10,3:0|3:0|0:0,0:0:0:0:
183,357,107558,1,0,3:0:0:0:
252,305,107719,2,0,B|315:279|315:279|388:296,1,144,10|10,0:0|0:0,0:0:0:0:
458,348,108203,1,8,0:0:0:0:
500,237,108364,5,6,3:2:0:0:
437,164,108526,2,0,P|431:141|433:116,2,39.6000012084961,8|8|10,0:0|0:0|0:0,0:0:0:0:
362,258,108848,1,0,3:0:0:0:
362,258,109009,2,0,B|351:218|351:218|313:182,2,79.2000024169923,10|10|0,0:0|0:0|3:0,0:0:0:0:
298,329,109493,1,2,3:2:0:0:
117,246,109816,6,0,L|110:208,2,36,10|10|10,0:0|0:0|0:0,0:0:0:0:
56,306,110138,1,8,0:0:0:0:
160,362,110300,6,0,B|227:383|272:349|266:336|311:296|379:326,1,230.4,10|0,0:0|0:0,0:0:0:0:
376,324,111913,1,10,0:0:0:0:
482,167,112235,6,0,P|473:93|441:14,1,158.400004833985,6|8,3:2|0:0,0:0:0:0:
391,108,112718,1,0,0:0:0:0:
301,30,112880,2,0,P|261:34|225:50,1,79.2000024169923,2|0,3:2|0:0,0:0:0:0:
134,24,113202,2,0,B|111:60|111:60|101:114,1,79.2000024169923,8|0,0:0|0:0,0:0:0:0:
21,193,113525,6,0,P|59:192|114:173,2,79.2000024169923,2|0|8,3:2|0:0|0:0,0:0:0:0:
77,275,114009,1,0,0:0:0:0:
25,381,114170,2,0,P|95:357|187:374,1,158.400004833985,2|8,3:2|0:0,0:0:0:0:
250,308,114654,1,0,0:0:0:0:
327,210,114815,6,0,P|340:301|372:378,1,158.400004833985,2|8,3:2|0:0,0:0:0:0:
453,329,115299,1,0,0:0:0:0:
506,223,115460,2,0,P|512:189|510:141,1,79.2000024169923,2|0,3:2|0:0,0:0:0:0:
435,52,115783,2,0,B|402:37|402:37|353:53,1,79.2000024169923,8|0,0:0|0:0,0:0:0:0:
256,102,116105,5,2,3:2:0:0:
441,192,116428,1,10,0:0:0:0:
256,282,116751,1,2,3:2:0:0:
256,192,116912,1,8,0:0:0:0:
256,192,116993,1,8,0:0:0:0:
256,192,117073,1,8,0:0:0:0:
62,336,117396,6,0,P|81:277|100:179,1,158.400004833985,6|8,3:2|0:0,0:0:0:0:
52,99,117880,1,0,0:0:0:0:
138,16,118041,2,0,P|173:19|218:35,1,79.2000024169923,2|0,3:2|0:0,0:0:0:0:
316,102,118364,2,0,B|276:106|276:106|235:137,1,79.2000024169923,8|0,0:0|0:0,0:0:0:0:
209,219,118686,6,0,P|204:257|206:303,2,79.2000024169923,2|0|8,3:2|0:0|0:0,0:0:0:0:
296,265,119170,1,0,0:0:0:0:
352,377,119331,2,0,P|373:313|428:231,1,158.400004833985,2|8,3:2|0:0,0:0:0:0:
505,285,119815,1,0,0:0:0:0:
430,375,119976,6,0,P|386:380|342:375,1,79.2000024169923,2|0,3:2|0:0,0:0:0:0:
281,311,120299,2,0,P|240:293|204:267,1,79.2000024169923,8|0,0:0|0:0,0:0:0:0:
142,170,120622,2,0,B|124:200|124:200|120:261,1,79.2000024169923,2|0,3:2|0:0,0:0:0:0:
42,296,120944,2,0,B|50:329|50:329|90:375,1,79.2000024169923,8|0,0:0|0:0,0:0:0:0:
167,327,121267,5,10,0:0:0:0:
256,100,121589,1,10,0:0:0:0:
345,327,121912,1,10,0:0:0:0:
303,241,122073,1,0,3:0:0:0:
209,241,122234,1,10,0:0:0:0:
167,327,122396,1,0,3:0:0:0:
167,327,122476,1,0,3:0:0:0:
167,327,122557,6,0,L|90:354,2,72,8|8|8,0:0|0:0|0:0,0:0:0:0:
147,242,123041,1,8,0:0:0:0:
66,271,123202,1,10,0:0:0:0:
167,57,123525,6,0,L|90:30,2,72,8|8|8,0:0|0:0|0:0,0:0:0:0:
147,142,124009,1,8,0:0:0:0:
66,113,124170,1,10,0:0:0:0:
241,239,124493,6,0,L|329:210,1,72,8|0,0:0|3:0,0:0:0:0:
342,129,124815,1,10,0:0:0:0:
458,328,125138,6,0,L|480:253,2,72,6|8|8,3:2|0:0|0:0,0:0:0:0:
387,378,125622,1,8,0:0:0:0:
316,328,125783,1,10,0:0:0:0:
150,168,126105,6,0,L|128:93,2,72,8|8|8,0:0|0:0|0:0,0:0:0:0:
221,218,126589,1,8,0:0:0:0:
292,168,126750,1,10,0:0:0:0:
172,348,127073,6,0,L|96:330,1,72,8|0,0:0|3:0,0:0:0:0:
58,255,127396,1,10,0:0:0:0:
232,154,127718,6,0,L|250:73,1,72,6|8,3:2|0:0,0:0:0:0:
324,16,128041,2,0,L|342:97,1,72,8|8,0:0|0:0,0:0:0:0:
420,118,128364,1,10,0:0:0:0:
493,320,128686,6,0,L|409:298,1,72,8|8,0:0|0:0,0:0:0:0:
354,354,129009,2,0,L|292:292,1,72,8|8,0:0|0:0,0:0:0:0:
277,220,129331,1,10,0:0:0:0:
100,348,129654,6,0,L|116:268,1,72,8|0,0:0|3:0,0:0:0:0:
66,206,129976,1,10,0:0:0:0:
217,25,130299,5,6,3:2:0:0:
312,56,130460,1,8,0:0:0:0:
312,156,130622,1,8,0:0:0:0:
216,188,130783,1,8,0:0:0:0:
157,106,130944,1,10,0:0:0:0:
312,56,131267,5,8,0:0:0:0:
217,25,131429,1,10,0:0:0:0:
312,156,132073,5,2,3:2:0:0:
216,188,132234,1,2,3:2:0:0:
64,105,132557,2,0,L|57:55,3,36,2|2|2|2,0:0|0:0|0:0|0:0,0:0:0:0:
71,38,132880,6,0,P|136:49|213:9,1,144,6|8,3:2|0:0,0:0:0:0:
260,134,133364,2,0,P|269:97|290:57,1,72,2|2,0:0|3:2,0:0:0:0:
388,20,133686,1,2,0:0:0:0:
388,20,133767,1,2,0:0:0:0:
388,20,133847,2,0,P|411:40|425:96,1,72,8|0,0:0|0:0,0:0:0:0:
365,168,134170,5,2,3:2:0:0:
315,238,134331,1,0,0:0:0:0:
344,319,134493,2,0,P|373:339|419:342,1,72,8|2,0:0|0:0,0:0:0:0:
482,299,134815,2,0,L|489:253,3,36,2|0|0|0,3:2|0:0|0:0|0:0,0:0:0:0:
469,231,135138,2,0,L|476:185,3,36,10|2|2|2,0:0|0:0|0:0|0:0,0:0:0:0:
495,165,135460,6,0,B|504:92|504:92|471:21,1,144,2|8,3:2|0:0,0:0:0:0:
348,70,135944,2,0,P|376:97|420:103,1,72,2|0,0:0|3:0,0:0:0:0:
480,183,136267,1,2,0:0:0:0:
447,262,136428,1,10,0:0:0:0:
361,274,136589,1,2,0:0:0:0:
281,201,136751,6,0,P|233:191|170:221,1,108,2|0,3:2|0:0,0:0:0:0:
153,242,137073,2,0,P|143:274|143:320,1,72,10|0,0:0|0:0,0:0:0:0:
21,360,137396,1,2,3:2:0:0:
58,282,137557,1,8,0:0:0:0:
29,200,137718,1,8,0:0:0:0:
214,101,138041,6,0,P|234:90|264:84,2,43.1999986816407,6|2|2,3:2|0:0|0:0,0:0:0:0:
165,121,138364,2,0,P|145:109|125:86,2,43.1999986816407,10|2|2,0:0|0:0|0:0,0:0:0:0:
183,169,138686,2,0,P|182:191|172:220,2,43.1999986816407,2|2|2,3:2|0:0|0:0,0:0:0:0:
233,155,139009,1,10,0:0:0:0:
364,310,139331,6,0,P|353:290|347:260,2,43.1999986816407,2|0|0,3:2|0:0|0:0,0:0:0:0:
412,330,139654,2,0,P|447:276|453:199,1,129.599996044922,10|0,0:0|3:0,0:0:0:0:
402,145,140138,1,2,0:0:0:0:
328,185,140299,1,10,0:0:0:0:
207,355,140622,5,6,3:2:0:0:
148,291,140783,2,0,L|101:283,2,36,0|2|10,0:0|0:0|0:0,0:0:0:0:
211,229,141105,1,0,0:0:0:0:
211,229,141186,1,2,0:0:0:0:
211,229,141267,2,0,L|188:147,1,72,2|0,3:2|0:0,0:0:0:0:
120,110,141589,2,0,L|143:28,1,72,10|2,0:0|0:0,0:0:0:0:
256,10,141912,5,10,0:0:0:0:
256,192,142234,1,10,0:0:0:0:
137,318,142557,2,0,L|205:339,1,72,10|0,0:0|3:0,0:0:0:0:
307,339,142880,2,0,L|375:318,1,72,8|8,0:0|0:0,0:0:0:0:
464,366,143202,5,4,0:0:0:0:
70,325,148364,6,0,P|129:307|192:267,1,129.599996044922,6|0,3:2|3:0,0:0:0:0:
185,184,148847,1,0,0:0:0:0:
185,184,149009,2,0,P|173:152|166:112,2,64.799998022461,2|0|0,3:2|0:0|3:0,0:0:0:0:
257,227,149493,1,0,0:0:0:0:
336,304,149654,6,0,P|338:338|325:372,2,64.799998022461,2|0|0,3:2|0:0|3:0,0:0:0:0:
401,250,150138,1,2,0:0:0:0:
366,173,150299,2,0,P|362:110|381:28,1,129.599996044922,2|8,3:2|0:0,0:0:0:0:
374,45,150944,6,0,P|341:31|295:15,1,72,10|0,0:0|3:0,0:0:0:0:
208,42,151267,1,10,0:0:0:0:
140,116,151428,1,0,3:0:0:0:
171,219,151589,2,0,P|204:233|250:249,1,72,10|0,0:0|3:0,0:0:0:0:
337,222,151912,1,10,0:0:0:0:
405,148,152073,1,0,3:0:0:0:
374,45,152234,5,10,0:0:0:0:
154,116,152557,1,10,0:0:0:0:
327,268,152880,1,10,0:0:0:0:
327,268,153041,1,0,3:0:0:0:
262,325,153202,2,0,L|211:334,3,36,10|8|8|8,0:0|0:0|0:0|0:0,0:0:0:0:
207,362,153525,6,0,P|148:325|56:294,1,158.400004833985,6|8,3:2|0:0,0:0:0:0:
14,205,154009,1,0,0:0:0:0:
90,101,154170,2,0,P|101:134|104:182,1,79.2000024169923,2|0,3:2|0:0,0:0:0:0:
199,249,154493,2,0,P|213:206|237:172,1,79.2000024169923,8|0,0:0|0:0,0:0:0:0:
317,219,154815,6,0,P|360:218|404:204,2,79.2000024169923,2|0|8,3:2|0:0|0:0,0:0:0:0:
376,303,155299,1,0,0:0:0:0:
271,367,155460,2,0,P|206:328|160:251,1,158.400004833985,2|8,3:2|0:0,0:0:0:0:
205,173,155944,1,0,0:0:0:0:
135,79,156105,6,0,P|105:104|87:139,1,79.2000024169923,2|0,3:2|0:0,0:0:0:0:
16,204,156428,2,0,P|13:243|25:280,1,79.2000024169923,8|0,0:0|0:0,0:0:0:0:
126,362,156751,1,2,3:2:0:0:
126,362,156912,2,0,L|145:285,2,79.2000024169923,0|8|0,0:0|0:0|0:0,0:0:0:0:
236,340,157396,5,2,3:2:0:0:
454,212,157718,1,10,0:0:0:0:
237,79,158041,1,2,3:2:0:0:
293,167,158202,1,8,0:0:0:0:
293,167,158283,1,8,0:0:0:0:
293,167,158364,1,10,0:0:0:0:
93,323,158686,6,0,P|71:259|75:159,1,158.400004833985,6|8,3:2|0:0,0:0:0:0:
151,116,159170,1,0,0:0:0:0:
223,210,159331,2,0,P|206:245|168:272,1,79.2000024169923,2|0,3:2|0:0,0:0:0:0:
215,355,159654,2,0,P|253:352|296:371,1,79.2000024169923,8|0,0:0|0:0,0:0:0:0:
381,292,159976,6,0,P|376:257|359:208,2,79.2000024169923,2|0|8,3:2|0:0|0:0,0:0:0:0:
441,365,160460,1,0,0:0:0:0:
497,259,160622,2,0,P|504:178|502:100,1,158.400004833985,2|8,3:2|0:0,0:0:0:0:
431,37,161105,1,0,0:0:0:0:
299,90,161267,6,0,P|337:97|388:117,1,79.2000024169923,2|0,3:2|0:0,0:0:0:0:
421,195,161589,2,0,P|389:216|338:238,1,79.2000024169923,8|0,0:0|0:0,0:0:0:0:
278,338,161912,2,0,P|273:303|255:258,1,79.2000024169923,2|0,3:2|0:0,0:0:0:0:
176,212,162234,2,0,P|144:236|120:267,1,79.2000024169923,8|0,0:0|0:0,0:0:0:0:
146,359,162557,5,10,0:0:0:0:
366,359,162880,1,8,0:0:0:0:
146,359,163202,1,8,0:0:0:0:
366,359,163525,1,10,0:0:0:0:
316,277,163686,1,8,0:0:0:0:
316,277,163767,1,8,0:0:0:0:
316,277,163847,5,6,3:2:0:0:
402,235,164009,2,0,L|416:189,2,39.6000012084961,2|2|10,0:0|0:0|0:0,0:0:0:0:
455,313,164331,1,0,0:0:0:0:
341,369,164493,6,0,L|178:376,1,158.400004833985,2|8,3:2|0:0,0:0:0:0:
109,273,164976,2,0,L|272:280,1,158.400004833985,2|2,0:0|0:0,0:0:0:0:
351,234,165460,1,10,0:0:0:0:
351,234,165783,2,0,B|378:153|378:153|360:80,1,158.400004833985,2|8,3:2|0:0,0:0:0:0:
284,24,166267,1,0,3:0:0:0:
284,24,166347,1,0,3:0:0:0:
284,24,166428,6,0,P|209:63|120:73,2,158.400004833985,6|8|0,3:2|0:0|3:0,0:0:0:0:
247,144,167234,2,0,P|241:190|242:234,1,79.2000024169923,2|8,0:0|0:0,0:0:0:0:
180,326,167557,6,0,P|108:293|64:215,1,158.400004833985,2|0,0:0|0:0,0:0:0:0:
73,102,168041,2,0,B|102:77|102:77|158:57,1,79.2000024169923,8|0,0:0|0:0,0:0:0:0:
228,146,168364,1,2,3:2:0:0:
319,170,168525,1,2,3:2:0:0:
348,79,168686,1,8,0:0:0:0:
487,291,169009,5,6,3:2:0:0:
419,357,169170,2,0,L|374:331,2,39.6000012084961,2|2|10,0:0|0:0|0:0,0:0:0:0:
376,243,169493,1,0,0:0:0:0:
293,333,169654,6,0,P|216:362|132:364,1,158.400004833985,2|8,3:2|0:0,0:0:0:0:
25,312,170138,2,0,P|83:258|155:226,1,158.400004833985,2|0,0:0|0:0,0:0:0:0:
266,241,170622,1,10,0:0:0:0:
266,241,170944,2,0,B|329:290|329:290|364:213,1,158.400004833985,2|8,3:2|0:0,0:0:0:0:
316,134,171428,1,0,3:0:0:0:
428,79,171589,6,0,P|466:147|482:228,2,158.400004833985,6|8|2,3:2|0:0|3:2,0:0:0:0:
352,20,172396,2,0,P|327:42|269:48,1,79.2000024169923,0|8,0:0|0:0,0:0:0:0:
169,13,172718,5,4,0:0:0:0:
169,13,173041,1,8,0:0:0:0:
216,104,173202,1,8,0:0:0:0:
195,205,173364,1,8,0:0:0:0:
110,263,173525,1,14,0:0:0:0:
110,263,173847,6,0,P|150:329|244:354,1,158.400004833985,10|0,0:0|0:0,0:0:0:0:
223,355,175299,1,6,3:2:0:0:
360,224,175622,1,2,3:2:0:0:
360,224,175702,1,0,3:0:0:0:
360,224,175783,2,0,L|367:170,2,39.6000012084961,2|0|2,3:2|3:0|3:2,0:0:0:0:
388,312,176105,5,14,0:0:0:0:
168,241,176428,1,10,0:0:0:0:
168,241,176751,6,0,P|177:204|202:172,2,72,6|0|8,3:2|0:0|0:0,0:0:0:0:
224,338,177234,1,2,0:0:0:0:
224,338,177557,2,0,P|154:364|56:369,1,144,2|0,0:0|0:0,0:0:0:0:
20,313,178041,2,0,P|5:278|4:236,1,72,2|0,3:2|0:0,0:0:0:0:
68,150,178363,2,0,P|75:112|99:77,1,72,8|2,0:0|0:0,0:0:0:0:
265,157,178847,2,0,P|275:177|283:201,2,36,0|0|8,0:0|0:0|0:0,0:0:0:0:
311,75,179170,1,0,0:0:0:0:
248,5,179331,6,0,P|213:6|167:24,2,72,2|0|8,3:2|0:0|0:0,0:0:0:0:
191,104,179815,1,2,0:0:0:0:
191,104,180138,2,0,P|166:178|156:258,1,144,2|0,0:0|0:0,0:0:0:0:
220,349,180621,2,0,P|241:320|254:278,1,72,2|0,3:2|0:0,0:0:0:0:
335,216,180944,2,0,P|329:180|308:141,1,72,8|2,0:0|0:0,0:0:0:0:
443,14,181427,1,0,0:0:0:0:
443,14,181508,1,0,0:0:0:0:
443,14,181589,2,0,B|469:37|469:37|512:29,1,72,10|0,0:0|0:0,0:0:0:0:
451,124,181912,6,0,P|444:157|437:207,2,72,6|0|8,3:2|0:0|0:0,0:0:0:0:
363,74,182396,1,2,0:0:0:0:
363,74,182718,2,0,P|298:98|216:115,1,144,2|0,0:0|0:0,0:0:0:0:
122,41,183202,2,0,P|87:29|52:24,1,72,2|0,3:2|0:0,0:0:0:0:
4,124,183525,2,0,P|20:156|41:184,1,72,8|2,0:0|0:0,0:0:0:0:
179,365,184009,1,0,0:0:0:0:
179,365,184089,1,0,0:0:0:0:
179,365,184170,2,0,P|188:323|205:283,1,72,8|0,0:0|0:0,0:0:0:0:
251,193,184492,6,0,P|271:225|286:264,2,72,6|0|8,3:2|0:0|0:0,0:0:0:0:
175,150,184976,1,2,0:0:0:0:
175,150,185299,2,0,P|175:71|220:21,1,144,2|0,0:0|0:0,0:0:0:0:
288,103,185783,6,0,B|323:119|323:119|362:108,1,72,10|0,0:0|0:0,0:0:0:0:
428,13,186105,2,0,B|460:3|460:3|495:19,2,72,8|2|8,0:0|3:2|0:0,0:0:0:0:
473,115,186589,1,0,3:0:0:0:
473,115,186670,1,0,3:0:0:0:
473,115,186751,1,10,0:0:0:0:
355,314,187073,6,0,P|312:265|278:184,1,151.199995385742,14|8,0:0|0:0,0:0:0:0:
327,108,187557,2,0,B|332:71|332:71|312:24,1,75.5999976928712,2|8,3:2|0:0,0:0:0:0:
209,87,187880,2,0,P|129:85|49:55,1,151.199995385742,2|0,3:2|3:0,0:0:0:0:
3,148,188363,2,0,B|17:181|17:181|24:230,1,75.5999976928712,10|0,0:0|3:0,0:0:0:0:
106,285,188686,2,0,B|83:313|83:313|64:358,1,75.5999976928712,10|0,0:0|3:0,0:0:0:0:
276,290,189170,1,0,3:0:0:0:
276,290,189251,1,0,3:0:0:0:
276,290,189331,2,0,P|270:251|253:208,1,75.5999976928712,8|0,0:0|3:0,0:0:0:0:
225,131,189654,6,0,B|223:90|223:90|242:55,2,75.5999976928712,10|0|8,0:0|0:0|0:0,0:0:0:0:
156,191,190138,1,2,3:2:0:0:
156,191,190460,2,0,P|85:154|56:82,1,151.199995385742,2|0,3:2|3:0,0:0:0:0:
146,6,190944,6,0,B|182:13|182:13|207:45,1,75.5999976928712,10|0,0:0|3:0,0:0:0:0:
282,128,191267,2,0,B|316:139|316:139|354:124,1,75.5999976928712,10|0,0:0|3:0,0:0:0:0:
485,290,191751,1,0,3:0:0:0:
485,290,191831,1,0,3:0:0:0:
485,290,191912,2,0,P|465:326|455:377,1,75.5999976928712,10|0,0:0|0:0,0:0:0:0:
370,209,192234,6,0,B|327:148|327:148|256:102,1,151.199995385742,14|8,0:0|0:0,0:0:0:0:
212,220,192718,2,0,P|250:238|291:228,1,75.5999976928712,2|8,3:2|0:0,0:0:0:0:
327,342,193041,2,0,P|259:346|168:377,1,151.199995385742,2|0,3:2|3:0,0:0:0:0:
103,276,193525,6,0,P|104:232|114:190,2,75.5999976928712,10|0|10,0:0|3:0|0:0,0:0:0:0:
51,350,194009,1,0,3:0:0:0:
22,154,194331,1,0,3:0:0:0:
22,154,194412,1,0,3:0:0:0:
22,154,194492,2,0,B|52:125|52:125|94:111,1,75.5999976928712,8|2,0:0|0:0,0:0:0:0:
149,23,194815,6,0,P|185:31|231:23,2,75.5999976928712,14|0|8,0:0|0:0|0:0,0:0:0:0:
198,121,195299,1,2,3:2:0:0:
198,121,195621,2,0,P|213:186|226:278,1,151.199995385742,2|0,3:2|3:0,0:0:0:0:
308,367,196105,6,0,P|325:328|351:301,1,75.5999976928712,14|0,0:0|3:0,0:0:0:0:
376,194,196428,2,0,B|410:168|410:168|445:173,2,75.5999976928712,10|0|8,0:0|3:0|0:0,0:0:0:0:
265,230,196912,1,0,3:0:0:0:
265,230,196992,1,0,3:0:0:0:
265,230,197073,6,0,P|242:150|180:77,1,172.799994726563,10|0,0:0|0:0,0:0:0:0:
