osu file format v14

[General]
AudioFilename: audio.mp3
AudioLeadIn: 0
PreviewTime: 61590
Countdown: 0
SampleSet: Soft
StackLeniency: 0.3
Mode: 0
LetterboxInBreaks: 0
WidescreenStoryboard: 0

[Editor]
Bookmarks: 2559,15461,25784,30945,41268,51590,61913,72235,82558,92880,103203,112235,122557,132880,143202,148364,153525,163847,176751,187073,197396
DistanceSpacing: 1
BeatDivisor: 4
GridSize: 16
TimelineZoom: 0.9999977

[Metadata]
Title:stlaeria
TitleUnicode:ストレリア
Artist:Hijirime Laeria
ArtistUnicode:聖女れりあ
Creator:Hinsvar
Version:Easy
Source:
Tags:Strelia Sutoreria Japanese Rock J-Rock JRock かいりきベア Kairiki bear VTuber Virtual YouTuber original song indie independent
BeatmapID:2806720
BeatmapSetID:1352739

[Difficulty]
HPDrainRate:3
CircleSize:2.4
OverallDifficulty:3
ApproachRate:4.3
SliderMultiplier:0.96
SliderTickRate:1

[Events]
//Background and Video events
0,0,"laeria.jpg",0,0
//Break Periods
2,25984,28372
2,82758,90307
2,143402,147081
//Storyboard Layer 0 (Background)
//Storyboard Layer 1 (Fail)
//Storyboard Layer 2 (Pass)
//Storyboard Layer 3 (Foreground)
//Storyboard Layer 4 (Overlay)
//Storyboard Sound Samples

[TimingPoints]
623,322.58064516129,6,2,1,65,1,0
2559,322.58064516129,4,2,1,65,1,0
5058,-100,4,2,1,5,0,0
5139,322.58064516129,4,2,1,75,1,0
15461,-100,4,2,1,55,0,0
24493,-100,4,2,1,60,0,0
25784,-100,4,2,1,65,0,0
41268,-100,4,2,1,70,0,0
51590,-100,4,2,1,75,0,0
54171,-100,4,2,1,70,0,0
56751,-100,4,2,1,75,0,0
61913,-100,4,2,1,85,0,1
82235,-100,4,2,1,75,0,0
82558,-100,4,2,1,75,0,1
82638,-100,4,2,1,75,0,0
92880,-100,4,2,1,60,0,0
98042,-100,4,2,1,65,0,0
103203,-100,4,2,1,75,0,0
108364,-100,4,2,1,80,0,0
109816,-100,4,2,1,75,0,0
112235,322.58064516129,4,2,1,85,1,1
122557,-100,4,2,1,70,0,0
124815,-100,4,2,1,60,0,0
125138,-100,4,2,1,70,0,0
127396,-100,4,2,1,60,0,0
127718,-100,4,2,1,70,0,0
129976,-100,4,2,1,60,0,0
130299,-100,4,2,1,70,0,0
132557,-100,4,2,1,60,0,0
132880,-100,4,2,1,75,0,0
138041,-100,4,2,1,65,0,0
139331,-100,4,2,1,75,0,0
143202,-100,4,2,1,55,0,0
148364,-100,4,2,1,65,0,0
150944,-100,4,2,1,75,0,0
153525,-100,4,2,1,85,0,1
174170,-100,4,2,1,75,0,0
175299,-100,4,2,1,85,0,1
176428,-100,4,2,1,75,0,0
176751,322.58064516129,4,2,1,75,1,1
176831,-100,4,2,1,75,0,0
187073,-100,4,2,1,80,0,0
197396,-100,4,2,1,60,0,0

[Colours]
Combo1 : 218,158,105
Combo2 : 145,138,202

[HitObjects]
137,179,2559,6,0,B|97:144|97:144|36:160,2,96,8|8|10,0:0|0:0|0:0,0:0:0:0:
157,272,3526,2,0,B|146:324|146:324|191:368,2,96,8|8|10,0:0|0:0|0:0,0:0:0:0:
233,213,4494,1,10,0:0:0:0:
316,260,4817,1,10,0:0:0:0:
399,213,5139,6,0,B|417:161|417:161|394:64,1,144,6|2,3:2|0:0,0:0:0:0:
315,22,5945,2,0,P|258:58|154:59,1,144,2|2,0:0|3:2,0:0:0:0:
93,32,6751,1,8,0:0:0:0:
4,202,7397,1,8,0:0:0:0:
98,185,7719,6,0,P|137:235|172:327,1,144,2|2,3:2|0:0,0:0:0:0:
252,355,8526,2,0,P|291:270|353:250,1,144,2|2,0:0|3:2,0:0:0:0:
412,305,9332,1,8,0:0:0:0:
490,129,9977,1,10,0:0:0:0:
414,69,10300,6,0,B|350:37|350:37|265:67,1,144,6|2,3:2|0:0,0:0:0:0:
299,155,11106,2,0,P|295:228|276:318,1,144,2|2,0:0|3:2,0:0:0:0:
201,350,11913,1,8,0:0:0:0:
60,218,12558,1,8,0:0:0:0:
104,133,12880,6,0,P|182:146|265:172,1,144,6|2,3:2|0:0,0:0:0:0:
327,213,13687,2,0,B|367:146|367:146|350:55,1,144,2|10,0:0|0:0,0:0:0:0:
274,28,14493,2,0,P|225:36|177:73,1,96,10|8,0:0|0:0,0:0:0:0:
123,133,15138,1,10,0:0:0:0:
176,212,15461,6,0,P|189:264|193:324,2,96,6|0|0,3:2|3:0|3:0,0:0:0:0:
261,78,16590,2,0,B|338:67|338:67|418:108,1,144,10|2,0:0|3:2,0:0:0:0:
466,165,17397,1,2,3:2:0:0:
408,241,17719,1,0,3:0:0:0:
453,325,18042,5,2,3:2:0:0:
270,266,18687,2,0,B|200:261|200:261|110:316,2,144,0|8|0,3:0|0:0|3:0,0:0:0:0:
332,192,19977,1,0,3:0:0:0:
274,114,20300,1,2,3:2:0:0:
181,138,20622,6,0,P|157:107|146:35,2,96,6|0|0,3:2|3:0|3:0,0:0:0:0:
37,205,21751,2,0,B|18:282|18:282|65:363,1,144,10|2,0:0|3:2,0:0:0:0:
137,379,22558,1,0,3:0:0:0:
182,294,22880,1,10,0:0:0:0:
268,335,23203,6,0,B|319:341|319:341|372:313,2,96,4|2|0,3:2|3:2|3:0,0:0:0:0:
268,238,24171,1,8,0:0:0:0:
367,114,24655,1,2,0:0:0:0:
453,155,24977,2,0,B|482:222|482:222|469:311,1,144,2|2,0:0|3:2,0:0:0:0:
396,352,25784,5,4,3:2:0:0:
208,194,29655,6,0,B|199:133|199:133|202:103|202:103|191:22,2,144,14|14|14,0:0|0:0|0:0,0:0:0:0:
278,260,30945,6,0,B|315:227|315:227|379:217,2,96,6|8|2,3:2|0:0|3:2,0:0:0:0:
160,365,32074,2,0,P|98:318|82:233,1,144,2|8,0:0|0:0,0:0:0:0:
86,161,32880,1,2,3:2:0:0:
154,93,33203,1,8,0:0:0:0:
228,153,33526,6,0,B|304:185|304:185|375:156,2,144,2|2|8,3:2|0:0|0:0,0:0:0:0:
161,222,34816,2,0,B|151:274|151:274|168:323,1,96,2|8,3:2|0:0,0:0:0:0:
250,358,35461,1,2,3:2:0:0:
373,211,36106,6,0,B|418:188|418:188|484:186,2,96,6|8|0,3:2|0:0|3:0,0:0:0:0:
244,118,37235,2,0,P|181:91|73:94,1,144,2|8,0:0|0:0,0:0:0:0:
35,151,38042,1,2,3:2:0:0:
62,242,38364,1,8,0:0:0:0:
157,233,38687,6,0,P|179:277|147:374,2,144,2|2|8,3:2|0:0|0:0,0:0:0:0:
71,190,39977,1,2,3:2:0:0:
38,99,40300,1,10,0:0:0:0:
98,24,40622,1,2,3:2:0:0:
278,90,41268,6,0,B|295:40|295:40|277:-15,2,96,6|8|2,3:2|0:0|3:2,0:0:0:0:
155,190,42397,2,0,P|164:264|227:327,1,144,2|8,0:0|0:0,0:0:0:0:
292,360,43203,1,2,3:2:0:0:
384,335,43526,1,10,0:0:0:0:
441,258,43848,6,0,B|459:194|459:194|422:106,2,144,0|2|10,3:0|0:0|0:0,0:0:0:0:
358,208,45138,2,0,B|308:196|308:196|254:213,1,96,2|8,3:2|0:0,0:0:0:0:
213,290,45784,1,2,3:2:0:0:
36,215,46429,6,0,P|24:259|24:330,2,96,6|8|0,3:2|0:0|3:0,0:0:0:0:
164,123,47558,2,0,P|235:168|307:143,1,144,2|8,0:0|0:0,0:0:0:0:
358,88,48364,1,2,3:2:0:0:
442,134,48687,1,8,0:0:0:0:
461,227,49009,6,0,B|435:314|435:314|363:354,2,144,6|2|10,3:2|0:0|0:0,0:0:0:0:
411,144,50300,2,0,B|346:126|346:126|255:149,1,144,14|14,0:0|0:0,0:0:0:0:
132,218,51268,1,2,0:0:0:0:
147,123,51590,6,0,P|144:70|126:19,2,96,8|8|10,0:0|0:0|0:0,0:0:0:0:
226,177,52558,2,0,P|237:228|233:282,2,96,8|8|10,0:0|0:0|0:0,0:0:0:0:
319,153,53526,1,10,0:0:0:0:
398,206,53848,1,8,0:0:0:0:
477,152,54171,6,0,P|477:72|451:0,1,144,6|2,3:2|0:0,0:0:0:0:
371,54,54977,1,2,0:0:0:0:
216,20,55461,2,0,P|190:93|190:170,1,144,2|2,3:2|0:0,0:0:0:0:
232,244,56268,1,2,0:0:0:0:
108,342,56751,6,0,B|67:308|67:308|6:317,2,96,8|8|10,0:0|0:0|0:0,0:0:0:0:
166,265,57719,2,0,B|161:211|161:211|111:175,2,96,8|8|10,0:0|0:0|0:0,0:0:0:0:
235,331,58687,1,10,0:0:0:0:
311,273,59009,1,8,0:0:0:0:
394,320,59332,6,0,B|448:317|448:317|487:271,2,96,6|10|10,3:2|0:0|0:0,0:0:0:0:
312,184,60461,2,0,P|248:143|146:138,1,144,10|10,0:0|0:0,0:0:0:0:
100,184,61268,1,2,3:2:0:0:
190,353,61913,6,0,P|269:364|358:302,1,192,6|2,3:2|3:2,0:0:0:0:
343,208,62880,1,8,0:0:0:0:
280,133,63203,2,0,B|273:82|273:82|306:24,2,96,2|8|2,3:2|0:0|3:2,0:0:0:0:
447,227,64493,6,0,P|444:277|425:336,1,96,2|8,3:2|0:0,0:0:0:0:
350,372,65138,2,0,P|308:344|267:298,1,96,2|8,3:2|0:0,0:0:0:0:
258,216,65784,1,2,3:2:0:0:
188,149,66106,1,10,0:0:0:0:
98,184,66429,1,2,3:2:0:0:
78,374,67074,6,0,P|180:370|283:331,1,192,6|2,3:2|3:2,0:0:0:0:
236,249,68042,1,8,0:0:0:0:
270,159,68364,2,0,B|319:140|319:140|380:144,2,96,2|8|2,3:2|0:0|3:2,0:0:0:0:
81,197,69655,6,0,P|76:147|92:87,1,96,2|8,3:2|0:0,0:0:0:0:
165,49,70300,2,0,P|211:69|255:113,1,96,2|8,3:2|0:0,0:0:0:0:
288,184,70945,1,10,0:0:0:0:
374,225,71268,1,10,0:0:0:0:
444,159,71590,2,0,B|451:105|451:105|418:56,1,96,10|10,0:0|0:0,0:0:0:0:
334,46,72235,6,0,P|294:82|265:143,1,96,6|10,3:2|0:0,0:0:0:0:
259,213,72880,2,0,P|280:283|284:382,2,144,2|2|10,3:2|0:0|0:0,0:0:0:0:
178,160,74171,1,2,3:2:0:0:
47,19,74816,6,0,P|22:59|9:125,1,96,6|8,3:2|0:0,0:0:0:0:
67,182,75461,1,2,3:2:0:0:
6,331,75945,2,0,P|79:339|149:287,1,144,2|8,0:0|0:0,0:0:0:0:
188,222,76751,1,2,3:2:0:0:
266,277,77074,1,8,0:0:0:0:
351,232,77397,6,0,B|363:180|363:180|346:124,1,96,6|10,3:2|0:0,0:0:0:0:
365,44,78042,2,0,P|432:26|523:64,2,144,2|2|10,3:2|0:0|0:0,0:0:0:0:
272,16,79332,1,2,3:2:0:0:
130,145,79977,6,0,B|122:192|122:192|149:264,1,96,6|8,3:2|0:0,0:0:0:0:
216,294,80622,1,2,3:2:0:0:
350,210,81106,2,0,B|421:202|421:202|486:250,1,144,4|10,0:0|0:0,0:0:0:0:
507,337,81913,1,10,0:0:0:0:
421,379,82235,1,10,0:0:0:0:
343,322,82558,5,6,3:2:0:0:
85,200,91590,5,10,0:0:0:0:
22,273,91913,1,10,0:0:0:0:
64,359,92235,2,0,B|108:372|108:372|166:345,1,96,8|10,0:0|0:0,0:0:0:0:
226,289,92880,6,0,P|273:288|327:306,2,96,6|0|10,3:2|3:0|0:0,0:0:0:0:
138,155,94009,2,0,B|154:87|154:87|212:17,1,144,10|2,0:0|3:2,0:0:0:0:
296,47,94816,1,8,0:0:0:0:
338,132,95138,1,2,3:2:0:0:
323,226,95461,6,0,B|381:259|381:259|460:225,2,144,2|2|0,3:2|0:0|3:0,0:0:0:0:
277,310,96751,2,0,P|233:329|179:335,1,96,2|2,3:2|3:2,0:0:0:0:
107,280,97397,1,8,0:0:0:0:
100,88,98042,6,0,P|138:57|191:43,2,96,6|0|10,3:2|3:0|0:0,0:0:0:0:
115,245,99171,2,0,B|187:273|187:273|258:233,1,144,10|2,0:0|3:2,0:0:0:0:
280,150,99977,1,8,0:0:0:0:
375,162,100300,1,2,3:2:0:0:
379,257,100622,5,8,0:0:0:0:
240,333,101106,2,0,B|177:346|177:346|96:299,1,144,2|2,3:2|0:0,0:0:0:0:
57,223,101913,2,0,P|84:143|93:66,1,144,10|6,0:0|3:2,0:0:0:0:
239,25,102880,1,8,0:0:0:0:
318,78,103203,6,0,P|370:76|434:61,2,96,8|8|10,0:0|0:0|0:0,0:0:0:0:
249,143,104171,2,0,P|197:141|133:126,2,96,8|8|10,0:0|0:0|0:0,0:0:0:0:
323,203,105138,1,10,0:0:0:0:
301,296,105461,1,8,0:0:0:0:
209,326,105784,6,0,B|174:296|174:296|157:245,2,96,6|8|10,3:2|0:0|0:0,0:0:0:0:
361,369,106913,2,0,B|408:325|408:325|425:237,1,144,6|10,3:2|0:0,0:0:0:0:
377,161,107719,1,10,0:0:0:0:
289,201,108042,1,10,0:0:0:0:
208,149,108364,6,0,B|187:105|187:105|205:51,2,96,6|10|10,3:2|0:0|0:0,0:0:0:0:
150,296,109493,1,2,3:2:0:0:
66,247,109816,2,0,B|24:192|24:192|24:114,1,144,10|10,0:0|0:0,0:0:0:0:
24,117,111913,1,10,0:0:0:0:
77,37,112235,6,0,P|158:16|272:32,1,192,6|2,3:2|3:2,0:0:0:0:
336,92,113202,1,8,0:0:0:0:
280,170,113525,2,0,P|257:218|245:268,2,96,2|8|2,3:2|0:0|3:2,0:0:0:0:
454,250,114815,6,0,P|485:222|500:154,1,96,2|8,3:2|0:0,0:0:0:0:
471,80,115460,2,0,P|438:54|368:51,1,96,2|8,3:2|0:0,0:0:0:0:
300,92,116105,1,2,3:2:0:0:
355,170,116428,1,10,0:0:0:0:
276,225,116751,1,2,3:2:0:0:
100,146,117396,6,0,P|48:228|64:336,1,192,6|2,3:2|3:2,0:0:0:0:
141,363,118364,1,8,0:0:0:0:
226,320,118686,2,0,P|271:304|335:312,2,96,2|8|2,3:2|0:0|3:2,0:0:0:0:
116,162,119976,6,0,B|109:114|109:114|136:51,1,96,2|8,3:2|0:0,0:0:0:0:
217,34,120622,2,0,B|255:62|255:62|281:126,1,96,2|8,3:2|0:0,0:0:0:0:
283,202,121267,1,10,0:0:0:0:
370,240,121589,1,10,0:0:0:0:
435,170,121912,1,10,0:0:0:0:
303,30,122557,6,0,B|258:12|258:12|209:11,2,96,8|8|10,0:0|0:0|0:0,0:0:0:0:
277,122,123525,2,0,B|230:126|230:126|181:155,2,96,8|8|10,0:0|0:0|0:0,0:0:0:0:
383,281,124815,1,10,0:0:0:0:
312,346,125138,6,0,P|270:362|204:359,2,96,6|8|10,3:2|0:0|0:0,0:0:0:0:
257,267,126105,2,0,P|215:248|170:200,2,96,8|8|10,0:0|0:0|0:0,0:0:0:0:
397,136,127396,1,10,0:0:0:0:
446,217,127718,6,0,P|464:262|481:332,2,96,6|8|10,3:2|0:0|0:0,0:0:0:0:
365,269,128686,2,0,P|335:307|282:356,2,96,8|8|10,0:0|0:0|0:0,0:0:0:0:
338,176,129654,1,8,0:0:0:0:
254,128,129976,1,10,0:0:0:0:
169,174,130299,6,0,B|127:197|127:197|62:172,2,96,6|8|10,3:2|0:0|0:0,0:0:0:0:
172,77,131267,2,0,L|203:35,1,48,8|10,0:0|0:0,0:0:0:0:
368,130,132073,2,0,L|415:111,1,48,2|2,3:2|3:2,0:0:0:0:
486,289,132880,6,0,P|433:356|320:353,1,192,6|2,3:2|3:2,0:0:0:0:
249,311,133847,1,8,0:0:0:0:
310,237,134170,2,0,B|322:191|322:191|316:140,1,96,2|8,3:2|0:0,0:0:0:0:
230,99,134815,1,2,3:2:0:0:
111,249,135460,6,0,B|64:270|64:270|8:237,2,96,2|8|0,3:2|0:0|3:0,0:0:0:0:
195,202,136428,1,10,0:0:0:0:
230,293,136751,2,0,P|268:315|331:311,1,96,2|10,3:2|0:0,0:0:0:0:
371,234,137396,2,0,P|413:222|455:175,1,96,2|8,3:2|0:0,0:0:0:0:
457,90,138041,6,0,B|386:24|386:24|292:69,1,192,6|2,3:2|3:2,0:0:0:0:
258,151,139009,1,10,0:0:0:0:
171,108,139331,1,2,3:2:0:0:
17,223,139976,2,0,B|11:270|11:270|25:334,1,96,0|10,3:0|0:0,0:0:0:0:
103,367,140622,5,6,3:2:0:0:
180,311,140944,2,0,P|228:312|278:333,2,96,10|2|10,0:0|3:2|0:0,0:0:0:0:
126,231,141912,1,10,0:0:0:0:
187,157,142234,1,10,0:0:0:0:
279,184,142557,1,10,0:0:0:0:
419,314,143202,5,4,0:0:0:0:
446,41,148364,6,0,P|380:50|310:159,1,192,6|2,3:2|3:2,0:0:0:0:
367,223,149331,1,0,3:0:0:0:
456,259,149654,2,0,P|478:309|488:367,2,96,2|0|2,3:2|3:0|3:2,0:0:0:0:
279,335,150944,6,0,B|234:349|234:349|165:311,1,96,10|10,0:0|0:0,0:0:0:0:
96,341,151589,2,0,B|67:301|67:301|75:255,1,96,10|10,0:0|0:0,0:0:0:0:
19,176,152234,1,10,0:0:0:0:
67,92,152557,1,10,0:0:0:0:
162,77,152880,1,10,0:0:0:0:
236,254,153525,6,0,P|314:291|439:274,1,192,6|2,3:2|3:2,0:0:0:0:
469,203,154493,1,8,0:0:0:0:
417,122,154815,2,0,B|415:72|415:72|433:22,2,96,2|8|2,3:2|0:0|3:2,0:0:0:0:
300,274,156105,6,0,P|258:250|226:214,1,96,2|8,3:2|0:0,0:0:0:0:
142,167,156751,2,0,P|100:190|68:226,1,96,2|8,3:2|0:0,0:0:0:0:
90,320,157396,1,2,3:2:0:0:
170,371,157718,1,10,0:0:0:0:
253,323,158041,1,2,3:2:0:0:
318,142,158686,6,0,P|420:127|506:186,1,192,6|2,3:2|3:2,0:0:0:0:
436,247,159654,1,8,0:0:0:0:
465,338,159976,2,0,B|431:369|431:369|372:366,2,96,2|8|2,3:2|0:0|3:2,0:0:0:0:
303,233,161267,6,0,P|276:274|253:325,1,96,2|8,3:2|0:0,0:0:0:0:
171,361,161912,2,0,P|150:317|124:277,1,96,2|8,3:2|0:0,0:0:0:0:
44,223,162557,1,10,0:0:0:0:
87,137,162880,1,8,0:0:0:0:
29,60,163202,2,0,B|74:39|74:39|143:50,1,96,8|10,0:0|0:0,0:0:0:0:
208,83,163847,6,0,P|255:64|294:18,1,96,6|10,3:2|0:0,0:0:0:0:
381,43,164493,2,0,B|444:76|444:76|468:166,2,144,2|2|10,3:2|0:0|0:0,0:0:0:0:
329,124,165783,1,2,3:2:0:0:
186,252,166428,6,0,P|199:295|227:351,1,96,6|8,3:2|0:0,0:0:0:0:
313,365,167073,1,2,3:2:0:0:
458,302,167557,2,0,P|446:231|400:155,1,144,2|8,0:0|0:0,0:0:0:0:
317,190,168364,1,2,3:2:0:0:
269,106,168686,1,8,0:0:0:0:
339,40,169009,6,0,B|389:31|389:31|437:49,1,96,6|10,3:2|0:0,0:0:0:0:
474,132,169654,2,0,P|464:187|421:285,2,144,2|2|10,3:2|0:0|0:0,0:0:0:0:
431,46,170944,1,2,3:2:0:0:
287,173,171589,6,0,B|240:189|240:189|186:157,1,96,6|8,3:2|0:0,0:0:0:0:
148,84,172234,1,2,3:2:0:0:
10,163,172718,2,0,B|-18:230|-18:230|14:308,1,144,4|8,0:0|0:0,0:0:0:0:
90,346,173525,1,14,0:0:0:0:
183,365,173847,2,0,P|229:353|272:318,1,96,10|0,0:0|0:0,0:0:0:0:
31,40,175299,6,0,B|98:13|98:13|176:44,1,144,6|2,3:2|3:2,0:0:0:0:
239,100,176105,1,14,0:0:0:0:
208,191,176428,1,10,0:0:0:0:
265,267,176751,6,0,P|340:291|418:252,1,144,6|2,3:2|0:0,0:0:0:0:
472,207,177557,2,0,B|430:152|430:152|440:68,1,144,2|2,0:0|3:2,0:0:0:0:
371,9,178363,1,8,0:0:0:0:
251,159,179009,1,8,0:0:0:0:
173,103,179331,6,0,B|102:93|102:93|16:135,1,144,2|2,3:2|0:0,0:0:0:0:
79,211,180138,2,0,P|75:278|57:365,1,144,2|2,0:0|3:2,0:0:0:0:
153,375,180944,1,8,0:0:0:0:
280,231,181589,1,10,0:0:0:0:
348,297,181912,6,0,P|427:284|469:226,1,144,6|2,3:2|0:0,0:0:0:0:
392,173,182718,2,0,B|342:128|342:128|362:48,1,144,2|2,0:0|3:2,0:0:0:0:
455,37,183525,1,8,0:0:0:0:
490,225,184170,1,8,0:0:0:0:
423,293,184492,6,0,P|359:290|280:254,1,144,6|2,3:2|0:0,0:0:0:0:
241,175,185299,2,0,P|170:164|126:229,1,144,2|10,0:0|0:0,0:0:0:0:
102,307,186105,1,8,0:0:0:0:
287,358,186751,1,10,0:0:0:0:
343,280,187073,6,0,B|391:255|391:255|449:259,2,96,14|8|8,0:0|0:0|0:0,0:0:0:0:
258,234,188041,1,8,0:0:0:0:
214,148,188363,1,10,0:0:0:0:
271,70,188686,2,0,B|355:25|355:25|438:101,1,192,10|8,0:0|0:0,0:0:0:0:
413,185,189654,6,0,P|430:225|483:280,2,96,10|8|8,0:0|0:0|0:0,0:0:0:0:
323,151,190621,1,8,0:0:0:0:
296,243,190944,2,0,B|252:265|252:265|191:255,1,96,10|10,0:0|0:0,0:0:0:0:
114,88,191912,1,10,0:0:0:0:
208,104,192234,6,0,B|212:56|212:56|180:8,2,96,14|8|8,0:0|0:0|0:0,0:0:0:0:
169,192,193202,1,8,0:0:0:0:
248,246,193525,2,0,B|263:294|263:294|256:361,1,96,10|10,0:0|0:0,0:0:0:0:
70,377,194492,1,8,0:0:0:0:
103,287,194815,6,0,P|88:241|69:197,2,96,14|8|8,0:0|0:0|0:0,0:0:0:0:
190,327,195783,1,8,0:0:0:0:
276,284,196105,2,0,B|322:268|322:268|376:275,2,96,14|10|8,0:0|0:0|0:0,0:0:0:0:
239,194,197073,2,0,B|253:146|253:146|290:109,1,96,10|0,0:0|0:0,0:0:0:0:
