osu file format v14

[General]
AudioFilename: audio.mp3
AudioLeadIn: 0
PreviewTime: 35734
Countdown: 0
SampleSet: Drum
StackLeniency: 0.7
Mode: 3
LetterboxInBreaks: 0
SpecialStyle: 0
WidescreenStoryboard: 1

[Editor]
Bookmarks: 7286,12803,23838,32114,36252,58321,62458,83148,105217,113493,116079,130045,154872,176941
DistanceSpacing: 1
BeatDivisor: 4
GridSize: 32
TimelineZoom: 1.9

[Metadata]
Title:Junjou Maid Bukkoroshu KISS
TitleUnicode:純情メイドぶっころ主KISS
Artist:Hiiragi Yume (CV: Tanaka Minami)
ArtistUnicode:柊結夢 (CV: 田中美海)
Creator:Drum-Hitnormal
Version:Hidden's Hard
Source:アキバ冥途戦争
Tags:hidden is fun minyami ゆめち Yumechi akiba maid meido war sensou anime japanese pop jpop j-pop dudehacker live performance idol
BeatmapID:4167619
BeatmapSetID:1976932

[Difficulty]
HPDrainRate:7.5
CircleSize:4
OverallDifficulty:7.5
ApproachRate:5
SliderMultiplier:1.4
SliderTickRate:1

[Events]
//Background and Video events
0,0,"yumechi.jpg",0,0
//Break Periods
//Storyboard Layer 0 (Background)
//Storyboard Layer 1 (Fail)
//Storyboard Layer 2 (Pass)
//Storyboard Layer 3 (Foreground)
//Storyboard Layer 4 (Overlay)
//Storyboard Sound Samples
Sample,12631,0,"Tom2.wav",70

[TimingPoints]
390,344.827586206897,4,3,1,60,1,0

[HitObjects]
320,192,1252,5,8,0:0:0:0:
448,192,1252,1,0,0:0:0:0:
64,192,1338,1,8,0:0:0:0:
320,192,1424,1,0,0:0:0:70:Tom1.wav
192,192,1510,1,0,0:0:0:70:Tom2.wav
448,192,1596,1,0,0:0:0:70:Tom3.wav
320,192,1683,1,0,0:0:0:70:Tom3.wav
64,192,1769,128,4,1941:0:0:0:0:
192,192,1769,128,2,1941:0:0:0:0:
64,192,2114,1,8,0:0:0:0:
192,192,2114,1,0,0:0:0:0:
448,192,2114,1,0,0:0:0:0:
320,192,2286,128,2,2458:0:0:0:0:
448,192,2286,128,0,2458:0:0:0:0:
64,192,2631,1,2,0:0:0:0:
192,192,2631,1,0,0:0:0:0:
320,192,2803,1,8,0:0:0:0:
448,192,2803,1,0,0:0:0:0:
192,192,2890,1,8,0:0:0:0:
64,192,2976,1,2,0:0:0:0:
192,192,3148,1,2,0:0:0:0:
320,192,3148,1,4,0:0:0:0:
448,192,3148,1,0,0:0:0:0:
64,192,3321,1,2,0:0:0:0:
192,192,3321,1,0,0:0:0:0:
448,192,3493,1,0,0:0:0:70:Tom2.wav
64,192,3665,128,2,4010:0:0:0:0:
192,192,3665,128,4,4010:0:0:0:0:
448,192,4010,1,2,0:0:0:0:
64,192,4183,1,8,0:0:0:0:
320,192,4183,1,0,0:0:0:0:
448,192,4269,1,8,0:0:0:0:
192,192,4355,1,0,0:0:0:70:Tom2.wav
320,192,4441,1,0,0:0:0:70:Tom2.wav
64,192,4527,1,2,0:0:0:0:
192,192,4527,1,4,0:0:0:0:
448,192,4527,1,8,0:0:0:0:
64,192,4700,1,6,0:0:0:0:
192,192,4700,1,8,0:0:0:0:
64,192,4872,1,2,0:0:0:0:
320,192,4872,1,4,0:0:0:0:
448,192,4872,1,8,0:0:0:0:
320,192,5045,128,6,5390:0:0:0:0:
448,192,5045,128,8,5390:0:0:0:0:
192,192,5476,1,0,0:0:0:0:
64,192,5562,128,2,6079:0:0:0:0:
448,192,5562,1,4,0:0:0:0:
320,192,6079,1,8,0:0:0:0:
448,192,6079,1,0,0:0:0:70:Tom1.wav
320,192,6252,1,8,0:0:0:0:
448,192,6252,1,0,0:0:0:70:Tom1.wav
320,192,6424,1,8,0:0:0:0:
448,192,6424,1,0,0:0:0:70:Tom1.wav
64,192,6596,1,8,0:0:0:0:
192,192,6596,1,0,0:0:0:70:Tom1.wav
320,192,6596,1,0,0:0:0:0:
64,192,6769,1,8,0:0:0:0:
320,192,6769,1,0,0:0:0:70:Tom1.wav
64,192,6941,1,8,0:0:0:0:
192,192,6941,1,0,0:0:0:70:Tom1.wav
448,192,6941,1,0,0:0:0:0:
192,192,7114,1,8,0:0:0:0:
448,192,7114,1,0,0:0:0:70:Tom1.wav
64,192,7286,1,2,0:0:0:0:
320,192,7286,128,4,7631:0:0:0:0:
64,192,7631,128,8,7717:0:0:0:0:
192,192,7631,128,0,7717:0:0:0:0:
448,192,7803,1,2,0:0:0:0:
192,192,7976,1,0,0:0:0:0:
320,192,8148,128,2,8234:0:0:0:0:
448,192,8148,128,0,8234:0:0:0:0:
64,192,8321,1,8,0:0:0:0:
192,192,8321,1,0,0:0:0:0:
64,192,8493,1,0,0:0:0:70:Tom2.wav
320,192,8665,128,2,8752:0:0:0:0:
448,192,8665,128,0,8752:0:0:0:0:
320,192,8838,128,0,8924:0:0:0:0:
448,192,8838,128,0,8924:0:0:0:0:
64,192,9010,1,8,0:0:0:0:
192,192,9010,1,0,0:0:0:0:
64,192,9183,128,2,9527:0:0:0:0:
320,192,9183,1,0,0:0:0:0:
448,192,9527,128,2,9700:0:0:0:0:
64,192,9700,1,8,0:0:0:0:
320,192,9700,128,0,9872:0:0:0:0:
192,192,9872,128,0,10045:0:0:0:70:Tom2.wav
64,192,10045,128,4,10390:0:0:0:0:
448,192,10045,1,2,0:0:0:0:
320,192,10390,128,8,10476:0:0:0:0:
448,192,10390,128,0,10476:0:0:0:0:
192,192,10562,1,2,0:0:0:0:
320,192,10734,1,0,0:0:0:0:
64,192,10907,128,2,10993:0:0:0:0:
192,192,10907,128,0,10993:0:0:0:0:
320,192,11079,1,8,0:0:0:0:
448,192,11079,1,0,0:0:0:0:
448,192,11252,1,0,0:0:0:70:Tom2.wav
64,192,11424,128,2,11510:0:0:0:0:
192,192,11424,128,0,11510:0:0:0:0:
64,192,11596,128,0,11683:0:0:0:0:
192,192,11596,128,0,11683:0:0:0:0:
320,192,11769,1,8,0:0:0:0:
448,192,11769,1,0,0:0:0:0:
64,192,11941,128,2,12286:0:0:0:0:
320,192,11941,1,0,0:0:0:0:
320,192,12286,1,2,0:0:0:0:
192,192,12372,1,0,0:0:0:0:
64,192,12458,1,8,0:0:0:0:
448,192,12458,1,0,0:0:0:0:
320,192,12631,128,4,12976:0:0:0:0:
192,192,12803,1,2,0:0:0:0:
64,192,13148,1,8,0:0:0:0:
448,192,13148,1,0,0:0:0:0:
320,192,13321,1,2,0:0:0:0:
192,192,13493,128,0,13838:0:0:0:0:
320,192,13665,1,2,0:0:0:0:
64,192,13838,1,8,0:0:0:0:
448,192,13838,1,0,0:0:0:0:
192,192,14010,1,0,0:0:0:70:Tom2.wav
320,192,14183,1,2,0:0:0:0:
64,192,14355,1,0,0:0:0:0:
320,192,14527,128,8,14614:0:0:0:0:
448,192,14527,128,0,14614:0:0:0:0:
64,192,14700,128,2,15217:0:0:0:0:
448,192,14872,1,0,0:0:0:0:
192,192,15045,128,2,15131:0:0:0:0:
320,192,15217,1,8,0:0:0:0:
448,192,15217,1,0,0:0:0:0:
192,192,15390,128,0,15734:0:0:0:70:Tom2.wav
448,192,15562,1,2,0:0:0:0:
64,192,15907,1,8,0:0:0:0:
320,192,15907,1,0,0:0:0:0:
192,192,16079,1,2,0:0:0:0:
64,192,16252,1,0,0:0:0:0:
448,192,16252,1,0,0:0:0:0:
320,192,16424,1,2,0:0:0:0:
64,192,16596,1,8,0:0:0:0:
192,192,16596,1,0,0:0:0:0:
448,192,16769,1,0,0:0:0:70:Tom2.wav
64,192,16941,1,2,0:0:0:0:
320,192,17114,1,0,0:0:0:0:
64,192,17286,128,8,17372:0:0:0:0:
192,192,17286,128,0,17372:0:0:0:0:
448,192,17458,128,2,17976:0:0:0:0:
192,192,17631,1,0,0:0:0:0:
320,192,17803,128,2,17890:0:0:0:0:
64,192,17976,1,8,0:0:0:0:
192,192,17976,1,0,0:0:0:0:
64,192,18148,1,0,0:0:0:70:Tom2.wav
320,192,18321,1,2,0:0:0:0:
448,192,18321,1,4,0:0:0:0:
64,192,18493,1,0,0:0:0:0:
192,192,18665,1,8,0:0:0:0:
448,192,18665,1,0,0:0:0:0:
320,192,18838,1,2,0:0:0:0:
192,192,19010,1,0,0:0:0:0:
64,192,19183,128,2,19527:0:0:0:0:
320,192,19355,1,8,0:0:0:0:
448,192,19355,1,0,0:0:0:0:
192,192,19527,128,0,19872:0:0:0:70:Tom2.wav
320,192,19700,1,2,0:0:0:0:
448,192,19872,128,0,20217:0:0:0:0:
64,192,20045,1,8,0:0:0:0:
192,192,20045,1,0,0:0:0:0:
320,192,20217,1,2,0:0:0:0:
64,192,20390,1,0,0:0:0:0:
192,192,20562,1,2,0:0:0:0:
64,192,20734,1,8,0:0:0:0:
448,192,20734,1,0,0:0:0:0:
320,192,20907,1,0,0:0:0:70:Tom2.wav
192,192,21079,128,2,21424:0:0:0:0:
448,192,21252,1,0,0:0:0:0:
64,192,21424,1,8,0:0:0:0:
320,192,21424,128,0,21769:0:0:0:0:
192,192,21596,1,2,0:0:0:0:
448,192,21769,1,0,0:0:0:0:
64,192,21941,1,2,0:0:0:0:
320,192,22114,1,8,0:0:0:0:
448,192,22114,1,0,0:0:0:0:
64,192,22286,128,0,22803:0:0:0:70:Tom2.wav
192,192,22458,128,2,22803:0:0:0:0:
320,192,22458,1,0,0:0:0:70:gun.wav
320,192,22803,1,8,0:0:0:0:
448,192,22803,1,0,0:0:0:0:
64,192,22976,1,2,0:0:0:0:
320,192,22976,128,0,23321:0:0:0:70:gun.wav
448,192,23321,1,2,0:0:0:0:
64,192,23493,1,8,0:0:0:0:
192,192,23493,1,0,0:0:0:0:
320,192,23579,1,8,0:0:0:0:
448,192,23665,128,2,24010:0:0:0:0:
64,192,23838,1,6,0:0:0:0:
192,192,24010,1,0,0:0:0:0:
320,192,24183,1,8,0:0:0:0:
448,192,24183,1,0,0:0:0:0:
64,192,24355,1,2,0:0:0:0:
320,192,24527,128,0,24872:0:0:0:0:
192,192,24700,1,2,0:0:0:0:
64,192,24872,1,8,0:0:0:0:
448,192,24872,1,0,0:0:0:0:
320,192,25045,1,0,0:0:0:70:Tom2.wav
192,192,25217,1,2,0:0:0:0:
448,192,25390,1,0,0:0:0:0:
64,192,25562,128,8,25648:0:0:0:0:
192,192,25562,128,0,25648:0:0:0:0:
448,192,25734,128,2,26079:0:0:0:0:
320,192,25907,1,0,0:0:0:0:
192,192,26079,128,2,26165:0:0:0:0:
320,192,26252,1,8,0:0:0:0:
448,192,26252,1,0,0:0:0:0:
64,192,26424,128,0,26769:0:0:0:70:Tom2.wav
448,192,26596,1,2,0:0:0:0:
320,192,26769,1,0,0:0:0:0:
192,192,26941,1,8,0:0:0:0:
448,192,26941,1,0,0:0:0:0:
64,192,27114,1,2,0:0:0:0:
448,192,27286,1,0,0:0:0:0:
320,192,27458,1,2,0:0:0:0:
64,192,27631,1,8,0:0:0:0:
448,192,27631,1,0,0:0:0:0:
192,192,27803,1,0,0:0:0:70:Tom2.wav
320,192,27976,1,2,0:0:0:0:
64,192,28148,1,0,0:0:0:0:
320,192,28321,128,8,28407:0:0:0:0:
448,192,28321,128,0,28407:0:0:0:0:
64,192,28493,128,2,28838:0:0:0:0:
192,192,28665,1,0,0:0:0:0:
448,192,28838,128,2,29010:0:0:0:0:
64,192,29010,1,8,0:0:0:0:
320,192,29010,128,0,29183:0:0:0:0:
192,192,29183,128,0,29355:0:0:0:70:Tom2.wav
64,192,29355,128,2,29527:0:0:0:0:
448,192,29355,1,0,0:0:0:70:gun.wav
320,192,29527,1,0,0:0:0:0:
64,192,29700,1,8,0:0:0:0:
192,192,29700,1,0,0:0:0:0:
320,192,29872,1,2,0:0:0:0:
192,192,30045,1,0,0:0:0:0:
448,192,30217,128,2,30562:0:0:0:0:
64,192,30390,1,8,0:0:0:0:
192,192,30390,1,0,0:0:0:0:
64,192,30562,128,0,30907:0:0:0:70:Tom2.wav
320,192,30734,1,2,0:0:0:0:
448,192,30734,1,0,0:0:0:70:gun.wav
192,192,30907,128,0,31252:0:0:0:0:
320,192,31079,1,8,0:0:0:0:
448,192,31079,1,0,0:0:0:0:
448,192,31252,1,2,0:0:0:0:
320,192,31424,128,0,31769:0:0:0:0:
64,192,31596,1,2,0:0:0:0:
192,192,31769,128,8,32114:0:0:0:0:
448,192,31769,1,0,0:0:0:0:
256,192,31941,1,0,0:0:0:70:Tom2.wav
64,192,32114,1,8,0:0:0:0:
448,192,32114,1,0,0:0:0:70:gun.wav
64,192,32286,1,0,0:0:0:70:Tom1.wav
192,192,32458,1,8,0:0:0:0:
448,192,32458,1,0,0:0:0:70:gun.wav
448,192,32631,1,0,0:0:0:70:Tom2.wav
64,192,32803,1,8,0:0:0:0:
192,192,32803,1,0,0:0:0:70:gun.wav
320,192,32803,1,0,0:0:0:0:
64,192,32976,1,0,0:0:0:70:Tom3.wav
320,192,32976,1,0,0:0:0:70:gun.wav
448,192,32976,1,0,0:0:0:0:
192,192,33148,1,8,0:0:0:0:
320,192,33234,1,8,0:0:0:0:
64,192,33321,128,2,33665:0:0:0:0:
448,192,33321,1,0,0:0:0:70:gun.wav
320,192,33665,1,0,0:0:0:70:Tom1.wav
192,192,33752,1,0,0:0:0:70:Tom1.wav
64,192,33838,1,2,0:0:0:0:
448,192,33838,1,8,0:0:0:0:
448,192,34010,1,10,0:0:0:0:
64,192,34183,1,8,0:0:0:0:
320,192,34183,1,2,0:0:0:0:
64,192,34355,1,10,0:0:0:0:
448,192,34527,1,10,0:0:0:0:
64,192,34700,1,2,0:0:0:0:
192,192,34700,1,8,0:0:0:0:
320,192,34700,128,4,35045:0:0:0:0:
64,192,35045,1,2,0:0:0:0:
192,192,35045,1,4,0:0:0:0:
448,192,35045,1,8,0:0:0:0:
64,192,35217,1,6,0:0:0:0:
192,192,35217,1,8,0:0:0:0:
64,192,35390,1,8,0:0:0:0:
320,192,35390,1,2,0:0:0:0:
448,192,35390,1,4,0:0:0:0:
320,192,35562,1,6,0:0:0:0:
448,192,35562,1,8,0:0:0:0:
192,192,35734,128,0,35907:0:0:0:0:
320,192,35907,128,0,36079:0:0:0:0:
192,192,36079,128,0,36252:0:0:0:0:
64,192,36252,1,0,0:0:0:70:gun.wav
448,192,36252,128,0,36596:0:0:0:0:
192,192,36424,1,0,0:0:0:0:
64,192,36596,128,0,36769:0:0:0:70:gun.wav
320,192,36596,1,0,0:0:0:0:
192,192,36769,1,0,0:0:0:0:
64,192,36941,1,0,0:0:0:70:gun.wav
320,192,36941,128,0,37027:0:0:0:0:
192,192,37114,128,0,37200:0:0:0:0:
64,192,37286,128,0,37458:0:0:0:70:gun.wav
448,192,37286,1,0,0:0:0:0:
192,192,37631,1,0,0:0:0:70:gun.wav
448,192,37631,128,0,37717:0:0:0:0:
320,192,37803,128,0,37890:0:0:0:0:
64,192,37976,128,0,38062:0:0:0:70:gun.wav
448,192,37976,1,0,0:0:0:0:
192,192,38148,128,0,38234:0:0:0:0:
320,192,38321,1,0,0:0:0:70:gun.wav
448,192,38321,128,0,38493:0:0:0:0:
64,192,38493,128,0,38665:0:0:0:70:gun.wav
192,192,38493,128,0,38665:0:0:0:0:
320,192,38665,128,0,38752:0:0:0:70:gun.wav
448,192,38665,128,0,38838:0:0:0:0:
64,192,39010,128,2,39355:0:0:0:0:
320,192,39010,1,4,0:0:0:0:
192,192,39183,1,0,0:0:0:0:
320,192,39355,128,8,39441:0:0:0:0:
448,192,39355,1,2,0:0:0:0:
192,192,39527,128,0,39614:0:0:0:0:
64,192,39700,1,2,0:0:0:0:
448,192,39700,128,0,39786:0:0:0:0:
192,192,39872,1,0,0:0:0:0:
320,192,39958,1,0,0:0:0:0:
64,192,40045,1,8,0:0:0:0:
448,192,40045,128,2,40217:0:0:0:0:
192,192,40217,128,0,40390:0:0:0:0:
64,192,40390,1,4,0:0:0:0:
320,192,40390,1,2,0:0:0:0:
448,192,40562,128,0,40907:0:0:0:0:
64,192,40734,1,2,0:0:0:0:
192,192,40734,1,8,0:0:0:0:
320,192,40907,128,0,41079:0:0:0:0:
64,192,41079,128,2,41252:0:0:0:0:
448,192,41079,1,0,0:0:0:0:
192,192,41252,128,0,41424:0:0:0:0:
320,192,41424,128,2,41596:0:0:0:0:
448,192,41424,128,8,41769:0:0:0:0:
64,192,41769,128,0,42114:0:0:0:70:gun.wav
192,192,41769,1,0,0:0:0:0:
320,192,41941,1,0,0:0:0:0:
192,192,42114,1,0,0:0:0:70:gun.wav
448,192,42114,128,0,42286:0:0:0:0:
64,192,42286,1,0,0:0:0:0:
192,192,42458,128,0,42545:0:0:0:70:gun.wav
448,192,42458,1,0,0:0:0:0:
320,192,42631,128,0,42717:0:0:0:0:
64,192,42803,1,0,0:0:0:70:gun.wav
448,192,42803,128,0,42976:0:0:0:0:
64,192,43148,128,0,43234:0:0:0:70:gun.wav
320,192,43148,1,0,0:0:0:0:
192,192,43321,128,0,43407:0:0:0:0:
64,192,43493,1,0,0:0:0:70:gun.wav
448,192,43493,128,0,43579:0:0:0:0:
320,192,43665,128,0,43752:0:0:0:0:
64,192,43838,128,0,44010:0:0:0:70:gun.wav
192,192,43838,1,0,0:0:0:0:
320,192,44010,128,0,44183:0:0:0:70:gun.wav
448,192,44010,128,0,44183:0:0:0:0:
64,192,44183,128,0,44355:0:0:0:70:gun.wav
192,192,44183,128,0,44269:0:0:0:0:
192,192,44527,1,2,0:0:0:0:
448,192,44527,128,4,44872:0:0:0:0:
320,192,44700,1,0,0:0:0:0:
64,192,44872,1,8,0:0:0:0:
192,192,44872,128,2,44958:0:0:0:0:
320,192,45045,128,0,45131:0:0:0:0:
64,192,45217,128,2,45303:0:0:0:0:
448,192,45217,1,0,0:0:0:0:
320,192,45390,1,0,0:0:0:0:
192,192,45476,1,0,0:0:0:0:
64,192,45562,128,8,45734:0:0:0:0:
448,192,45562,1,2,0:0:0:0:
320,192,45734,128,0,45907:0:0:0:0:
192,192,45907,1,2,0:0:0:0:
448,192,45907,1,4,0:0:0:0:
64,192,46079,128,0,46424:0:0:0:0:
320,192,46252,1,2,0:0:0:0:
448,192,46252,1,8,0:0:0:0:
192,192,46424,1,0,0:0:0:0:
320,192,46510,1,0,0:0:0:0:
64,192,46596,128,2,46769:0:0:0:0:
448,192,46596,1,4,0:0:0:0:
320,192,46769,128,0,46941:0:0:0:0:
64,192,46941,1,2,0:0:0:0:
448,192,46941,1,0,0:0:0:0:
192,192,47027,1,8,0:0:0:0:
320,192,47114,128,0,47286:0:0:0:0:
64,192,47286,1,2,0:0:0:0:
448,192,47286,1,4,0:0:0:0:
64,192,47631,1,8,0:0:0:0:
192,192,47631,1,2,0:0:0:0:
320,192,47803,1,0,0:0:0:0:
64,192,47976,1,2,0:0:0:0:
448,192,47976,1,0,0:0:0:0:
192,192,48148,128,0,48493:0:0:0:0:
320,192,48321,1,8,0:0:0:0:
448,192,48321,1,2,0:0:0:0:
64,192,48493,128,0,48838:0:0:0:0:
320,192,48665,1,2,0:0:0:0:
448,192,48665,1,4,0:0:0:0:
192,192,48838,1,0,0:0:0:0:
320,192,49010,1,2,0:0:0:0:
448,192,49010,128,8,49355:0:0:0:0:
64,192,49183,1,0,0:0:0:0:
192,192,49355,1,2,0:0:0:0:
320,192,49355,128,0,49700:0:0:0:0:
64,192,49527,1,0,0:0:0:0:
192,192,49700,128,2,50045:0:0:0:0:
448,192,49700,1,8,0:0:0:0:
64,192,50045,1,8,0:0:0:0:
320,192,50045,128,2,50131:0:0:0:0:
448,192,50045,128,4,50131:0:0:0:0:
192,192,50390,128,0,50562:0:0:0:70:gun.wav
320,192,50390,128,0,50562:0:0:0:0:
64,192,50734,128,2,50821:0:0:0:0:
192,192,50734,128,8,50821:0:0:0:0:
448,192,50734,1,4,0:0:0:0:
192,192,51079,128,0,51252:0:0:0:70:gun.wav
320,192,51079,128,0,51252:0:0:0:0:
64,192,51424,1,2,0:0:0:0:
192,192,51424,1,4,0:0:0:0:
448,192,51424,128,0,51596:0:0:0:0:
320,192,51596,128,0,51769:0:0:0:0:
192,192,51769,128,8,51941:0:0:0:0:
448,192,51769,1,2,0:0:0:0:
64,192,51941,128,0,52114:0:0:0:0:
320,192,52114,1,2,0:0:0:0:
448,192,52114,1,0,0:0:0:0:
192,192,52200,1,8,0:0:0:0:
64,192,52286,1,0,0:0:0:0:
320,192,52458,1,8,0:0:0:0:
448,192,52458,1,2,0:0:0:0:
64,192,52631,128,2,52976:0:0:0:0:
192,192,52631,128,4,52976:0:0:0:0:
448,192,52631,1,0,0:0:0:0:
320,192,52976,1,2,0:0:0:0:
192,192,53148,1,8,0:0:0:0:
448,192,53148,1,0,0:0:0:0:
64,192,53321,1,2,0:0:0:0:
320,192,53321,128,4,53665:0:0:0:0:
448,192,53321,128,0,53665:0:0:0:0:
192,192,53665,1,2,0:0:0:0:
320,192,53838,1,8,0:0:0:0:
448,192,53838,1,0,0:0:0:0:
64,192,54010,128,2,54355:0:0:0:0:
192,192,54010,1,4,0:0:0:0:
448,192,54010,128,0,54355:0:0:0:0:
320,192,54355,1,2,0:0:0:0:
64,192,54527,128,8,54614:0:0:0:0:
192,192,54527,128,2,54614:0:0:0:0:
448,192,54527,1,0,0:0:0:0:
64,192,54872,1,8,0:0:0:0:
320,192,54872,128,2,54958:0:0:0:0:
448,192,54872,128,0,54958:0:0:0:0:
64,192,55217,1,8,0:0:0:0:
192,192,55217,128,2,55303:0:0:0:0:
320,192,55217,128,0,55303:0:0:0:0:
64,192,55562,1,0,0:0:0:70:gun.wav
448,192,55562,128,0,55648:0:0:0:0:
320,192,55734,128,2,55821:0:0:0:0:
64,192,55907,128,0,55993:0:0:0:70:gun.wav
448,192,55907,1,0,0:0:0:0:
192,192,56079,128,2,56165:0:0:0:0:
64,192,56252,1,0,0:0:0:70:gun.wav
448,192,56252,128,0,56338:0:0:0:0:
320,192,56424,128,2,56510:0:0:0:0:
64,192,56596,128,0,56683:0:0:0:70:gun.wav
448,192,56596,1,0,0:0:0:0:
192,192,56769,128,2,56855:0:0:0:0:
320,192,56769,1,0,0:0:0:0:
64,192,57114,1,2,0:0:0:0:
320,192,57114,1,8,0:0:0:0:
448,192,57114,1,0,0:0:0:0:
192,192,57286,1,0,0:0:0:0:
320,192,57458,1,2,0:0:0:0:
448,192,57458,1,8,0:0:0:0:
64,192,57631,1,2,0:0:0:0:
192,192,57631,1,8,0:0:0:0:
64,192,57976,1,8,0:0:0:0:
320,192,57976,1,0,0:0:0:0:
192,192,58062,1,8,0:0:0:0:
448,192,58148,1,8,0:0:0:0:
320,192,58234,1,8,0:0:0:0:
64,192,58321,128,2,58665:0:0:0:0:
192,192,58321,1,4,0:0:0:0:
448,192,58493,1,0,0:0:0:0:
192,192,58665,128,2,59010:0:0:0:0:
320,192,58665,1,8,0:0:0:0:
64,192,58838,1,0,0:0:0:0:
320,192,59010,128,2,59355:0:0:0:0:
448,192,59010,1,0,0:0:0:0:
192,192,59183,1,0,0:0:0:0:
448,192,59355,128,2,59700:0:0:0:0:
320,192,59527,1,0,0:0:0:0:
64,192,59700,1,2,0:0:0:0:
192,192,59700,1,8,0:0:0:0:
192,192,59872,1,8,0:0:0:0:
320,192,59872,1,2,0:0:0:0:
320,192,60045,1,2,0:0:0:0:
448,192,60045,1,8,0:0:0:0:
64,192,60217,1,8,0:0:0:0:
448,192,60217,1,2,0:0:0:0:
64,192,60390,1,8,0:0:0:0:
192,192,60390,1,2,0:0:0:0:
192,192,60562,1,2,0:0:0:0:
320,192,60562,1,8,0:0:0:0:
320,192,60734,1,8,0:0:0:0:
448,192,60734,1,2,0:0:0:0:
64,192,60907,1,8,0:0:0:0:
192,192,60907,1,2,0:0:0:0:
448,192,60907,128,4,61252:0:0:0:0:
320,192,61252,1,0,0:0:0:0:
64,192,61424,1,0,0:0:0:0:
192,192,61769,128,0,62114:0:0:0:0:
320,192,61941,1,0,0:0:0:70:Tom1.wav
64,192,62114,1,0,0:0:0:70:Tom2.wav
448,192,62114,1,0,0:0:0:0:
192,192,62286,1,0,0:0:0:70:Tom3.wav
320,192,62458,1,4,0:0:0:0:
448,192,62458,1,2,0:0:0:0:
64,192,62631,1,0,0:0:0:0:
320,192,62803,128,8,62890:0:0:0:0:
448,192,62803,128,0,62890:0:0:0:0:
64,192,62976,128,2,63493:0:0:0:0:
448,192,63148,1,0,0:0:0:0:
192,192,63321,128,2,63407:0:0:0:0:
320,192,63493,1,8,0:0:0:0:
448,192,63493,1,0,0:0:0:0:
192,192,63665,128,0,64010:0:0:0:70:Tom2.wav
448,192,63838,1,2,0:0:0:0:
320,192,64010,1,0,0:0:0:0:
64,192,64183,1,8,0:0:0:0:
192,192,64183,1,0,0:0:0:0:
320,192,64355,1,2,0:0:0:0:
192,192,64527,1,0,0:0:0:0:
448,192,64527,1,0,0:0:0:0:
64,192,64700,1,2,0:0:0:0:
320,192,64872,1,8,0:0:0:0:
448,192,64872,1,0,0:0:0:0:
192,192,65045,1,0,0:0:0:70:Tom2.wav
448,192,65217,1,2,0:0:0:0:
320,192,65390,1,0,0:0:0:0:
64,192,65562,128,8,65648:0:0:0:0:
192,192,65562,128,0,65648:0:0:0:0:
448,192,65734,128,2,66252:0:0:0:0:
192,192,65907,1,0,0:0:0:0:
320,192,66079,128,2,66165:0:0:0:0:
64,192,66252,1,8,0:0:0:0:
192,192,66252,1,0,0:0:0:0:
64,192,66424,1,0,0:0:0:70:Tom2.wav
320,192,66596,1,2,0:0:0:0:
448,192,66596,1,4,0:0:0:0:
192,192,66769,1,0,0:0:0:0:
64,192,66941,1,8,0:0:0:0:
448,192,66941,1,0,0:0:0:0:
320,192,67114,1,2,0:0:0:0:
192,192,67286,1,0,0:0:0:0:
64,192,67458,128,2,67803:0:0:0:0:
320,192,67631,1,8,0:0:0:0:
448,192,67631,1,0,0:0:0:0:
192,192,67803,128,0,68148:0:0:0:70:Tom2.wav
320,192,67976,1,2,0:0:0:0:
448,192,68148,128,0,68493:0:0:0:0:
64,192,68321,1,8,0:0:0:0:
192,192,68321,1,0,0:0:0:0:
320,192,68493,1,2,0:0:0:0:
64,192,68665,1,0,0:0:0:0:
192,192,68838,1,2,0:0:0:0:
64,192,69010,1,8,0:0:0:0:
448,192,69010,1,0,0:0:0:0:
320,192,69183,1,0,0:0:0:70:Tom2.wav
192,192,69355,128,2,69700:0:0:0:0:
448,192,69527,1,0,0:0:0:0:
64,192,69700,1,8,0:0:0:0:
320,192,69700,128,0,70045:0:0:0:0:
192,192,69872,1,2,0:0:0:0:
448,192,70045,1,0,0:0:0:0:
64,192,70217,1,2,0:0:0:0:
320,192,70390,1,8,0:0:0:0:
448,192,70390,1,0,0:0:0:0:
64,192,70562,128,0,71079:0:0:0:70:Tom2.wav
192,192,70734,128,2,71079:0:0:0:0:
320,192,70734,1,0,0:0:0:70:gun.wav
320,192,71079,1,8,0:0:0:0:
448,192,71079,1,0,0:0:0:0:
64,192,71252,1,2,0:0:0:0:
320,192,71252,128,0,71596:0:0:0:70:gun.wav
448,192,71596,1,2,0:0:0:0:
64,192,71769,1,8,0:0:0:0:
192,192,71769,1,0,0:0:0:0:
320,192,71855,1,8,0:0:0:0:
448,192,71941,128,2,72286:0:0:0:0:
64,192,72114,1,2,0:0:0:0:
192,192,72286,1,0,0:0:0:0:
320,192,72458,1,8,0:0:0:0:
448,192,72458,1,0,0:0:0:0:
64,192,72631,1,2,0:0:0:0:
320,192,72803,128,0,73148:0:0:0:0:
192,192,72976,1,2,0:0:0:0:
64,192,73148,1,8,0:0:0:0:
448,192,73148,1,0,0:0:0:0:
320,192,73321,1,0,0:0:0:70:Tom2.wav
192,192,73493,1,2,0:0:0:0:
448,192,73665,1,0,0:0:0:0:
64,192,73838,128,8,73924:0:0:0:0:
192,192,73838,128,0,73924:0:0:0:0:
448,192,74010,128,2,74355:0:0:0:0:
320,192,74183,1,0,0:0:0:0:
192,192,74355,128,2,74441:0:0:0:0:
320,192,74527,1,8,0:0:0:0:
448,192,74527,1,0,0:0:0:0:
64,192,74700,128,0,75045:0:0:0:70:Tom2.wav
320,192,74872,1,2,0:0:0:0:
192,192,75045,1,0,0:0:0:0:
64,192,75217,1,8,0:0:0:0:
448,192,75217,1,0,0:0:0:0:
320,192,75390,1,2,0:0:0:0:
64,192,75562,1,0,0:0:0:0:
192,192,75562,1,0,0:0:0:0:
320,192,75734,1,2,0:0:0:0:
64,192,75907,1,8,0:0:0:0:
448,192,75907,1,0,0:0:0:0:
192,192,76079,1,0,0:0:0:70:Tom2.wav
320,192,76252,1,2,0:0:0:0:
64,192,76424,1,0,0:0:0:0:
320,192,76596,128,8,76683:0:0:0:0:
448,192,76596,128,0,76683:0:0:0:0:
64,192,76769,128,2,77114:0:0:0:0:
192,192,76941,1,0,0:0:0:0:
448,192,77114,128,2,77286:0:0:0:0:
64,192,77286,1,8,0:0:0:0:
320,192,77286,128,0,77458:0:0:0:0:
192,192,77458,128,0,77631:0:0:0:70:Tom2.wav
64,192,77631,128,2,77803:0:0:0:0:
448,192,77631,1,0,0:0:0:70:gun.wav
320,192,77803,1,0,0:0:0:0:
64,192,77976,1,8,0:0:0:0:
192,192,77976,1,0,0:0:0:0:
320,192,78148,1,2,0:0:0:0:
192,192,78321,1,0,0:0:0:0:
448,192,78493,128,2,78838:0:0:0:0:
64,192,78665,1,8,0:0:0:0:
192,192,78665,1,0,0:0:0:0:
64,192,78838,128,0,79183:0:0:0:70:Tom2.wav
320,192,79010,1,2,0:0:0:0:
448,192,79010,1,0,0:0:0:70:gun.wav
192,192,79183,128,0,79527:0:0:0:0:
320,192,79355,1,8,0:0:0:0:
448,192,79355,1,0,0:0:0:0:
448,192,79527,1,2,0:0:0:0:
320,192,79700,128,0,80045:0:0:0:0:
64,192,79872,1,0,0:0:0:70:Tom1.wav
192,192,80045,128,8,80390:0:0:0:0:
448,192,80045,1,0,0:0:0:0:
256,192,80217,1,0,0:0:0:70:Tom2.wav
64,192,80390,1,8,0:0:0:0:
448,192,80390,1,0,0:0:0:70:gun.wav
64,192,80562,1,0,0:0:0:70:Tom1.wav
192,192,80734,1,8,0:0:0:0:
448,192,80734,1,0,0:0:0:70:gun.wav
448,192,80907,1,0,0:0:0:70:Tom2.wav
64,192,81079,1,8,0:0:0:0:
192,192,81079,1,0,0:0:0:70:gun.wav
320,192,81079,1,0,0:0:0:0:
64,192,81252,1,8,0:0:0:0:
320,192,81252,1,0,0:0:0:70:gun.wav
448,192,81252,1,0,0:0:0:0:
192,192,81424,1,8,0:0:0:0:
320,192,81510,1,8,0:0:0:0:
64,192,81596,1,10,0:0:0:0:
448,192,81596,128,0,81941:0:0:0:70:gun.wav
64,192,81941,1,2,0:0:0:0:
192,192,81941,1,4,0:0:0:0:
320,192,81941,1,8,0:0:0:0:
64,192,82114,1,6,0:0:0:0:
192,192,82114,1,8,0:0:0:0:
192,192,82286,1,8,0:0:0:0:
320,192,82286,1,2,0:0:0:0:
448,192,82286,1,4,0:0:0:0:
320,192,82458,1,6,0:0:0:0:
448,192,82458,1,8,0:0:0:0:
64,192,82631,1,2,0:0:0:0:
192,192,82717,1,2,0:0:0:0:
320,192,82803,128,8,82976:0:0:0:0:
448,192,82803,1,0,0:0:0:0:
192,192,82976,128,0,83148:0:0:0:0:
64,192,83148,1,0,0:0:0:70:gun.wav
448,192,83148,128,0,83234:0:0:0:0:
320,192,83321,128,0,83407:0:0:0:0:
64,192,83493,128,0,83665:0:0:0:70:gun.wav
192,192,83493,1,0,0:0:0:0:
448,192,83665,1,0,0:0:0:0:
64,192,83838,1,0,0:0:0:70:gun.wav
320,192,83838,128,0,83924:0:0:0:0:
192,192,84010,128,0,84096:0:0:0:0:
64,192,84183,128,0,84355:0:0:0:70:gun.wav
448,192,84183,1,0,0:0:0:0:
192,192,84527,1,0,0:0:0:70:gun.wav
448,192,84527,128,0,84614:0:0:0:0:
320,192,84700,128,0,84786:0:0:0:0:
64,192,84872,128,0,84958:0:0:0:70:gun.wav
448,192,84872,1,0,0:0:0:0:
192,192,85045,128,0,85131:0:0:0:0:
320,192,85217,1,0,0:0:0:70:gun.wav
448,192,85217,128,0,85390:0:0:0:0:
64,192,85390,128,0,85562:0:0:0:70:gun.wav
192,192,85390,128,0,85562:0:0:0:0:
320,192,85562,128,0,85648:0:0:0:70:gun.wav
448,192,85562,128,0,85734:0:0:0:0:
64,192,85907,128,2,86252:0:0:0:0:
320,192,85907,1,4,0:0:0:0:
192,192,86079,1,0,0:0:0:0:
320,192,86252,128,8,86338:0:0:0:0:
448,192,86252,1,2,0:0:0:0:
192,192,86424,128,0,86510:0:0:0:0:
64,192,86596,1,2,0:0:0:0:
448,192,86596,128,0,86683:0:0:0:0:
192,192,86769,1,0,0:0:0:0:
320,192,86855,1,0,0:0:0:0:
64,192,86941,1,8,0:0:0:0:
448,192,86941,128,2,87114:0:0:0:0:
192,192,87114,128,0,87286:0:0:0:0:
64,192,87286,1,4,0:0:0:0:
320,192,87286,1,2,0:0:0:0:
448,192,87458,128,0,87803:0:0:0:0:
64,192,87631,1,2,0:0:0:0:
192,192,87631,1,8,0:0:0:0:
320,192,87803,128,0,87976:0:0:0:0:
64,192,87976,128,2,88148:0:0:0:0:
448,192,87976,1,4,0:0:0:0:
192,192,88148,128,0,88321:0:0:0:0:
320,192,88321,128,2,88493:0:0:0:0:
448,192,88321,128,8,88665:0:0:0:0:
64,192,88665,128,0,89010:0:0:0:70:gun.wav
192,192,88665,1,0,0:0:0:0:
320,192,88838,1,0,0:0:0:0:
192,192,89010,1,0,0:0:0:70:gun.wav
448,192,89010,128,0,89183:0:0:0:0:
64,192,89183,1,0,0:0:0:0:
192,192,89355,128,0,89441:0:0:0:70:gun.wav
448,192,89355,1,0,0:0:0:0:
320,192,89527,128,0,89614:0:0:0:0:
64,192,89700,1,0,0:0:0:70:gun.wav
448,192,89700,128,0,89872:0:0:0:0:
64,192,90045,128,0,90131:0:0:0:70:gun.wav
320,192,90045,1,0,0:0:0:0:
192,192,90217,128,0,90303:0:0:0:0:
64,192,90390,1,0,0:0:0:70:gun.wav
448,192,90390,128,0,90476:0:0:0:0:
320,192,90562,128,0,90648:0:0:0:0:
64,192,90734,128,0,90907:0:0:0:70:gun.wav
192,192,90734,1,0,0:0:0:0:
320,192,90907,128,0,91079:0:0:0:70:gun.wav
448,192,90907,128,0,91079:0:0:0:0:
64,192,91079,128,0,91252:0:0:0:70:gun.wav
192,192,91079,128,0,91165:0:0:0:0:
192,192,91424,1,2,0:0:0:0:
448,192,91424,128,4,91769:0:0:0:0:
320,192,91596,1,0,0:0:0:0:
64,192,91769,1,8,0:0:0:0:
192,192,91769,128,2,91855:0:0:0:0:
320,192,91941,128,0,92027:0:0:0:0:
64,192,92114,128,2,92200:0:0:0:0:
448,192,92114,1,0,0:0:0:0:
320,192,92286,1,0,0:0:0:0:
192,192,92372,1,0,0:0:0:0:
64,192,92458,128,8,92631:0:0:0:0:
448,192,92458,1,2,0:0:0:0:
320,192,92631,128,0,92803:0:0:0:0:
192,192,92803,1,4,0:0:0:0:
448,192,92803,1,2,0:0:0:0:
64,192,92976,128,0,93321:0:0:0:0:
320,192,93148,1,2,0:0:0:0:
448,192,93148,1,8,0:0:0:0:
192,192,93321,1,0,0:0:0:0:
320,192,93407,1,0,0:0:0:0:
64,192,93493,128,2,93838:0:0:0:0:
448,192,93493,1,4,0:0:0:0:
192,192,93665,128,0,93838:0:0:0:0:
320,192,93838,128,2,94010:0:0:0:0:
448,192,93838,1,8,0:0:0:0:
192,192,94010,128,0,94183:0:0:0:0:
64,192,94183,1,2,0:0:0:0:
448,192,94183,1,4,0:0:0:0:
64,192,94527,1,8,0:0:0:0:
192,192,94527,1,2,0:0:0:0:
320,192,94700,1,0,0:0:0:0:
64,192,94872,1,2,0:0:0:0:
448,192,94872,1,0,0:0:0:0:
192,192,95045,128,0,95390:0:0:0:0:
320,192,95217,1,8,0:0:0:0:
448,192,95217,1,2,0:0:0:0:
64,192,95390,128,0,95734:0:0:0:0:
320,192,95562,1,2,0:0:0:0:
448,192,95562,1,0,0:0:0:0:
192,192,95734,1,0,0:0:0:0:
320,192,95907,1,2,0:0:0:0:
448,192,95907,128,8,96252:0:0:0:0:
64,192,96079,1,0,0:0:0:0:
192,192,96252,1,2,0:0:0:0:
320,192,96252,128,0,96596:0:0:0:0:
64,192,96424,1,0,0:0:0:0:
192,192,96596,128,2,96941:0:0:0:0:
448,192,96596,1,8,0:0:0:0:
64,192,96941,1,2,0:0:0:0:
320,192,96941,128,8,97027:0:0:0:0:
448,192,96941,128,4,97027:0:0:0:0:
192,192,97286,128,0,97458:0:0:0:70:gun.wav
320,192,97286,128,0,97458:0:0:0:0:
64,192,97631,128,4,97717:0:0:0:0:
192,192,97631,128,8,97717:0:0:0:0:
448,192,97631,1,2,0:0:0:0:
192,192,97976,128,0,98148:0:0:0:70:gun.wav
320,192,97976,128,0,98148:0:0:0:0:
64,192,98321,1,4,0:0:0:0:
192,192,98321,1,2,0:0:0:0:
448,192,98321,128,0,98493:0:0:0:0:
320,192,98493,128,0,98665:0:0:0:0:
192,192,98665,128,2,98838:0:0:0:0:
448,192,98665,1,8,0:0:0:0:
64,192,98838,128,0,99010:0:0:0:0:
320,192,99010,1,2,0:0:0:0:
448,192,99010,1,0,0:0:0:0:
192,192,99096,1,0,0:0:0:0:
64,192,99183,1,0,0:0:0:0:
320,192,99355,1,2,0:0:0:0:
448,192,99355,1,8,0:0:0:0:
64,192,99527,128,4,99872:0:0:0:0:
192,192,99527,128,2,99872:0:0:0:0:
448,192,99527,1,0,0:0:0:0:
320,192,99872,1,2,0:0:0:0:
192,192,100045,1,8,0:0:0:0:
448,192,100045,1,0,0:0:0:0:
64,192,100217,1,4,0:0:0:0:
320,192,100217,128,2,100562:0:0:0:0:
448,192,100217,128,0,100562:0:0:0:0:
192,192,100562,1,2,0:0:0:0:
320,192,100734,1,8,0:0:0:0:
448,192,100734,1,0,0:0:0:0:
64,192,100907,128,4,101252:0:0:0:0:
192,192,100907,1,2,0:0:0:0:
448,192,100907,128,0,101252:0:0:0:0:
320,192,101252,1,2,0:0:0:0:
64,192,101424,128,2,101510:0:0:0:0:
192,192,101424,128,8,101510:0:0:0:0:
448,192,101424,1,0,0:0:0:0:
64,192,101769,1,2,0:0:0:0:
320,192,101769,128,8,101855:0:0:0:0:
448,192,101769,128,0,101855:0:0:0:0:
64,192,102114,1,2,0:0:0:0:
192,192,102114,128,8,102200:0:0:0:0:
320,192,102114,128,0,102200:0:0:0:0:
64,192,102458,1,0,0:0:0:70:gun.wav
448,192,102458,128,0,102545:0:0:0:0:
320,192,102631,128,2,102717:0:0:0:0:
64,192,102803,128,0,102890:0:0:0:70:gun.wav
448,192,102803,1,0,0:0:0:0:
192,192,102976,128,2,103062:0:0:0:0:
64,192,103148,1,0,0:0:0:70:gun.wav
448,192,103148,128,0,103234:0:0:0:0:
320,192,103321,128,2,103407:0:0:0:0:
64,192,103493,128,0,103579:0:0:0:70:gun.wav
448,192,103493,1,0,0:0:0:0:
192,192,103665,128,2,103752:0:0:0:0:
320,192,103665,1,0,0:0:0:0:
64,192,104010,1,8,0:0:0:0:
320,192,104010,1,2,0:0:0:0:
448,192,104010,1,0,0:0:0:0:
192,192,104183,1,0,0:0:0:0:
320,192,104355,1,2,0:0:0:0:
448,192,104355,1,8,0:0:0:0:
64,192,104527,1,8,0:0:0:0:
192,192,104527,1,2,0:0:0:0:
64,192,104872,1,8,0:0:0:0:
320,192,104872,1,2,0:0:0:0:
192,192,104958,1,8,0:0:0:0:
448,192,105045,1,8,0:0:0:0:
320,192,105131,1,8,0:0:0:0:
64,192,105217,1,4,0:0:0:0:
192,192,105217,1,2,0:0:0:0:
192,192,105390,1,0,0:0:0:0:
320,192,105562,128,8,105734:0:0:0:0:
448,192,105562,128,2,105734:0:0:0:0:
64,192,105907,128,2,106079:0:0:0:0:
192,192,105907,128,0,106079:0:0:0:0:
320,192,106079,128,0,106252:0:0:0:0:
448,192,106079,128,0,106252:0:0:0:0:
64,192,106424,128,0,106596:0:0:0:0:
192,192,106424,128,0,106596:0:0:0:0:
448,192,106596,1,2,0:0:0:0:
64,192,106769,128,0,106941:0:0:0:0:
192,192,106769,128,0,106941:0:0:0:0:
320,192,106941,1,8,0:0:0:0:
448,192,106941,1,2,0:0:0:0:
192,192,107114,128,0,107286:0:0:0:0:
64,192,107286,128,2,107458:0:0:0:0:
448,192,107286,128,0,107458:0:0:0:0:
320,192,107458,128,0,107631:0:0:0:0:
64,192,107631,128,2,107803:0:0:0:0:
448,192,107631,128,8,107803:0:0:0:0:
192,192,107803,128,0,107976:0:0:0:0:
320,192,107976,1,2,0:0:0:0:
448,192,107976,1,0,0:0:0:0:
320,192,108148,1,0,0:0:0:0:
64,192,108321,128,2,108493:0:0:0:0:
192,192,108321,128,8,108493:0:0:0:0:
320,192,108665,128,2,108838:0:0:0:0:
448,192,108665,128,0,108838:0:0:0:0:
64,192,108838,128,0,109010:0:0:0:0:
192,192,108838,128,0,109010:0:0:0:0:
320,192,109183,128,0,109355:0:0:0:0:
448,192,109183,128,0,109355:0:0:0:0:
64,192,109355,1,2,0:0:0:0:
320,192,109527,128,0,109700:0:0:0:0:
448,192,109527,128,0,109700:0:0:0:0:
64,192,109700,1,8,0:0:0:0:
192,192,109700,1,2,0:0:0:0:
320,192,109872,128,0,110045:0:0:0:0:
64,192,110045,128,2,110217:0:0:0:0:
448,192,110045,128,0,110217:0:0:0:0:
192,192,110217,128,0,110390:0:0:0:0:
64,192,110390,128,2,110562:0:0:0:0:
448,192,110390,128,8,110562:0:0:0:0:
320,192,110562,128,0,110734:0:0:0:0:
64,192,110734,128,2,110907:0:0:0:0:
192,192,110734,1,0,0:0:0:0:
448,192,110907,128,0,111079:0:0:0:0:
64,192,111079,1,2,0:0:0:0:
192,192,111079,128,8,111252:0:0:0:0:
320,192,111252,128,0,111424:0:0:0:0:
64,192,111424,128,2,111596:0:0:0:0:
192,192,111596,128,0,111769:0:0:0:0:
320,192,111769,128,8,111941:0:0:0:0:
448,192,111769,1,2,0:0:0:0:
64,192,111941,128,0,112200:0:0:0:0:
192,192,112200,1,0,0:0:0:0:
320,192,112286,1,0,0:0:0:0:
448,192,112372,1,0,0:0:0:0:
64,192,112458,1,10,0:0:0:0:
320,192,112545,1,0,0:0:0:0:
192,192,112631,1,0,0:0:0:0:
64,192,112717,1,0,0:0:0:0:
448,192,112803,1,2,0:0:0:0:
192,192,112890,1,0,0:0:0:0:
320,192,112976,1,0,0:0:0:0:
448,192,113062,1,0,0:0:0:0:
64,192,113148,1,10,0:0:0:0:
192,192,113234,1,0,0:0:0:0:
448,192,113321,1,0,0:0:0:0:
320,192,113407,1,0,0:0:0:0:
64,192,113493,1,8,0:0:0:0:
192,192,113493,1,4,0:0:0:0:
448,192,113493,1,0,0:0:0:0:
64,192,113665,1,8,0:0:0:0:
64,192,113838,1,8,0:0:0:0:
192,192,114010,1,8,0:0:0:0:
320,192,114010,1,4,0:0:0:0:
448,192,114010,1,0,0:0:0:0:
448,192,114183,1,8,0:0:0:0:
448,192,114355,1,8,0:0:0:0:
64,192,114527,1,8,0:0:0:0:
192,192,114527,1,4,0:0:0:0:
320,192,114527,1,0,0:0:0:0:
192,192,114700,1,8,0:0:0:0:
448,192,114786,1,0,0:0:0:0:
192,192,114872,1,8,0:0:0:0:
64,192,115045,1,8,0:0:0:0:
320,192,115045,1,4,0:0:0:0:
448,192,115045,1,0,0:0:0:0:
320,192,115217,1,8,0:0:0:0:
192,192,115303,1,0,0:0:0:0:
320,192,115390,1,8,0:0:0:0:
64,192,115562,1,2,0:0:0:0:
448,192,115562,1,4,0:0:0:0:
64,192,115734,1,2,0:0:0:0:
448,192,115734,1,4,0:0:0:0:
192,192,116079,1,2,0:0:0:0:
320,192,116079,1,0,0:0:0:0:
192,192,116596,1,0,0:0:0:0:
448,192,116941,1,0,0:0:0:0:
64,192,117114,1,0,0:0:0:0:
448,192,117458,128,0,117803:0:0:0:0:
192,192,117631,1,2,0:0:0:0:
320,192,117976,128,0,118321:0:0:0:0:
192,192,118321,128,0,118665:0:0:0:0:
64,192,118665,128,0,119010:0:0:0:0:
320,192,119010,128,2,119355:0:0:0:0:
448,192,119010,1,0,0:0:0:0:
64,192,119355,128,0,119700:0:0:0:0:
192,192,119700,1,2,0:0:0:0:
448,192,119700,128,0,120045:0:0:0:0:
192,192,120045,128,0,120390:0:0:0:0:
64,192,120390,1,2,0:0:0:0:
448,192,120390,128,0,120562:0:0:0:0:
320,192,120562,128,0,120734:0:0:0:0:
64,192,120907,128,2,121252:0:0:0:0:
320,192,121252,1,0,0:0:0:0:
448,192,121252,1,0,0:0:0:0:
192,192,121338,1,0,0:0:0:0:
448,192,121424,1,0,0:0:0:0:
320,192,121510,1,0,0:0:0:0:
64,192,121596,1,0,0:0:0:0:
192,192,121683,1,0,0:0:0:0:
320,192,121769,1,2,0:0:0:0:
448,192,121769,1,4,0:0:0:0:
64,192,122114,128,0,122458:0:0:0:0:
192,192,122286,1,2,0:0:0:0:
320,192,122458,1,2,0:0:0:0:
448,192,122458,1,0,0:0:0:0:
64,192,122631,1,0,0:0:0:0:
320,192,122803,1,8,0:0:0:0:
64,192,122976,1,2,0:0:0:0:
192,192,122976,1,4,0:0:0:0:
448,192,122976,1,0,0:0:0:0:
320,192,123321,1,2,0:0:0:0:
448,192,123321,1,0,0:0:0:0:
192,192,123493,1,0,0:0:0:0:
64,192,123665,128,2,124183:0:0:0:0:
320,192,123665,1,0,0:0:0:0:
448,192,123838,1,2,0:0:0:0:
192,192,124183,1,8,0:0:0:0:
320,192,124183,1,0,0:0:0:0:
64,192,124527,1,2,0:0:0:0:
448,192,124527,1,4,0:0:0:0:
320,192,124872,128,0,125217:0:0:0:0:
192,192,125045,1,2,0:0:0:0:
64,192,125217,1,2,0:0:0:0:
448,192,125217,1,0,0:0:0:0:
192,192,125562,1,8,0:0:0:0:
64,192,125734,1,2,0:0:0:0:
320,192,125734,1,4,0:0:0:0:
448,192,125734,128,0,126079:0:0:0:0:
192,192,126079,1,2,0:0:0:0:
320,192,126252,128,0,126596:0:0:0:0:
64,192,126424,1,2,0:0:0:0:
192,192,126596,128,2,126941:0:0:0:0:
448,192,126769,128,0,126941:0:0:0:0:
64,192,126941,128,8,127114:0:0:0:0:
320,192,126941,128,0,127286:0:0:0:0:
64,192,127286,1,8,0:0:0:0:
192,192,127286,1,4,0:0:0:0:
448,192,127286,1,0,0:0:0:0:
320,192,127458,1,8,0:0:0:0:
448,192,127458,1,0,0:0:0:0:
320,192,127631,1,8,0:0:0:0:
64,192,127803,1,8,0:0:0:0:
192,192,127803,1,4,0:0:0:0:
448,192,127803,1,0,0:0:0:0:
192,192,127976,1,8,0:0:0:0:
192,192,128148,1,8,0:0:0:0:
64,192,128321,1,8,0:0:0:0:
320,192,128321,1,4,0:0:0:0:
448,192,128321,1,0,0:0:0:0:
448,192,128493,1,8,0:0:0:0:
448,192,128665,1,8,0:0:0:0:
64,192,128838,1,4,0:0:0:0:
192,192,128838,1,2,0:0:0:0:
320,192,128838,1,0,0:0:0:0:
64,192,129010,1,4,0:0:0:0:
192,192,129010,1,2,0:0:0:0:
64,192,129183,1,2,0:0:0:0:
320,192,129183,1,4,0:0:0:0:
448,192,129183,1,0,0:0:0:0:
320,192,129355,1,2,0:0:0:0:
448,192,129355,1,4,0:0:0:0:
64,192,130390,1,2,0:0:0:0:
192,192,130390,1,8,0:0:0:0:
320,192,130390,1,4,0:0:0:0:
64,192,131079,1,8,0:0:0:0:
192,192,131079,1,2,0:0:0:0:
320,192,131079,1,4,0:0:0:0:
192,192,131596,1,2,0:0:0:0:
320,192,131596,1,8,0:0:0:0:
448,192,131596,1,0,0:0:0:0:
64,192,131941,1,8,0:0:0:0:
192,192,131941,1,2,0:0:0:0:
320,192,131941,1,0,0:0:0:0:
320,192,132286,1,2,0:0:0:0:
448,192,132286,1,8,0:0:0:0:
320,192,132458,1,10,0:0:0:0:
448,192,132458,1,4,0:0:0:0:
64,192,132631,1,0,0:0:0:0:
192,192,132717,1,0,0:0:0:0:
320,192,132803,1,0,0:0:0:0:
64,192,133148,1,2,0:0:0:0:
192,192,133148,1,8,0:0:0:0:
448,192,133148,1,4,0:0:0:0:
64,192,133838,1,8,0:0:0:0:
320,192,133838,1,2,0:0:0:0:
448,192,133838,1,4,0:0:0:0:
192,192,134010,1,0,0:0:0:0:
320,192,134096,1,0,0:0:0:0:
64,192,134183,1,0,0:0:0:0:
448,192,134183,1,0,0:0:0:0:
64,192,134355,1,2,0:0:0:0:
192,192,134355,1,8,0:0:0:0:
320,192,134355,1,0,0:0:0:0:
320,192,134700,1,8,0:0:0:0:
448,192,134700,1,2,0:0:0:0:
64,192,134872,1,2,0:0:0:0:
192,192,134872,1,8,0:0:0:0:
320,192,134872,1,0,0:0:0:0:
64,192,135045,1,8,0:0:0:0:
192,192,135045,1,2,0:0:0:0:
64,192,135217,1,2,0:0:0:0:
320,192,135217,1,8,0:0:0:0:
192,192,135303,1,8,0:0:0:0:
448,192,135390,1,8,0:0:0:0:
320,192,135476,1,8,0:0:0:0:
64,192,135562,128,0,135907:0:0:0:70:gun.wav
192,192,135562,1,0,0:0:0:0:
320,192,135734,1,0,0:0:0:0:
192,192,135907,1,0,0:0:0:70:gun.wav
448,192,135907,128,0,136079:0:0:0:0:
64,192,136079,1,0,0:0:0:0:
192,192,136252,128,0,136338:0:0:0:70:gun.wav
448,192,136252,1,0,0:0:0:0:
320,192,136424,128,0,136510:0:0:0:0:
64,192,136596,1,0,0:0:0:70:gun.wav
448,192,136596,128,0,136769:0:0:0:0:
64,192,136941,128,0,137027:0:0:0:70:gun.wav
320,192,136941,1,0,0:0:0:0:
192,192,137114,128,0,137200:0:0:0:0:
64,192,137286,1,0,0:0:0:70:gun.wav
448,192,137286,128,0,137372:0:0:0:0:
320,192,137458,128,0,137545:0:0:0:0:
64,192,137631,128,0,137803:0:0:0:70:gun.wav
192,192,137631,1,0,0:0:0:0:
320,192,137803,128,0,137976:0:0:0:70:gun.wav
448,192,137803,128,0,137976:0:0:0:0:
64,192,137976,128,0,138148:0:0:0:70:gun.wav
192,192,137976,128,0,138062:0:0:0:0:
192,192,138321,1,4,0:0:0:0:
448,192,138321,128,2,138665:0:0:0:0:
320,192,138493,1,0,0:0:0:0:
64,192,138665,1,2,0:0:0:0:
192,192,138665,128,8,138752:0:0:0:0:
320,192,138838,128,0,138924:0:0:0:0:
64,192,139010,128,2,139096:0:0:0:0:
448,192,139010,1,0,0:0:0:0:
320,192,139183,1,0,0:0:0:0:
192,192,139269,1,0,0:0:0:0:
64,192,139355,128,2,139527:0:0:0:0:
448,192,139355,1,8,0:0:0:0:
320,192,139527,128,0,139700:0:0:0:0:
192,192,139700,1,2,0:0:0:0:
448,192,139700,1,4,0:0:0:0:
64,192,139872,128,0,140217:0:0:0:0:
320,192,140045,1,8,0:0:0:0:
448,192,140045,1,2,0:0:0:0:
192,192,140217,1,0,0:0:0:0:
320,192,140303,1,0,0:0:0:0:
192,192,140390,128,2,140562:0:0:0:0:
448,192,140390,1,4,0:0:0:0:
64,192,140562,128,0,140734:0:0:0:0:
320,192,140734,1,8,0:0:0:0:
448,192,140734,1,2,0:0:0:0:
192,192,140821,1,0,0:0:0:0:
320,192,140907,128,0,141079:0:0:0:0:
64,192,141079,1,4,0:0:0:0:
448,192,141079,1,2,0:0:0:0:
64,192,141424,1,2,0:0:0:0:
192,192,141424,1,8,0:0:0:0:
320,192,141596,1,0,0:0:0:0:
64,192,141769,1,2,0:0:0:0:
448,192,141769,1,0,0:0:0:0:
192,192,141941,128,0,142286:0:0:0:0:
320,192,142114,1,2,0:0:0:0:
448,192,142114,1,8,0:0:0:0:
64,192,142286,128,0,142631:0:0:0:0:
320,192,142458,1,2,0:0:0:0:
448,192,142458,1,0,0:0:0:0:
192,192,142631,1,0,0:0:0:0:
320,192,142803,1,8,0:0:0:0:
448,192,142803,128,2,143148:0:0:0:0:
64,192,142976,1,0,0:0:0:0:
192,192,143148,1,2,0:0:0:0:
320,192,143148,128,0,143493:0:0:0:0:
64,192,143321,1,0,0:0:0:0:
192,192,143493,128,8,143838:0:0:0:0:
448,192,143493,1,2,0:0:0:0:
64,192,143838,1,2,0:0:0:0:
320,192,143838,128,8,143924:0:0:0:0:
448,192,143838,128,4,143924:0:0:0:0:
192,192,144183,128,0,144355:0:0:0:70:gun.wav
320,192,144183,128,0,144355:0:0:0:0:
64,192,144527,128,4,144614:0:0:0:0:
192,192,144527,128,8,144614:0:0:0:0:
448,192,144527,1,2,0:0:0:0:
192,192,144872,128,0,145045:0:0:0:70:gun.wav
320,192,144872,128,0,145045:0:0:0:0:
64,192,145217,1,2,0:0:0:0:
192,192,145217,1,4,0:0:0:0:
448,192,145217,128,0,145390:0:0:0:0:
320,192,145390,128,0,145562:0:0:0:0:
192,192,145562,128,8,145734:0:0:0:0:
448,192,145562,1,2,0:0:0:0:
64,192,145734,128,0,145907:0:0:0:0:
320,192,145907,1,2,0:0:0:0:
448,192,145907,1,0,0:0:0:0:
192,192,145993,1,0,0:0:0:0:
64,192,146079,1,0,0:0:0:0:
320,192,146252,1,8,0:0:0:0:
448,192,146252,1,2,0:0:0:0:
64,192,146424,128,2,146769:0:0:0:0:
192,192,146424,128,4,146769:0:0:0:0:
448,192,146424,1,0,0:0:0:0:
320,192,146769,1,2,0:0:0:0:
192,192,146941,1,8,0:0:0:0:
448,192,146941,1,0,0:0:0:0:
64,192,147114,1,2,0:0:0:0:
320,192,147114,128,4,147458:0:0:0:0:
448,192,147114,128,0,147458:0:0:0:0:
192,192,147458,1,2,0:0:0:0:
320,192,147631,1,8,0:0:0:0:
448,192,147631,1,0,0:0:0:0:
64,192,147803,128,2,148148:0:0:0:0:
192,192,147803,1,4,0:0:0:0:
448,192,147803,128,0,148148:0:0:0:0:
320,192,148148,1,2,0:0:0:0:
64,192,148321,128,8,148407:0:0:0:0:
192,192,148321,128,2,148407:0:0:0:0:
448,192,148321,1,0,0:0:0:0:
64,192,148665,1,8,0:0:0:0:
320,192,148665,128,2,148752:0:0:0:0:
448,192,148665,128,0,148752:0:0:0:0:
64,192,149010,1,8,0:0:0:0:
192,192,149010,128,2,149096:0:0:0:0:
320,192,149010,128,0,149096:0:0:0:0:
64,192,149355,1,0,0:0:0:70:gun.wav
448,192,149355,128,0,149441:0:0:0:0:
320,192,149527,128,2,149614:0:0:0:0:
64,192,149700,128,0,149786:0:0:0:70:gun.wav
448,192,149700,1,0,0:0:0:0:
192,192,149872,128,2,149958:0:0:0:0:
64,192,150045,1,0,0:0:0:70:gun.wav
448,192,150045,128,0,150131:0:0:0:0:
320,192,150217,128,2,150303:0:0:0:0:
64,192,150390,128,0,150476:0:0:0:70:gun.wav
448,192,150390,1,0,0:0:0:0:
192,192,150562,128,2,150648:0:0:0:0:
320,192,150562,1,0,0:0:0:0:
64,192,150907,1,8,0:0:0:0:
320,192,150907,1,2,0:0:0:0:
448,192,150907,1,0,0:0:0:0:
64,192,151252,1,2,0:0:0:0:
192,192,151252,1,8,0:0:0:0:
320,192,151424,1,8,0:0:0:0:
448,192,151424,1,2,0:0:0:0:
64,192,151769,1,8,0:0:0:0:
320,192,151769,1,2,0:0:0:0:
192,192,151855,1,8,0:0:0:0:
448,192,151941,1,8,0:0:0:0:
320,192,152027,1,8,0:0:0:0:
64,192,152114,1,4,0:0:0:0:
192,192,152114,128,2,152286:0:0:0:0:
448,192,152286,128,0,152458:0:0:0:0:
320,192,152372,128,0,152458:0:0:0:0:
64,192,152458,128,2,152545:0:0:0:0:
192,192,152458,1,8,0:0:0:0:
64,192,152631,128,0,152717:0:0:0:0:
320,192,152803,128,2,152890:0:0:0:0:
448,192,152803,1,0,0:0:0:0:
320,192,152976,128,0,153062:0:0:0:0:
64,192,153148,1,8,0:0:0:0:
192,192,153148,128,2,153234:0:0:0:0:
64,192,153321,1,2,0:0:0:0:
320,192,153321,1,4,0:0:0:0:
448,192,153321,128,0,153665:0:0:0:0:
64,192,153665,1,4,0:0:0:0:
192,192,153665,1,2,0:0:0:0:
320,192,153665,1,0,0:0:0:0:
64,192,153838,1,2,0:0:0:0:
192,192,153838,1,4,0:0:0:0:
192,192,154010,1,4,0:0:0:0:
320,192,154010,1,2,0:0:0:0:
448,192,154010,1,0,0:0:0:0:
320,192,154183,1,2,0:0:0:0:
448,192,154183,1,4,0:0:0:0:
64,192,154355,1,2,0:0:0:0:
192,192,154441,1,2,0:0:0:0:
320,192,154527,128,8,154700:0:0:0:0:
448,192,154527,1,0,0:0:0:0:
192,192,154700,128,0,154872:0:0:0:0:
64,192,154872,1,0,0:0:0:70:gun.wav
448,192,154872,128,0,155217:0:0:0:0:
320,192,155045,1,0,0:0:0:0:
64,192,155217,128,0,155390:0:0:0:70:gun.wav
192,192,155217,1,0,0:0:0:0:
448,192,155390,1,0,0:0:0:0:
64,192,155562,1,0,0:0:0:70:gun.wav
320,192,155562,128,0,155648:0:0:0:0:
192,192,155734,128,0,155821:0:0:0:0:
64,192,155907,128,0,156079:0:0:0:70:gun.wav
448,192,155907,1,0,0:0:0:0:
192,192,156252,1,0,0:0:0:70:gun.wav
448,192,156252,128,0,156338:0:0:0:0:
320,192,156424,128,0,156510:0:0:0:0:
64,192,156596,128,0,156683:0:0:0:70:gun.wav
448,192,156596,1,0,0:0:0:0:
192,192,156769,128,0,156855:0:0:0:0:
320,192,156941,1,0,0:0:0:70:gun.wav
448,192,156941,128,0,157114:0:0:0:0:
64,192,157114,128,0,157286:0:0:0:70:gun.wav
192,192,157114,128,0,157286:0:0:0:0:
320,192,157286,128,0,157372:0:0:0:70:gun.wav
448,192,157286,128,0,157458:0:0:0:0:
64,192,157631,128,4,157976:0:0:0:0:
320,192,157631,1,2,0:0:0:0:
192,192,157803,1,0,0:0:0:0:
320,192,157976,128,2,158062:0:0:0:0:
448,192,157976,1,8,0:0:0:0:
192,192,158148,128,0,158234:0:0:0:0:
64,192,158321,1,2,0:0:0:0:
448,192,158321,128,0,158407:0:0:0:0:
192,192,158493,1,0,0:0:0:0:
320,192,158579,1,0,0:0:0:0:
64,192,158665,1,2,0:0:0:0:
448,192,158665,128,8,158838:0:0:0:0:
192,192,158838,128,0,159010:0:0:0:0:
64,192,159010,1,2,0:0:0:0:
320,192,159010,1,4,0:0:0:0:
448,192,159183,128,0,159527:0:0:0:0:
64,192,159355,1,8,0:0:0:0:
192,192,159355,1,2,0:0:0:0:
320,192,159527,128,0,159700:0:0:0:0:
64,192,159700,128,2,159872:0:0:0:0:
448,192,159700,1,0,0:0:0:0:
192,192,159872,128,0,160045:0:0:0:0:
320,192,160045,128,8,160217:0:0:0:0:
448,192,160045,128,2,160390:0:0:0:0:
64,192,160390,128,0,160734:0:0:0:70:gun.wav
192,192,160390,1,0,0:0:0:0:
320,192,160562,1,0,0:0:0:0:
192,192,160734,1,0,0:0:0:70:gun.wav
448,192,160734,128,0,160907:0:0:0:0:
64,192,160907,1,0,0:0:0:0:
192,192,161079,128,0,161165:0:0:0:70:gun.wav
448,192,161079,1,0,0:0:0:0:
320,192,161252,128,0,161338:0:0:0:0:
64,192,161424,1,0,0:0:0:70:gun.wav
448,192,161424,128,0,161596:0:0:0:0:
64,192,161769,128,0,161855:0:0:0:70:gun.wav
320,192,161769,1,0,0:0:0:0:
192,192,161941,128,0,162027:0:0:0:0:
64,192,162114,1,0,0:0:0:70:gun.wav
448,192,162114,128,0,162200:0:0:0:0:
320,192,162286,128,0,162372:0:0:0:0:
64,192,162458,128,0,162631:0:0:0:70:gun.wav
192,192,162458,128,0,162631:0:0:0:0:
320,192,162631,128,0,162717:0:0:0:70:gun.wav
448,192,162631,128,0,162803:0:0:0:0:
64,192,162803,128,0,162976:0:0:0:70:gun.wav
192,192,162803,128,0,162890:0:0:0:0:
192,192,163148,1,4,0:0:0:0:
448,192,163148,128,2,163493:0:0:0:0:
320,192,163321,1,0,0:0:0:0:
64,192,163493,1,2,0:0:0:0:
192,192,163493,128,8,163579:0:0:0:0:
320,192,163665,128,0,163752:0:0:0:0:
64,192,163838,128,2,163924:0:0:0:0:
448,192,163838,1,0,0:0:0:0:
320,192,164010,1,0,0:0:0:0:
192,192,164096,1,0,0:0:0:0:
64,192,164183,128,2,164355:0:0:0:0:
448,192,164183,1,8,0:0:0:0:
320,192,164355,128,0,164527:0:0:0:0:
192,192,164527,1,2,0:0:0:0:
448,192,164527,1,4,0:0:0:0:
64,192,164700,128,0,165045:0:0:0:0:
320,192,164872,1,8,0:0:0:0:
448,192,164872,1,2,0:0:0:0:
192,192,165045,1,0,0:0:0:0:
320,192,165131,1,0,0:0:0:0:
64,192,165217,128,2,165390:0:0:0:0:
448,192,165217,1,4,0:0:0:0:
192,192,165390,128,0,165562:0:0:0:0:
320,192,165562,1,8,0:0:0:0:
448,192,165562,1,2,0:0:0:0:
64,192,165648,1,0,0:0:0:0:
320,192,165734,128,0,165907:0:0:0:0:
64,192,165907,1,4,0:0:0:0:
192,192,165907,1,2,0:0:0:0:
64,192,166252,1,2,0:0:0:0:
448,192,166252,1,8,0:0:0:0:
320,192,166424,1,0,0:0:0:0:
64,192,166596,1,2,0:0:0:0:
192,192,166596,1,0,0:0:0:0:
448,192,166769,128,0,167114:0:0:0:0:
192,192,166941,1,2,0:0:0:0:
320,192,166941,1,8,0:0:0:0:
64,192,167114,128,0,167458:0:0:0:0:
320,192,167286,1,2,0:0:0:0:
448,192,167286,1,0,0:0:0:0:
192,192,167458,1,0,0:0:0:0:
320,192,167631,1,8,0:0:0:0:
448,192,167631,128,2,167803:0:0:0:0:
64,192,167803,1,0,0:0:0:0:
192,192,167890,1,0,0:0:0:0:
320,192,167976,128,2,168321:0:0:0:0:
448,192,167976,1,0,0:0:0:0:
64,192,168148,1,0,0:0:0:0:
192,192,168321,128,8,168665:0:0:0:0:
448,192,168321,1,2,0:0:0:0:
64,192,168665,1,2,0:0:0:0:
320,192,168665,128,8,168752:0:0:0:0:
448,192,168665,128,4,168752:0:0:0:0:
192,192,169010,128,0,169183:0:0:0:70:gun.wav
320,192,169010,128,0,169183:0:0:0:0:
64,192,169355,128,4,169441:0:0:0:0:
192,192,169355,128,8,169441:0:0:0:0:
448,192,169355,1,2,0:0:0:0:
192,192,169700,128,0,169872:0:0:0:70:gun.wav
320,192,169700,128,0,169872:0:0:0:0:
64,192,170045,1,2,0:0:0:0:
192,192,170045,1,4,0:0:0:0:
448,192,170045,128,0,170217:0:0:0:0:
320,192,170217,128,0,170390:0:0:0:0:
192,192,170390,128,8,170562:0:0:0:0:
448,192,170390,1,2,0:0:0:0:
64,192,170562,128,0,170734:0:0:0:0:
320,192,170734,1,2,0:0:0:0:
448,192,170734,1,0,0:0:0:0:
192,192,170821,1,0,0:0:0:0:
64,192,170907,1,0,0:0:0:0:
320,192,171079,1,8,0:0:0:0:
448,192,171079,1,2,0:0:0:0:
64,192,171252,128,2,171596:0:0:0:0:
192,192,171252,128,4,171596:0:0:0:0:
448,192,171252,1,0,0:0:0:0:
320,192,171596,1,2,0:0:0:0:
192,192,171769,1,8,0:0:0:0:
448,192,171769,1,0,0:0:0:0:
64,192,171941,1,2,0:0:0:0:
320,192,171941,128,4,172286:0:0:0:0:
448,192,171941,128,0,172286:0:0:0:0:
192,192,172286,1,2,0:0:0:0:
320,192,172458,1,8,0:0:0:0:
448,192,172458,1,0,0:0:0:0:
64,192,172631,128,2,172976:0:0:0:0:
192,192,172631,1,4,0:0:0:0:
448,192,172631,128,0,172976:0:0:0:0:
320,192,172976,1,2,0:0:0:0:
64,192,173148,128,8,173234:0:0:0:0:
192,192,173148,128,2,173234:0:0:0:0:
448,192,173148,1,0,0:0:0:0:
64,192,173493,1,8,0:0:0:0:
320,192,173493,128,2,173579:0:0:0:0:
448,192,173493,128,0,173579:0:0:0:0:
64,192,173838,1,8,0:0:0:0:
192,192,173838,128,2,173924:0:0:0:0:
320,192,173838,128,0,173924:0:0:0:0:
64,192,174183,1,0,0:0:0:70:gun.wav
448,192,174183,128,0,174269:0:0:0:0:
320,192,174355,128,2,174441:0:0:0:0:
64,192,174527,128,0,174614:0:0:0:70:gun.wav
448,192,174527,1,0,0:0:0:0:
192,192,174700,128,2,174786:0:0:0:0:
64,192,174872,1,0,0:0:0:70:gun.wav
448,192,174872,128,0,174958:0:0:0:0:
320,192,175045,128,2,175131:0:0:0:0:
64,192,175217,128,0,175303:0:0:0:70:gun.wav
448,192,175217,1,0,0:0:0:0:
192,192,175390,128,2,175476:0:0:0:0:
320,192,175390,1,0,0:0:0:0:
64,192,175734,1,8,0:0:0:0:
320,192,175734,1,2,0:0:0:0:
448,192,175734,1,0,0:0:0:0:
320,192,176079,1,2,0:0:0:0:
448,192,176079,1,8,0:0:0:0:
64,192,176252,1,8,0:0:0:0:
192,192,176252,1,2,0:0:0:0:
320,192,176424,1,0,0:0:0:0:
192,192,176596,1,8,0:0:0:0:
448,192,176596,1,2,0:0:0:0:
320,192,176683,1,8,0:0:0:0:
64,192,176769,1,8,0:0:0:0:
192,192,176855,1,8,0:0:0:0:
320,192,176941,128,4,177114:0:0:0:0:
448,192,176941,128,2,177114:0:0:0:0:
64,192,177286,1,8,0:0:0:0:
192,192,177286,1,0,0:0:0:0:
448,192,177286,1,0,0:0:0:0:
64,192,177458,128,2,177803:0:0:0:0:
192,192,177458,128,4,177803:0:0:0:0:
320,192,177803,1,2,0:0:0:0:
448,192,177803,1,0,0:0:0:0:
64,192,177976,1,8,0:0:0:0:
192,192,177976,1,0,0:0:0:0:
320,192,178062,1,8,0:0:0:0:
448,192,178148,1,2,0:0:0:0:
64,192,178321,1,2,0:0:0:0:
192,192,178321,1,4,0:0:0:0:
320,192,178321,1,0,0:0:0:0:
320,192,178493,128,2,178579:0:0:0:0:
448,192,178493,128,4,178579:0:0:0:0:
64,192,178665,1,0,0:0:0:0:
320,192,178838,128,2,179183:0:0:0:0:
448,192,178838,128,4,179183:0:0:0:0:
64,192,179183,1,2,0:0:0:0:
192,192,179355,1,8,0:0:0:0:
448,192,179355,1,0,0:0:0:0:
320,192,179441,1,8,0:0:0:0:
64,192,179527,1,8,0:0:0:0:
192,192,179614,1,8,0:0:0:0:
320,192,179700,128,2,179872:0:0:0:0:
448,192,179700,1,4,0:0:0:0:
192,192,179872,128,0,180045:0:0:0:0:
64,192,180045,128,8,180217:0:0:0:0:
320,192,180045,1,0,0:0:0:0:
448,192,180045,1,0,0:0:0:0:
320,192,180217,128,4,180562:0:0:0:0:
448,192,180217,128,2,180562:0:0:0:0:
64,192,180562,1,2,0:0:0:0:
192,192,180562,1,0,0:0:0:0:
320,192,180734,1,8,0:0:0:0:
448,192,180734,1,0,0:0:0:0:
192,192,180821,1,8,0:0:0:0:
64,192,180907,1,2,0:0:0:0:
192,192,181079,1,4,0:0:0:0:
320,192,181079,1,2,0:0:0:0:
448,192,181079,1,0,0:0:0:0:
64,192,181252,128,4,181338:0:0:0:0:
192,192,181252,128,2,181338:0:0:0:0:
448,192,181424,1,0,0:0:0:0:
64,192,181596,128,4,181941:0:0:0:0:
192,192,181596,128,2,181941:0:0:0:0:
448,192,181941,1,2,0:0:0:0:
64,192,182114,1,8,0:0:0:0:
320,192,182114,1,0,0:0:0:0:
448,192,182200,1,8,0:0:0:0:
192,192,182286,1,8,0:0:0:0:
320,192,182372,1,8,0:0:0:0:
64,192,182458,128,4,182717:0:0:0:0:
448,192,182458,128,2,182717:0:0:0:0:
64,192,182803,1,8,0:0:0:0:
320,192,182803,1,0,0:0:0:0:
448,192,182803,1,0,0:0:0:0:
320,192,182976,128,2,183321:0:0:0:0:
448,192,182976,128,4,183321:0:0:0:0:
64,192,183321,1,2,0:0:0:0:
192,192,183321,1,0,0:0:0:0:
320,192,183493,1,8,0:0:0:0:
448,192,183493,1,0,0:0:0:0:
192,192,183579,1,8,0:0:0:0:
64,192,183665,1,2,0:0:0:0:
320,192,183838,128,2,184010:0:0:0:0:
448,192,183838,128,4,184010:0:0:0:0:
192,192,184010,1,2,0:0:0:0:
64,192,184183,1,8,0:0:0:0:
320,192,184183,1,0,0:0:0:0:
448,192,184183,1,0,0:0:0:0:
64,192,184355,128,2,184441:0:0:0:0:
192,192,184355,128,4,184441:0:0:0:0:
320,192,184700,128,2,184786:0:0:0:0:
448,192,184700,128,4,184786:0:0:0:0:
64,192,184872,1,8,0:0:0:0:
192,192,184872,1,0,0:0:0:0:
320,192,184958,1,8,0:0:0:0:
64,192,185045,1,8,0:0:0:0:
192,192,185131,1,8,0:0:0:0:
320,192,185217,128,2,185303:0:0:0:0:
448,192,185217,128,0,185303:0:0:0:0:
64,192,185390,128,8,185476:0:0:0:0:
192,192,185390,1,2,0:0:0:0:
320,192,185562,128,2,185648:0:0:0:0:
448,192,185562,128,0,185648:0:0:0:0:
64,192,185734,128,8,185821:0:0:0:0:
192,192,185734,1,2,0:0:0:0:
192,192,186079,128,2,186165:0:0:0:0:
320,192,186079,128,8,186165:0:0:0:0:
448,192,186079,128,0,186165:0:0:0:0:
64,192,186424,128,2,187286:0:0:0:0:
192,192,186424,128,8,187286:0:0:0:0:
320,192,186424,128,0,187286:0:0:0:0:
