osu file format v14

[General]
AudioFilename: audio.mp3
AudioLeadIn: 0
PreviewTime: 63203
Countdown: 0
SampleSet: Normal
StackLeniency: 0.7
Mode: 2
LetterboxInBreaks: 0
WidescreenStoryboard: 0

[Editor]
Bookmarks: 375,15129,45621,95293,114965
DistanceSpacing: 1
BeatDivisor: 4
GridSize: 16
TimelineZoom: 2.7

[Metadata]
Title:Shiawase Iro
TitleUnicode:しあわせ色
Artist:Hiiragi Mayuki(CV:Ogura Yui)/Hagino Chiaki(CV:Toujou Hisako)
ArtistUnicode:柊真雪(CV.小倉唯)、萩野千秋(CV.東城日沙子)
Creator:Yukarin-
Version:Platter
Source:ひなこのーと
Tags:Hinako note Gekidan Hitotose Yururu D_Arc Momota Alwaysyukaz [R] Hamids-
BeatmapID:1361472
BeatmapSetID:639294

[Difficulty]
HPDrainRate:6
CircleSize:4
OverallDifficulty:8
ApproachRate:8
SliderMultiplier:1.4
SliderTickRate:2

[Events]
//Background and Video events
0,0,"7537195_p01.png",0,0
//Break Periods
//Storyboard Layer 0 (Background)
//Storyboard Layer 1 (Fail)
//Storyboard Layer 2 (Pass)
//Storyboard Layer 3 (Foreground)
//Storyboard Sound Samples

[TimingPoints]
867,491.803278688525,4,1,7,40,1,0
16604,-100,4,1,7,40,0,1
32342,-100,4,1,7,40,0,0
63817,-100,4,1,7,40,0,1
95293,-100,4,1,7,40,0,0

[Colours]
Combo1 : 255,255,196
Combo2 : 183,255,255

[HitObjects]
224,176,375,6,0,L|192:96,1,70
304,256,867,2,0,L|448:256,2,140
192,192,2096,1,0,0:0:0:0:
320,192,2342,1,0,0:0:0:0:
256,192,2588,1,0,0:0:0:0:
80,304,2834,2,0,L|64:224,1,70
240,208,3326,2,0,L|256:128,1,70
406,208,3817,2,0,L|336:208,1,70
256,128,4309,5,0,0:0:0:0:
112,128,4555,1,0,0:0:0:0:
416,192,4801,6,0,L|276:192,2,140
208,96,6030,1,0,0:0:0:0:
144,160,6276,1,0,0:0:0:0:
144,240,6522,1,0,0:0:0:0:
208,304,6768,2,0,L|128:304,2,70
320,224,7506,1,0,0:0:0:0:
160,192,7752,2,0,L|144:112,1,70
320,144,8244,1,0,0:0:0:0:
192,144,8489,1,0,0:0:0:0:
390,256,8735,6,0,L|230:256,2,140
240,96,9965,5,0,0:0:0:0:
304,176,10211,1,0,0:0:0:0:
304,272,10457,1,0,0:0:0:0:
256,240,10703,2,0,L|176:224,2,70
352,176,11440,1,0,0:0:0:0:
192,176,11686,2,0,L|176:96,1,70
336,192,12178,5,0,0:0:0:0:
192,192,12424,1,0,0:0:0:0:
368,192,12670,2,0,L|352:96,1,70
230,192,13162,2,0,L|160:192,2,70
160,192,13899,5,0,0:0:0:0:
256,192,14145,1,0,0:0:0:0:
112,272,14391,2,0,L|208:272,2,70
278,208,15129,2,0,L|208:208,1,70
336,112,15498,5,8,0:0:0:0:
384,160,15621,1,8,0:0:0:0:
384,224,15744,1,8,0:0:0:0:
176,192,15867,2,8,L|141:192,1,35
352,304,16112,2,8,L|422:304,1,70,8|14,1:0|1:0,1:0:0:0:
112,112,16604,5,4,0:1:0:0:
64,192,16850,1,8,0:1:0:0:
112,272,17096,1,8,0:1:0:0:
256,160,17342,2,4,L|326:160,1,70,2|0,0:3|0:0,0:0:0:0:
192,208,17834,1,8,0:0:0:0:
368,208,18080,1,8,0:0:0:0:
256,208,18326,2,0,P|224:256|288:304,1,140,2|8,0:3|2:0,0:0:0:0:
416,192,19063,2,0,L|336:192,1,70,0|0,2:0|0:2,0:0:0:0:
192,96,19555,6,2,L|272:96,1,70
368,80,20047,1,10,0:3:0:0:
416,128,20170,1,10,0:3:0:0:
432,192,20293,1,10,0:3:0:0:
416,256,20415,1,10,0:3:0:0:
368,304,20538,1,10,0:3:0:0:
176,256,20785,1,8,0:0:0:0:
272,176,21030,5,8,0:0:0:0:
198,176,21276,2,2,L|128:176,2,70,8|2|2,2:0|2:0|2:0,2:0:0:0:
384,176,22014,1,2,3:0:0:0:
256,304,22260,2,0,P|215:251|248:194,1,140,4|8,0:0|0:0,0:0:0:0:
416,304,22998,2,0,L|336:288,1,70,8|2,0:0|0:0,0:0:0:0:
224,192,23489,2,0,L|304:160,1,70
144,80,23981,1,10,0:3:0:0:
96,128,24104,1,10,0:3:0:0:
80,192,24227,1,10,0:3:0:0:
96,256,24349,1,10,0:3:0:0:
144,304,24472,1,10,0:3:0:0:
272,192,24719,1,8,0:0:0:0:
96,192,24965,5,8,0:0:0:0:
256,96,25211,2,0,L|336:96,1,70,4|2,0:0|0:0,0:0:0:0:
464,224,25703,2,0,L|384:240,1,70,2|4,0:0|0:0,0:0:0:0:
240,304,26194,6,0,P|204:247|241:192,1,140,0|8,0:0|0:0,0:0:0:0:
432,128,26932,2,0,L|352:112,1,70
176,176,27424,2,0,L|256:208,1,70,2|0,0:0|0:0,0:0:0:0:
368,80,27916,1,10,0:3:0:0:
416,128,28039,1,10,0:3:0:0:
432,192,28162,1,10,0:3:0:0:
416,256,28284,1,10,0:3:0:0:
368,304,28407,1,10,0:3:0:0:
192,192,28653,1,8,0:0:0:0:
304,192,28899,1,8,0:0:0:0:
144,288,29145,2,0,L|224:288,2,70,2|0|4,0:0|0:0|0:0,0:0:0:0:
320,192,29883,5,0,0:0:0:0:
160,192,30129,2,0,L|240:192,1,70
368,96,30621,5,8,0:0:0:0:
416,128,30744,1,8,0:0:0:0:
432,192,30867,1,8,0:0:0:0:
416,256,30989,1,8,0:0:0:0:
368,288,31112,1,8,0:0:0:0:
320,288,31235,1,0,0:0:0:0:
208,208,31358,6,0,L|103:208,2,105,8|8|4,0:0|0:0|0:0,0:0:0:0:
336,176,32342,1,14,0:0:0:0:
192,176,32588,2,0,L|262:176,2,70
352,97,33326,5,0,0:0:0:0:
208,96,33571,1,0,0:0:0:0:
320,96,33817,1,8,0:0:0:0:
208,192,34063,2,0,L|352:176,1,140
208,192,34801,1,8,0:0:0:0:
144,192,35047,1,0,0:0:0:0:
368,192,35293,2,0,L|288:192,1,70,2|4,0:0|0:0,0:0:0:0:
144,288,35785,2,0,L|224:288,1,70,8|8,0:0|0:0,0:0:0:0:
384,208,36276,5,14,0:0:0:0:
262,160,36522,2,0,L|192:160,2,70
384,272,37260,2,8,L|240:288,1,140,2|8,0:0|0:0,0:0:0:0:
158,255,37998,6,2,P|123:199|160:144,1,140,0|8,0:0|0:0,0:0:0:0:
352,192,38735,1,0,0:0:0:0:
192,192,38981,1,0,0:0:0:0:
384,288,39227,2,0,L|244:288,2,140,0|8|14,0:0|0:0|0:0,0:0:0:0:
224,192,40457,5,0,0:0:0:0:
288,192,40703,1,0,0:0:0:0:
176,192,40948,1,0,0:0:0:0:
352,192,41194,1,0,0:0:0:0:
176,96,41440,2,0,L|256:96,1,70,0|8,0:0|0:0,0:0:0:0:
368,128,41932,6,0,P|400:192|352:240,1,140
176,192,42670,1,8,0:0:0:0:
336,192,42916,1,0,0:0:0:0:
128,192,43162,2,0,P|112:256|176:288,1,140,0|8,0:0|0:0,0:0:0:0:
189,144,43899,2,8,L|224:144,1,35
298,208,44145,2,0,L|368:208,2,70,8|4|8,0:0|0:0|0:0,0:0:0:0:
200,132,44883,1,0,0:0:0:0:
80,240,45129,6,0,L|219:224,1,140,0|2,0:0|0:0,0:0:0:0:
416,192,45867,1,0,0:0:0:0:
336,272,46112,2,0,L|256:272,2,70,4|0|0,0:0|0:0|0:0,0:0:0:0:
192,192,46850,1,0,0:0:0:0:
336,128,47096,6,0,P|368:192|336:256,1,140
211,192,47834,2,8,L|176:192,2,35
384,192,48326,1,2,3:0:0:0:
224,192,48571,1,4,1:0:0:0:
384,192,48817,1,8,1:0:0:0:
176,288,49063,6,8,L|246:288,2,70
336,224,49801,1,0,0:0:0:0:
192,224,50047,1,0,0:0:0:0:
336,224,50293,1,2,0:0:0:0:
144,128,50539,6,0,L|74:128,2,70,0|0|8,0:0|0:0|0:0,0:0:0:0:
320,192,51276,1,0,0:0:0:0:
144,192,51522,2,0,L|224:192,1,70
320,288,52014,2,0,L|160:288,2,140
256,256,53244,1,0,0:0:0:0:
144,192,53489,1,8,0:0:0:0:
314,160,53735,2,0,L|384:160,2,70
96,160,54473,5,8,0:0:0:0:
250,160,54719,1,0,0:0:0:0:
160,160,54965,1,0,0:0:0:0:
304,160,55211,1,0,0:0:0:0:
224,160,55457,1,8,0:0:0:0:
406,240,55703,2,0,L|336:240,1,70
192,160,56194,6,0,L|272:160,2,70,0|2|0,0:0|0:0|0:0,0:0:0:0:
384,160,56932,1,0,0:0:0:0:
240,160,57178,1,0,0:0:0:0:
400,272,57424,2,0,L|320:272,1,70,8|0,0:0|0:0,0:0:0:0:
240,160,57916,2,0,L|320:160,1,70
448,48,58407,2,0,L|368:48,1,70,8|0,0:0|0:0,0:0:0:0:
256,160,58899,5,0,0:0:0:0:
416,160,59145,1,0,0:0:0:0:
230,160,59391,2,0,L|160:160,1,70,2|0,0:0|0:0,0:0:0:0:
352,192,59883,6,0,P|384:240|336:304,1,140,0|8,0:0|0:0,0:0:0:0:
256,256,60621,1,0,0:0:0:0:
112,192,60867,2,0,L|256:192,1,140
336,192,61604,1,0,0:0:0:0:
160,192,61850,1,0,0:0:0:0:
336,192,62096,1,0,0:0:0:0:
192,272,62342,2,0,L|288:272,1,70
336,192,62834,1,14,0:0:0:0:
176,192,63080,6,0,L|224:160,1,35
432,288,63326,2,0,L|362:288,1,70
48,192,63817,2,0,L|208:192,2,140
288,288,65047,1,0,0:0:0:0:
176,288,65293,1,8,0:0:0:0:
288,288,65539,1,0,0:0:0:0:
128,192,65785,6,0,L|208:192,2,70,0|0|8,0:0|0:0|0:0,0:0:0:0:
304,192,66522,1,0,0:0:0:0:
192,192,66768,6,0,P|160:256|208:304,1,140,0|8,0:0|0:0,0:0:0:0:
304,256,67506,1,0,0:0:0:0:
144,192,67752,2,0,L|224:192,1,70,2|0,0:0|0:0,0:0:0:0:
336,128,68244,2,0,P|368:192|336:256,1,140
192,224,68981,5,0,0:0:0:0:
352,224,69227,1,8,0:0:0:0:
256,224,69473,1,0,0:0:0:0:
448,224,69719,2,0,L|368:224,2,70,0|0|8,0:0|0:0|0:0,0:0:0:0:
240,128,70457,5,0,0:0:0:0:
400,128,70703,1,0,0:0:0:0:
208,128,70826,2,0,L|103:128,1,105,8|0,0:0|0:0,0:0:0:0:
352,224,71440,1,8,0:0:0:0:
212,144,71686,2,0,L|352:144,2,140
320,176,72916,1,0,0:0:0:0:
176,176,73162,1,0,0:0:0:0:
288,176,73407,1,0,0:0:0:0:
144,176,73653,6,0,L|74:176,2,70,2|0|0,0:0|0:0|0:0,0:0:0:0:
256,256,74391,1,0,0:0:0:0:
400,240,74637,2,0,P|400:176|336:144,1,140,8|0,0:0|0:0,0:0:0:0:
424,112,75375,1,0,0:0:0:0:
240,192,75621,6,0,L|164:192,1,70,2|0,0:0|0:0,0:0:0:0:
384,304,76112,2,0,L|464:304,1,70,8|0,0:0|0:0,0:0:0:0:
208,192,76604,2,0,L|128:192,1,70,2|0,0:0|0:0,0:0:0:0:
336,80,77096,2,0,L|352:160,1,70,8|0,0:0|0:0,0:0:0:0:
176,192,77588,5,0,0:0:0:0:
320,192,77834,1,0,0:0:0:0:
224,192,78080,1,2,0:0:0:0:
368,192,78326,1,0,0:0:0:0:
192,208,78571,1,8,0:0:0:0:
144,256,78694,1,8,0:0:0:0:
144,320,78817,1,8,0:0:0:0:
250,288,79063,2,0,L|320:288,1,70
352,256,79432,1,0,0:0:0:0:
160,160,79555,6,0,L|304:160,2,140,0|0|8,0:0|0:0|0:0,0:0:0:0:
224,176,80785,1,0,0:0:0:0:
368,176,81031,1,2,0:0:0:0:
272,176,81277,1,0,0:0:0:0:
416,176,81522,5,8,0:0:0:0:
208,176,81768,2,0,L|128:176,2,70,0|2|0,0:0|0:0|0:0,0:0:0:0:
384,192,82506,2,0,P|416:256|368:304,1,140,8|0,0:0|0:0,0:0:0:0:
224,256,83244,1,0,0:0:0:0:
352,192,83489,2,0,L|192:192,2,140
224,224,84719,1,0,0:0:0:0:
368,224,84965,1,8,0:0:0:0:
272,224,85211,1,0,0:0:0:0:
416,224,85457,5,2,0:0:0:0:
192,224,85703,2,0,L|262:224,2,70,0|8|0,0:0|0:0|0:0,0:0:0:0:
432,128,86440,2,0,L|368:128,1,35
176,192,86686,2,0,L|256:192,1,70
96,192,87178,1,0,0:0:0:0:
320,192,87424,6,0,P|336:272|288:320,2,140,2|0|8,0:0|0:0|0:0,0:0:0:0:
144,240,88653,1,0,0:0:0:0:
288,240,88899,1,0,0:0:0:0:
192,240,89145,1,0,0:0:0:0:
384,240,89391,6,0,L|314:240,2,70,8|0|0,0:0|0:0|0:0,0:0:0:0:
176,176,90129,1,0,0:0:0:0:
336,176,90375,2,0,P|368:240|320:288,1,140,8|0,0:0|0:0,0:0:0:0:
192,240,91112,1,0,0:0:0:0:
384,176,91358,6,0,L|304:176,1,70,2|0,0:0|0:0,0:0:0:0:
208,272,91850,2,0,L|288:272,1,70,8|0,0:0|0:0,0:0:0:0:
166,176,92342,6,0,L|96:176,1,70,2|0,0:0|0:0,0:0:0:0:
288,96,92834,2,0,L|319:158,1,70,8|0,0:0|0:0,0:0:0:0:
160,192,93326,5,0,0:0:0:0:
336,192,93571,1,0,0:0:0:0:
208,192,93817,1,2,0:0:0:0:
384,192,94063,1,0,0:0:0:0:
272,288,94309,6,8,L|320:288,1,35
160,144,94678,2,8,L|112:144,1,35
256,112,95047,6,8,L|291:112,2,35,8|8|14,0:0|0:0|0:0,0:0:0:0:
176,176,95539,1,0,0:0:0:0:
384,240,95785,2,0,L|304:240,2,70,8|0|0,0:0|0:0|0:0,0:0:0:0:
144,144,96522,1,0,0:0:0:0:
304,144,96768,1,8,0:0:0:0:
96,144,97014,6,0,P|64:192|112:256,1,140
320,272,97752,2,0,L|240:256,1,70,8|0,0:0|0:0,0:0:0:0:
112,144,98244,2,0,L|181:158,1,70,2|0,0:0|0:0,0:0:0:0:
400,96,98735,1,0,0:0:0:0:
448,160,98858,1,0,0:0:0:0:
448,240,98981,1,0,0:0:0:0:
400,304,99104,1,0,0:0:0:0:
144,176,99227,5,0,0:0:0:0:
304,176,99473,1,0,0:0:0:0:
192,176,99719,1,8,0:0:0:0:
352,176,99965,1,0,0:0:0:0:
176,192,100211,2,0,L|256:192,2,70,0|8|8,0:0|0:0|0:0,0:0:0:0:
416,208,100948,6,0,P|448:272|416:336,1,140,2|0,0:0|0:0,0:0:0:0:
112,192,101686,2,0,L|192:160,1,70,8|0,0:0|0:0,0:0:0:0:
320,240,102178,2,0,L|256:272,1,70,4|0,0:0|0:0,0:0:0:0:
112,128,102670,1,8,0:0:0:0:
64,160,102793,1,8,0:0:0:0:
64,224,102916,1,8,0:0:0:0:
112,256,103039,1,8,0:0:0:0:
336,160,103162,5,14,0:0:0:0:
160,192,103407,1,0,0:0:0:0:
304,192,103653,1,0,0:0:0:0:
208,192,103899,1,6,0:0:0:0:
314,256,104145,2,0,L|384:256,2,70,2|0|0,0:0|0:0|0:0,0:0:0:0:
416,208,104883,6,0,P|448:272|416:336,1,140,8|0,0:0|0:0,0:0:0:0:
208,192,105621,2,0,L|138:192,1,70,8|0,0:0|0:0,0:0:0:0:
384,256,106112,2,0,L|454:256,1,70,2|0,0:0|0:0,0:0:0:0:
144,80,106604,1,10,0:3:0:0:
96,128,106727,1,10,0:3:0:0:
80,192,106850,1,10,0:3:0:0:
96,256,106972,1,10,0:3:0:0:
144,304,107095,1,10,0:3:0:0:
192,192,107342,5,0,0:0:0:0:
176,192,107588,1,2,0:0:0:0:
304,192,107834,1,0,0:0:0:0:
128,192,108080,1,4,0:0:0:0:
336,288,108326,2,0,L|256:288,1,70
224,192,108817,6,0,P|192:256|240:304,1,140,2|0,0:0|0:0,0:0:0:0:
368,192,109432,1,0,0:0:0:0:
416,160,109555,1,4,0:0:0:0:
416,96,109678,1,0,0:0:0:0:
368,64,109801,1,2,0:0:0:0:
176,128,110047,5,8,0:0:0:0:
336,128,110416,1,8,0:0:0:0:
128,128,110785,1,8,0:0:0:0:
256,192,111522,12,0,114965,0:0:0:0:
