osu file format v14

[General]
AudioFilename: audio.mp3
AudioLeadIn: 0
PreviewTime: 63203
Countdown: 0
SampleSet: Normal
StackLeniency: 0.7
Mode: 1
LetterboxInBreaks: 0
WidescreenStoryboard: 0

[Editor]
Bookmarks: 375,30375,45621,65785,66768,95293,114965
DistanceSpacing: 1.2
BeatDivisor: 4
GridSize: 16
TimelineZoom: 1.100001

[Metadata]
Title:Shiawase Iro
TitleUnicode:しあわせ色
Artist:Hiiragi Mayuki(CV:Ogura Yui)/Hagino Chiaki(CV:Toujou Hisako)
ArtistUnicode:柊 真雪(CV:小倉 唯)/萩野千秋(CV:東城日沙子)
Creator:Alwaysyukaz
Version:Ron's Muzukashii
Source:ひなこのーと
Tags:Hinako note Gekidan Hitotose [R]
BeatmapID:1433528
BeatmapSetID:677899

[Difficulty]
HPDrainRate:6
CircleSize:2.5
OverallDifficulty:5
ApproachRate:5.5
SliderMultiplier:1.4
SliderTickRate:1

[Events]
//Background and Video events
0,0,"BG.png",0,100
//Break Periods
//Storyboard Layer 0 (Background)
//Storyboard Layer 1 (Fail)
//Storyboard Layer 2 (Pass)
//Storyboard Layer 3 (Foreground)
//Storyboard Sound Samples

[TimingPoints]
867,491.803278688525,4,1,0,70,1,0
63817,-100,4,1,0,80,0,1
95293,-100,4,1,0,80,0,0
112014,-100,4,1,0,70,0,0
112996,-100,4,1,0,60,0,0
113981,-100,4,1,0,50,0,0
114965,-100,4,1,0,40,0,0

[HitObjects]
256,192,867,5,0,0:0:0:0:
256,192,1358,1,8,0:0:0:0:
256,192,1850,1,8,0:0:0:0:
256,192,2834,1,0,0:0:0:0:
256,192,3326,1,8,0:0:0:0:
256,192,3571,1,8,0:0:0:0:
256,192,3817,1,0,0:0:0:0:
256,192,4063,1,0,0:0:0:0:
256,192,4309,1,8,0:0:0:0:
256,192,4801,1,0,0:0:0:0:
256,192,5293,1,0,0:0:0:0:
256,192,5785,1,8,0:0:0:0:
256,192,6768,1,0,0:0:0:0:
256,192,7014,1,0,0:0:0:0:
256,192,7260,1,8,0:0:0:0:
256,192,7506,1,8,0:0:0:0:
256,192,7752,1,0,0:0:0:0:
256,192,8244,1,8,0:0:0:0:
256,192,8735,1,0,0:0:0:0:
256,192,9227,1,8,0:0:0:0:
256,192,9719,1,8,0:0:0:0:
256,192,10703,1,0,0:0:0:0:
256,192,11194,1,0,0:0:0:0:
256,192,11440,1,8,0:0:0:0:
256,192,11686,1,0,0:0:0:0:
256,192,11932,1,0,0:0:0:0:
256,192,12178,1,8,0:0:0:0:
256,192,12424,1,8,0:0:0:0:
256,192,12670,1,0,0:0:0:0:
256,192,13162,1,8,0:0:0:0:
256,192,13653,1,0,0:0:0:0:
256,192,14637,1,0,0:0:0:0:
256,192,15129,1,8,0:0:0:0:
256,192,15621,1,0,0:0:0:0:
256,192,15744,1,0,0:0:0:0:
256,192,15867,1,0,0:0:0:0:
256,192,16112,1,8,0:0:0:0:
256,192,16358,1,0,0:0:0:0:
256,192,16604,1,4,0:0:0:0:
256,192,17096,1,8,0:0:0:0:
256,192,17588,1,0,0:0:0:0:
256,192,18080,1,0,0:0:0:0:
256,192,18326,1,8,0:0:0:0:
256,192,18571,1,0,0:0:0:0:
256,192,19063,1,8,0:0:0:0:
256,192,19555,1,8,0:0:0:0:
256,192,19801,1,0,0:0:0:0:
256,192,20047,1,8,0:0:0:0:
256,192,20293,1,8,0:0:0:0:
256,192,20539,1,0,0:0:0:0:
256,192,21030,1,8,0:0:0:0:
256,192,21522,1,0,0:0:0:0:
256,192,22014,1,8,0:0:0:0:
256,192,22260,1,0,0:0:0:0:
256,192,22506,1,0,0:0:0:0:
256,192,22998,1,8,0:0:0:0:
256,192,23489,1,8,0:0:0:0:
256,192,23735,1,0,0:0:0:0:
256,192,23981,1,8,0:0:0:0:
256,192,24227,1,8,0:0:0:0:
256,192,24473,1,0,0:0:0:0:
256,192,24965,1,8,0:0:0:0:
256,192,25457,1,0,0:0:0:0:
256,192,25948,1,0,0:0:0:0:
256,192,26194,1,8,0:0:0:0:
256,192,26440,1,0,0:0:0:0:
256,192,26932,1,8,0:0:0:0:
256,192,27424,1,8,0:0:0:0:
256,192,27670,1,0,0:0:0:0:
256,192,27916,1,8,0:0:0:0:
256,192,28162,1,8,0:0:0:0:
256,192,28407,1,0,0:0:0:0:
256,192,28899,1,8,0:0:0:0:
256,192,29391,1,0,0:0:0:0:
256,192,29637,1,0,0:0:0:0:
256,192,29883,1,8,0:0:0:0:
256,192,30129,1,0,0:0:0:0:
256,192,31358,1,12,0:0:0:0:
256,192,31727,1,12,0:0:0:0:
256,192,32096,1,12,0:0:0:0:
256,192,32588,1,0,0:0:0:0:
256,192,32834,1,8,0:0:0:0:
256,192,33080,1,8,0:0:0:0:
256,192,33326,1,0,0:0:0:0:
256,192,33817,1,0,0:0:0:0:
256,192,34063,1,8,0:0:0:0:
256,192,34555,1,8,0:0:0:0:
256,192,34801,1,0,0:0:0:0:
256,192,35293,1,0,0:0:0:0:
256,192,35785,1,8,0:0:0:0:
256,192,36522,1,8,0:0:0:0:
256,192,36768,1,8,0:0:0:0:
256,192,37014,1,0,0:0:0:0:
256,192,37260,1,8,0:0:0:0:
256,192,37752,1,8,0:0:0:0:
256,192,37998,1,0,0:0:0:0:
256,192,38489,1,0,0:0:0:0:
256,192,38735,1,8,0:0:0:0:
256,192,39227,1,0,0:0:0:0:
256,192,39719,1,8,0:0:0:0:
256,192,40457,1,0,0:0:0:0:
256,192,40703,1,8,0:0:0:0:
256,192,40948,1,8,0:0:0:0:
256,192,41194,1,0,0:0:0:0:
256,192,41686,1,0,0:0:0:0:
256,192,41932,1,8,0:0:0:0:
256,192,42424,1,8,0:0:0:0:
256,192,42670,1,0,0:0:0:0:
256,192,43162,1,0,0:0:0:0:
256,192,43653,1,8,0:0:0:0:
256,192,43899,1,0,0:0:0:0:
256,192,44145,1,8,0:0:0:0:
256,192,44637,1,0,0:0:0:0:
256,192,44883,1,8,0:0:0:0:
256,192,45129,1,0,0:0:0:0:
256,192,45621,1,0,0:0:0:0:
256,192,45867,1,8,0:0:0:0:
256,192,46358,1,8,0:0:0:0:
256,192,46604,1,8,0:0:0:0:
256,192,47096,1,0,0:0:0:0:
256,192,47588,1,8,0:0:0:0:
256,192,47834,1,0,0:0:0:0:
256,192,47957,1,0,0:0:0:0:
256,192,48080,1,0,0:0:0:0:
256,192,48326,1,8,0:0:0:0:
256,192,48571,1,0,0:0:0:0:
256,192,48817,1,8,0:0:0:0:
256,192,49063,1,0,0:0:0:0:
256,192,49309,1,8,0:0:0:0:
256,192,49801,1,8,0:0:0:0:
256,192,50047,1,0,0:0:0:0:
256,192,50539,1,0,0:0:0:0:
256,192,50785,1,8,0:0:0:0:
256,192,51276,1,8,0:0:0:0:
256,192,51522,1,8,0:0:0:0:
256,192,51768,1,0,0:0:0:0:
256,192,51891,1,0,0:0:0:0:
256,192,52014,1,0,0:0:0:0:
256,192,52506,1,0,0:0:0:0:
256,192,52998,1,8,0:0:0:0:
256,192,53981,1,0,0:0:0:0:
256,192,54473,1,8,0:0:0:0:
256,192,54719,1,0,0:0:0:0:
256,192,54965,1,0,0:0:0:0:
256,192,55211,1,8,0:0:0:0:
256,192,55457,1,8,0:0:0:0:
256,192,55703,1,0,0:0:0:0:
256,192,56194,1,8,0:0:0:0:
256,192,56440,1,0,0:0:0:0:
256,192,56686,1,8,0:0:0:0:
256,192,56932,1,0,0:0:0:0:
256,192,57178,1,8,0:0:0:0:
256,192,57670,1,8,0:0:0:0:
256,192,57916,1,0,0:0:0:0:
256,192,58407,1,0,0:0:0:0:
256,192,58653,1,8,0:0:0:0:
256,192,59145,1,8,0:0:0:0:
256,192,59391,1,8,0:0:0:0:
256,192,59637,1,0,0:0:0:0:
256,192,59760,1,0,0:0:0:0:
256,192,59883,1,0,0:0:0:0:
256,192,60375,1,0,0:0:0:0:
256,192,60867,1,8,0:0:0:0:
256,192,61850,1,4,0:0:0:0:
256,192,62096,1,12,0:0:0:0:
256,192,62342,1,12,0:0:0:0:
256,192,62834,1,12,0:0:0:0:
256,192,63080,1,0,0:0:0:0:
256,192,63203,1,0,0:0:0:0:
256,192,63326,1,0,0:0:0:0:
256,192,63817,1,4,0:0:0:0:
256,192,64309,1,8,0:0:0:0:
256,192,64801,1,8,0:0:0:0:
256,192,65047,1,0,0:0:0:0:
256,192,65293,1,8,0:0:0:0:
256,192,65539,1,8,0:0:0:0:
256,192,65785,1,0,0:0:0:0:
256,192,66276,1,0,0:0:0:0:
256,192,66522,1,8,0:0:0:0:
256,192,66768,1,0,0:0:0:0:
256,192,67014,1,8,0:0:0:0:
256,192,67137,1,8,0:0:0:0:
256,192,67260,1,8,0:0:0:0:
256,192,67506,1,8,0:0:0:0:
256,192,67752,1,0,0:0:0:0:
256,192,68244,1,8,0:0:0:0:
256,192,68735,1,0,0:0:0:0:
256,192,68981,1,8,0:0:0:0:
256,192,69227,1,0,0:0:0:0:
256,192,69473,1,0,0:0:0:0:
256,192,69719,1,8,0:0:0:0:
256,192,70211,1,8,0:0:0:0:
256,192,70457,1,8,0:0:0:0:
256,192,70703,1,0,0:0:0:0:
256,192,70826,1,0,0:0:0:0:
256,192,71194,1,8,0:0:0:0:
256,192,71686,1,0,0:0:0:0:
256,192,72178,1,8,0:0:0:0:
256,192,72670,1,8,0:0:0:0:
256,192,72916,1,0,0:0:0:0:
256,192,73162,1,8,0:0:0:0:
256,192,73407,1,8,0:0:0:0:
256,192,73653,1,0,0:0:0:0:
256,192,73899,1,0,0:0:0:0:
256,192,74022,1,0,0:0:0:0:
256,192,74145,1,0,0:0:0:0:
256,192,74391,1,8,0:0:0:0:
256,192,74637,1,0,0:0:0:0:
256,192,75129,1,8,0:0:0:0:
256,192,75375,1,8,0:0:0:0:
256,192,75621,1,0,0:0:0:0:
256,192,76604,1,8,0:0:0:0:
256,192,77096,1,0,0:0:0:0:
256,192,77342,1,8,0:0:0:0:
256,192,77588,1,0,0:0:0:0:
256,192,78080,1,8,0:0:0:0:
256,192,78326,1,0,0:0:0:0:
256,192,78571,1,8,0:0:0:0:
256,192,78694,1,8,0:0:0:0:
256,192,79063,1,8,0:0:0:0:
256,192,79309,1,8,0:0:0:0:
256,192,79555,1,4,0:0:0:0:
256,192,80047,1,8,0:0:0:0:
256,192,80539,1,8,0:0:0:0:
256,192,80785,1,0,0:0:0:0:
256,192,81030,1,8,0:0:0:0:
256,192,81276,1,8,0:0:0:0:
256,192,81522,1,0,0:0:0:0:
256,192,82014,1,0,0:0:0:0:
256,192,82260,1,8,0:0:0:0:
256,192,82506,1,0,0:0:0:0:
256,192,82752,1,8,0:0:0:0:
256,192,82875,1,8,0:0:0:0:
256,192,82998,1,8,0:0:0:0:
256,192,83244,1,8,0:0:0:0:
256,192,83489,1,0,0:0:0:0:
256,192,83981,1,8,0:0:0:0:
256,192,84473,1,0,0:0:0:0:
256,192,84719,1,8,0:0:0:0:
256,192,84965,1,0,0:0:0:0:
256,192,85211,1,0,0:0:0:0:
256,192,85457,1,8,0:0:0:0:
256,192,85948,1,8,0:0:0:0:
256,192,86194,1,8,0:0:0:0:
256,192,86440,1,0,0:0:0:0:
256,192,86563,1,0,0:0:0:0:
256,192,86932,1,8,0:0:0:0:
256,192,87424,1,0,0:0:0:0:
256,192,87916,1,8,0:0:0:0:
256,192,88407,1,8,0:0:0:0:
256,192,88653,1,0,0:0:0:0:
256,192,88899,1,8,0:0:0:0:
256,192,89145,1,8,0:0:0:0:
256,192,89391,1,0,0:0:0:0:
256,192,89637,1,0,0:0:0:0:
256,192,89760,1,0,0:0:0:0:
256,192,89883,1,0,0:0:0:0:
256,192,90129,1,8,0:0:0:0:
256,192,90375,1,0,0:0:0:0:
256,192,90867,1,8,0:0:0:0:
256,192,91112,1,8,0:0:0:0:
256,192,91358,1,0,0:0:0:0:
256,192,92342,1,8,0:0:0:0:
256,192,92834,1,0,0:0:0:0:
256,192,93080,1,8,0:0:0:0:
256,192,93326,1,0,0:0:0:0:
256,192,93817,1,0,0:0:0:0:
256,192,94063,1,8,0:0:0:0:
256,192,94309,1,8,0:0:0:0:
256,192,94432,1,8,0:0:0:0:
256,192,94801,1,8,0:0:0:0:
256,192,95047,1,8,0:0:0:0:
256,192,95293,1,4,0:0:0:0:
256,192,95785,1,8,0:0:0:0:
256,192,96276,1,0,0:0:0:0:
256,192,96768,1,0,0:0:0:0:
256,192,97014,1,8,0:0:0:0:
256,192,97260,1,0,0:0:0:0:
256,192,97752,1,8,0:0:0:0:
256,192,98244,1,8,0:0:0:0:
256,192,98489,1,0,0:0:0:0:
256,192,98735,1,8,0:0:0:0:
256,192,98981,1,8,0:0:0:0:
256,192,99227,1,0,0:0:0:0:
256,192,99719,1,8,0:0:0:0:
256,192,100211,1,0,0:0:0:0:
256,192,100703,1,8,0:0:0:0:
256,192,100948,1,0,0:0:0:0:
256,192,101194,1,0,0:0:0:0:
256,192,101686,1,8,0:0:0:0:
256,192,102178,1,8,0:0:0:0:
256,192,102424,1,0,0:0:0:0:
256,192,102670,1,8,0:0:0:0:
256,192,102916,1,8,0:0:0:0:
256,192,103162,1,0,0:0:0:0:
256,192,103653,1,8,0:0:0:0:
256,192,104145,1,0,0:0:0:0:
256,192,104637,1,0,0:0:0:0:
256,192,104883,1,8,0:0:0:0:
256,192,105129,1,0,0:0:0:0:
256,192,105621,1,8,0:0:0:0:
256,192,106112,1,8,0:0:0:0:
256,192,106358,1,0,0:0:0:0:
256,192,106604,1,8,0:0:0:0:
256,192,106850,1,8,0:0:0:0:
256,192,107096,1,0,0:0:0:0:
256,192,107588,1,8,0:0:0:0:
256,192,108080,1,0,0:0:0:0:
256,192,108326,1,0,0:0:0:0:
256,192,108571,1,8,0:0:0:0:
256,192,108817,1,0,0:0:0:0:
256,192,110047,1,12,0:0:0:0:
256,192,110416,1,12,0:0:0:0:
256,192,110785,1,12,0:0:0:0:
256,192,111522,12,0,114965,0:0:0:0:
