osu file format v14

[General]
AudioFilename: audio.mp3
AudioLeadIn: 0
PreviewTime: 63203
Countdown: 0
SampleSet: Normal
StackLeniency: 0.7
Mode: 1
LetterboxInBreaks: 0
WidescreenStoryboard: 1

[Editor]
Bookmarks: 375,30375,45621,65785,66768,95293,114965
DistanceSpacing: 1.2
BeatDivisor: 4
GridSize: 32
TimelineZoom: 1

[Metadata]
Title:Shiawase Iro
TitleUnicode:しあわせ色
Artist:Hiiragi Mayuki(CV:Ogura Yui)/Hagino Chiaki(CV:Toujou Hisako)
ArtistUnicode:柊 真雪(CV:小倉 唯)/萩野千秋(CV:東城日沙子)
Creator:Alwaysyukaz
Version:Ron's Futsuu
Source:ひなこのーと
Tags:Hinako note Gekidan Hitotose [R]
BeatmapID:1433527
BeatmapSetID:677899

[Difficulty]
HPDrainRate:7
CircleSize:2
OverallDifficulty:4
ApproachRate:5.5
SliderMultiplier:1.4
SliderTickRate:1

[Events]
//Background and Video events
0,0,"BG.png",0,100
//Break Periods
//Storyboard Layer 0 (Background)
//Storyboard Layer 1 (Fail)
//Storyboard Layer 2 (Pass)
//Storyboard Layer 3 (Foreground)
//Storyboard Sound Samples

[TimingPoints]
867,491.803278688525,4,1,0,70,1,0
63817,-100,4,1,0,80,0,1
95293,-100,4,1,0,80,0,0
112014,-100,4,1,0,70,0,0
112996,-100,4,1,0,60,0,0
113981,-100,4,1,0,50,0,0
114965,-100,4,1,0,40,0,0

[HitObjects]
256,192,867,5,0,0:0:0:0:
256,192,1850,1,8,0:0:0:0:
256,192,2834,1,0,0:0:0:0:
256,192,3326,1,8,0:0:0:0:
256,192,3817,1,0,0:0:0:0:
256,192,4063,1,0,0:0:0:0:
256,192,4309,1,8,0:0:0:0:
256,192,4801,1,0,0:0:0:0:
256,192,5785,1,8,0:0:0:0:
256,192,6768,1,0,0:0:0:0:
256,192,7260,1,8,0:0:0:0:
256,192,7506,1,8,0:0:0:0:
256,192,7752,1,0,0:0:0:0:
256,192,8244,1,8,0:0:0:0:
256,192,8735,1,0,0:0:0:0:
256,192,9719,1,8,0:0:0:0:
256,192,10703,1,0,0:0:0:0:
256,192,11194,1,8,0:0:0:0:
256,192,11686,1,0,0:0:0:0:
256,192,11932,1,0,0:0:0:0:
256,192,12178,1,8,0:0:0:0:
256,192,12670,1,0,0:0:0:0:
256,192,13653,1,0,0:0:0:0:
256,192,14637,1,0,0:0:0:0:
256,192,15129,1,8,0:0:0:0:
256,192,15621,1,0,0:0:0:0:
256,192,15867,1,0,0:0:0:0:
256,192,16112,1,8,0:0:0:0:
256,192,16604,1,4,0:0:0:0:
256,192,17588,1,0,0:0:0:0:
256,192,18080,1,0,0:0:0:0:
256,192,18326,1,8,0:0:0:0:
256,192,19063,1,8,0:0:0:0:
256,192,19555,1,8,0:0:0:0:
256,192,20047,1,8,0:0:0:0:
256,192,20293,1,8,0:0:0:0:
256,192,20539,1,0,0:0:0:0:
256,192,21522,1,0,0:0:0:0:
256,192,22014,1,8,0:0:0:0:
256,192,22260,1,0,0:0:0:0:
256,192,22998,1,8,0:0:0:0:
256,192,23489,1,8,0:0:0:0:
256,192,23981,1,8,0:0:0:0:
256,192,24227,1,8,0:0:0:0:
256,192,24473,1,0,0:0:0:0:
256,192,25457,1,0,0:0:0:0:
256,192,25948,1,0,0:0:0:0:
256,192,26194,1,8,0:0:0:0:
256,192,26932,1,8,0:0:0:0:
256,192,27424,1,8,0:0:0:0:
256,192,27916,1,8,0:0:0:0:
256,192,28162,1,8,0:0:0:0:
256,192,28407,1,0,0:0:0:0:
256,192,28899,1,8,0:0:0:0:
256,192,29391,1,0,0:0:0:0:
256,192,29883,1,8,0:0:0:0:
256,192,30129,1,0,0:0:0:0:
256,192,31358,1,12,0:0:0:0:
256,192,31727,1,12,0:0:0:0:
256,192,32096,1,12,0:0:0:0:
256,192,32834,1,8,0:0:0:0:
256,192,33326,1,0,0:0:0:0:
256,192,33817,1,0,0:0:0:0:
256,192,34063,1,8,0:0:0:0:
256,192,34801,1,0,0:0:0:0:
256,192,35293,1,0,0:0:0:0:
256,192,35785,1,8,0:0:0:0:
256,192,36768,1,8,0:0:0:0:
256,192,37260,1,0,0:0:0:0:
256,192,37752,1,8,0:0:0:0:
256,192,37998,1,0,0:0:0:0:
256,192,38735,1,8,0:0:0:0:
256,192,39227,1,0,0:0:0:0:
256,192,39719,1,8,0:0:0:0:
256,192,40703,1,8,0:0:0:0:
256,192,41194,1,0,0:0:0:0:
256,192,41686,1,0,0:0:0:0:
256,192,41932,1,8,0:0:0:0:
256,192,42670,1,0,0:0:0:0:
256,192,43162,1,0,0:0:0:0:
256,192,43653,1,8,0:0:0:0:
256,192,44145,1,0,0:0:0:0:
256,192,45129,1,0,0:0:0:0:
256,192,45621,1,8,0:0:0:0:
256,192,45867,1,0,0:0:0:0:
256,192,46604,1,8,0:0:0:0:
256,192,47096,1,8,0:0:0:0:
256,192,47588,1,8,0:0:0:0:
256,192,48080,1,4,0:0:0:0:
256,192,48571,1,8,0:0:0:0:
256,192,49063,1,0,0:0:0:0:
256,192,49309,1,8,0:0:0:0:
256,192,50047,1,0,0:0:0:0:
256,192,50539,1,0,0:0:0:0:
256,192,50785,1,8,0:0:0:0:
256,192,51276,1,8,0:0:0:0:
256,192,51522,1,8,0:0:0:0:
256,192,52014,1,0,0:0:0:0:
256,192,52998,1,8,0:0:0:0:
256,192,53981,1,0,0:0:0:0:
256,192,54473,1,8,0:0:0:0:
256,192,54965,1,0,0:0:0:0:
256,192,55211,1,8,0:0:0:0:
256,192,55457,1,8,0:0:0:0:
256,192,55948,1,0,0:0:0:0:
256,192,56440,1,8,0:0:0:0:
256,192,56932,1,0,0:0:0:0:
256,192,57178,1,8,0:0:0:0:
256,192,57916,1,0,0:0:0:0:
256,192,58407,1,0,0:0:0:0:
256,192,58653,1,8,0:0:0:0:
256,192,59145,1,8,0:0:0:0:
256,192,59391,1,8,0:0:0:0:
256,192,59883,1,0,0:0:0:0:
256,192,60867,1,8,0:0:0:0:
256,192,61850,1,4,0:0:0:0:
256,192,62096,1,12,0:0:0:0:
256,192,62342,1,12,0:0:0:0:
256,192,62834,1,12,0:0:0:0:
256,192,63326,1,0,0:0:0:0:
256,192,63817,1,4,0:0:0:0:
256,192,64801,1,8,0:0:0:0:
256,192,65293,1,8,0:0:0:0:
256,192,65785,1,0,0:0:0:0:
256,192,66276,1,0,0:0:0:0:
256,192,66522,1,8,0:0:0:0:
256,192,66768,1,0,0:0:0:0:
256,192,67260,1,8,0:0:0:0:
256,192,67752,1,0,0:0:0:0:
256,192,68735,1,0,0:0:0:0:
256,192,69227,1,0,0:0:0:0:
256,192,69719,1,8,0:0:0:0:
256,192,70211,1,8,0:0:0:0:
256,192,70457,1,8,0:0:0:0:
256,192,70703,1,0,0:0:0:0:
256,192,71194,1,8,0:0:0:0:
256,192,71686,1,0,0:0:0:0:
256,192,72670,1,8,0:0:0:0:
256,192,73162,1,8,0:0:0:0:
256,192,73653,1,0,0:0:0:0:
256,192,73899,1,8,0:0:0:0:
256,192,74145,1,8,0:0:0:0:
256,192,74637,1,0,0:0:0:0:
256,192,75129,1,8,0:0:0:0:
256,192,75621,1,0,0:0:0:0:
256,192,76604,1,8,0:0:0:0:
256,192,77096,1,0,0:0:0:0:
256,192,77342,1,8,0:0:0:0:
256,192,77588,1,0,0:0:0:0:
256,192,78080,1,8,0:0:0:0:
256,192,78571,1,8,0:0:0:0:
256,192,79063,1,8,0:0:0:0:
256,192,79555,1,4,0:0:0:0:
256,192,80539,1,8,0:0:0:0:
256,192,81031,1,8,0:0:0:0:
256,192,81523,1,0,0:0:0:0:
256,192,82014,1,0,0:0:0:0:
256,192,82260,1,8,0:0:0:0:
256,192,82506,1,0,0:0:0:0:
256,192,82998,1,8,0:0:0:0:
256,192,83490,1,0,0:0:0:0:
256,192,84473,1,0,0:0:0:0:
256,192,84965,1,0,0:0:0:0:
256,192,85457,1,8,0:0:0:0:
256,192,85949,1,8,0:0:0:0:
256,192,86195,1,8,0:0:0:0:
256,192,86441,1,0,0:0:0:0:
256,192,86932,1,8,0:0:0:0:
256,192,87424,1,0,0:0:0:0:
256,192,88408,1,8,0:0:0:0:
256,192,88900,1,8,0:0:0:0:
256,192,89391,1,0,0:0:0:0:
256,192,89637,1,8,0:0:0:0:
256,192,89883,1,8,0:0:0:0:
256,192,90375,1,0,0:0:0:0:
256,192,90867,1,8,0:0:0:0:
256,192,91359,1,0,0:0:0:0:
256,192,92342,1,8,0:0:0:0:
256,192,92834,1,0,0:0:0:0:
256,192,93080,1,8,0:0:0:0:
256,192,93326,1,0,0:0:0:0:
256,192,93818,1,0,0:0:0:0:
256,192,94309,5,8,0:0:0:0:
256,192,94555,1,8,0:0:0:0:
256,192,94801,1,8,0:0:0:0:
256,192,95292,5,4,0:0:0:0:
256,192,96276,1,0,0:0:0:0:
256,192,96768,1,0,0:0:0:0:
256,192,97013,1,8,0:0:0:0:
256,192,97751,1,8,0:0:0:0:
256,192,98243,1,8,0:0:0:0:
256,192,98735,1,8,0:0:0:0:
256,192,98981,1,8,0:0:0:0:
256,192,99227,1,0,0:0:0:0:
256,192,100210,1,0,0:0:0:0:
256,192,100702,1,8,0:0:0:0:
256,192,100948,1,0,0:0:0:0:
256,192,101686,1,8,0:0:0:0:
256,192,102177,1,8,0:0:0:0:
256,192,102669,1,8,0:0:0:0:
256,192,102915,1,8,0:0:0:0:
256,192,103161,1,0,0:0:0:0:
256,192,104145,1,0,0:0:0:0:
256,192,104636,1,0,0:0:0:0:
256,192,104882,1,8,0:0:0:0:
256,192,105620,1,8,0:0:0:0:
256,192,106112,1,8,0:0:0:0:
256,192,106604,1,8,0:0:0:0:
256,192,106850,1,8,0:0:0:0:
256,192,107095,1,0,0:0:0:0:
256,192,107587,1,8,0:0:0:0:
256,192,108079,1,0,0:0:0:0:
256,192,108571,1,8,0:0:0:0:
256,192,108817,1,0,0:0:0:0:
256,192,110046,1,12,0:0:0:0:
256,192,110416,1,12,0:0:0:0:
256,192,110784,1,12,0:0:0:0:
256,192,111522,12,0,114964,0:0:0:0:
