osu file format v14

[General]
AudioFilename: audio.mp3
AudioLeadIn: 0
PreviewTime: 63203
Countdown: 0
SampleSet: Normal
StackLeniency: 0.7
Mode: 1
LetterboxInBreaks: 0
WidescreenStoryboard: 0

[Editor]
DistanceSpacing: 1.2
BeatDivisor: 2
GridSize: 16
TimelineZoom: 0.3999996

[Metadata]
Title:Shiawase Iro
TitleUnicode:しあわせ色
Artist:Hiiragi Mayuki(CV:Ogura Yui)/Hagino Chiaki(CV:Toujou Hisako)
ArtistUnicode:柊 真雪(CV:小倉 唯)/萩野千秋(CV:東城日沙子)
Creator:Alwaysyukaz
Version:Kantan
Source:ひなこのーと
Tags:Hinako note Gekidan Hitotose [R]
BeatmapID:1433520
BeatmapSetID:677899

[Difficulty]
HPDrainRate:7
CircleSize:2
OverallDifficulty:3
ApproachRate:0
SliderMultiplier:1.4
SliderTickRate:1

[Events]
//Background and Video events
0,0,"BG.png",0,100
//Break Periods
//Storyboard Layer 0 (Background)
//Storyboard Layer 1 (Fail)
//Storyboard Layer 2 (Pass)
//Storyboard Layer 3 (Foreground)
//Storyboard Sound Samples

[TimingPoints]
867,491.803278688525,4,1,0,70,1,0
63817,-100,4,1,0,80,0,1
95293,-100,4,1,0,80,0,0
112014,-100,4,1,0,70,0,0
112996,-100,4,1,0,60,0,0
113981,-100,4,1,0,50,0,0
114965,-100,4,1,0,40,0,0

[HitObjects]
256,192,867,5,8,0:0:0:0:
256,192,2834,1,8,0:0:0:0:
256,192,3817,1,0,0:0:0:0:
256,192,4801,1,8,0:0:0:0:
256,192,6768,1,0,0:0:0:0:
256,192,7752,1,8,0:0:0:0:
256,192,8735,1,0,0:0:0:0:
256,192,10703,1,0,0:0:0:0:
256,192,12670,1,8,0:0:0:0:
256,192,13653,1,0,0:0:0:0:
256,192,14637,1,8,0:0:0:0:
256,192,15621,1,0,0:0:0:0:
256,192,16112,1,0,0:0:0:0:
256,192,16604,1,12,0:0:0:0:
256,192,18571,1,0,0:0:0:0:
256,192,19063,1,8,0:0:0:0:
256,192,19555,1,8,0:0:0:0:
256,192,20539,1,0,0:0:0:0:
256,192,21522,1,8,0:0:0:0:
256,192,22506,1,8,0:0:0:0:
256,192,22998,1,0,0:0:0:0:
256,192,23489,1,0,0:0:0:0:
256,192,24473,1,8,0:0:0:0:
256,192,25457,1,0,0:0:0:0:
256,192,26440,1,0,0:0:0:0:
256,192,26932,1,8,0:0:0:0:
256,192,27424,1,8,0:0:0:0:
256,192,28407,1,0,0:0:0:0:
256,192,29883,1,0,0:0:0:0:
256,192,30375,1,0,0:0:0:0:
256,192,31358,1,8,0:0:0:0:
256,192,32342,1,0,0:0:0:0:
256,192,34063,1,8,0:0:0:0:
256,192,34801,1,8,0:0:0:0:
256,192,35785,1,0,0:0:0:0:
256,192,36768,1,8,0:0:0:0:
256,192,37998,1,0,0:0:0:0:
256,192,38735,1,0,0:0:0:0:
256,192,39719,1,8,0:0:0:0:
256,192,40703,1,0,0:0:0:0:
256,192,41932,1,8,0:0:0:0:
256,192,42670,1,8,0:0:0:0:
256,192,43653,1,0,0:0:0:0:
256,192,44637,1,0,0:0:0:0:
256,192,45621,1,8,0:0:0:0:
256,192,46604,1,8,0:0:0:0:
256,192,47588,1,0,0:0:0:0:
256,192,48080,1,12,0:0:0:0:
256,192,49063,1,0,0:0:0:0:
256,192,50047,1,0,0:0:0:0:
256,192,50539,1,8,0:0:0:0:
256,192,51522,1,8,0:0:0:0:
256,192,52014,1,0,0:0:0:0:
256,192,52998,1,8,0:0:0:0:
256,192,53981,1,0,0:0:0:0:
256,192,55948,1,0,0:0:0:0:
256,192,56932,1,0,0:0:0:0:
256,192,57916,1,0,0:0:0:0:
256,192,58407,1,8,0:0:0:0:
256,192,59391,1,8,0:0:0:0:
256,192,59883,1,0,0:0:0:0:
256,192,60867,1,0,0:0:0:0:
256,192,61850,1,0,0:0:0:0:
256,192,62342,1,0,0:0:0:0:
256,192,62834,1,8,0:0:0:0:
256,192,63817,1,4,0:0:0:0:
256,192,64801,1,8,0:0:0:0:
256,192,65785,1,0,0:0:0:0:
256,192,66276,1,0,0:0:0:0:
256,192,66768,1,8,0:0:0:0:
256,192,67752,1,0,0:0:0:0:
256,192,68735,1,8,0:0:0:0:
256,192,69719,1,0,0:0:0:0:
256,192,70211,1,8,0:0:0:0:
256,192,70703,1,8,0:0:0:0:
256,192,71686,1,8,0:0:0:0:
256,192,72670,1,0,0:0:0:0:
256,192,73653,1,8,0:0:0:0:
256,192,74145,1,8,0:0:0:0:
256,192,74637,1,0,0:0:0:0:
256,192,75621,1,8,0:0:0:0:
256,192,76604,1,8,0:0:0:0:
256,192,77588,1,0,0:0:0:0:
256,192,78571,1,8,0:0:0:0:
256,192,79063,1,8,0:0:0:0:
256,192,79555,1,4,0:0:0:0:
256,192,80539,1,8,0:0:0:0:
256,192,81522,1,0,0:0:0:0:
256,192,82014,1,0,0:0:0:0:
256,192,82506,1,8,0:0:0:0:
256,192,83489,1,0,0:0:0:0:
256,192,84473,1,8,0:0:0:0:
256,192,85457,1,0,0:0:0:0:
256,192,85948,1,0,0:0:0:0:
256,192,86440,1,8,0:0:0:0:
256,192,87424,1,8,0:0:0:0:
256,192,88407,1,0,0:0:0:0:
256,192,89391,1,8,0:0:0:0:
256,192,89883,1,8,0:0:0:0:
256,192,90375,1,8,0:0:0:0:
256,192,91358,1,0,0:0:0:0:
256,192,92342,1,8,0:0:0:0:
256,192,93325,1,0,0:0:0:0:
256,192,94309,1,8,0:0:0:0:
256,192,94800,1,8,0:0:0:0:
256,192,95292,1,4,0:0:0:0:
256,192,97260,1,0,0:0:0:0:
256,192,97752,1,8,0:0:0:0:
256,192,98244,1,8,0:0:0:0:
256,192,99228,1,0,0:0:0:0:
256,192,100211,1,8,0:0:0:0:
256,192,101195,1,8,0:0:0:0:
256,192,101687,1,0,0:0:0:0:
256,192,102178,1,0,0:0:0:0:
256,192,103162,1,8,0:0:0:0:
256,192,104146,1,0,0:0:0:0:
256,192,105129,1,0,0:0:0:0:
256,192,105621,1,8,0:0:0:0:
256,192,106113,1,8,0:0:0:0:
256,192,107096,1,0,0:0:0:0:
256,192,108572,1,0,0:0:0:0:
256,192,109064,1,0,0:0:0:0:
256,192,110047,5,8,0:0:0:0:
256,192,111030,1,0,0:0:0:0:
256,192,111522,12,0,114965,0:0:0:0:
