osu file format v14

[General]
AudioFilename: audio.mp3
AudioLeadIn: 0
PreviewTime: 63203
Countdown: 0
SampleSet: Normal
StackLeniency: 0.7
Mode: 1
LetterboxInBreaks: 0
WidescreenStoryboard: 0

[Editor]
DistanceSpacing: 1.2
BeatDivisor: 4
GridSize: 16
TimelineZoom: 1.5

[Metadata]
Title:Shiawase Iro
TitleUnicode:しあわせ色
Artist:Hiiragi Mayuki(CV:Ogura Yui)/Hagino Chiaki(CV:Toujou Hisako)
ArtistUnicode:柊 真雪(CV:小倉 唯)/萩野千秋(CV:東城日沙子)
Creator:Alwaysyukaz
Version:Oni
Source:ひなこのーと
Tags:Hinako note Gekidan Hitotose [R]
BeatmapID:1433526
BeatmapSetID:677899

[Difficulty]
HPDrainRate:6
CircleSize:2
OverallDifficulty:5
ApproachRate:0
SliderMultiplier:1.4
SliderTickRate:1

[Events]
//Background and Video events
0,0,"BG.png",0,100
//Break Periods
//Storyboard Layer 0 (Background)
//Storyboard Layer 1 (Fail)
//Storyboard Layer 2 (Pass)
//Storyboard Layer 3 (Foreground)
//Storyboard Sound Samples

[TimingPoints]
867,491.803278688525,4,1,0,70,1,0
63817,-100,4,1,0,80,0,1
95293,-100,4,1,0,80,0,0
112014,-100,4,1,0,70,0,0
112996,-100,4,1,0,60,0,0
113981,-100,4,1,0,50,0,0
114965,-100,4,1,0,40,0,0

[HitObjects]
256,192,867,5,0,0:0:0:0:
256,192,1358,1,8,0:0:0:0:
256,192,1850,1,8,0:0:0:0:
256,192,2096,1,0,0:0:0:0:
256,192,2342,1,8,0:0:0:0:
256,192,2588,1,8,0:0:0:0:
256,192,2834,1,0,0:0:0:0:
256,192,3080,1,0,0:0:0:0:
256,192,3326,1,8,0:0:0:0:
256,192,3571,1,0,0:0:0:0:
256,192,3817,1,0,0:0:0:0:
256,192,4309,1,8,0:0:0:0:
256,192,4555,1,8,0:0:0:0:
256,192,4801,1,0,0:0:0:0:
256,192,5293,1,8,0:0:0:0:
256,192,5785,1,8,0:0:0:0:
256,192,6030,1,0,0:0:0:0:
256,192,6276,1,8,0:0:0:0:
256,192,6522,1,8,0:0:0:0:
256,192,6768,1,0,0:0:0:0:
256,192,7014,1,8,0:0:0:0:
256,192,7260,1,8,0:0:0:0:
256,192,7506,1,0,0:0:0:0:
256,192,7752,1,0,0:0:0:0:
256,192,8244,1,0,0:0:0:0:
256,192,8489,1,8,0:0:0:0:
256,192,8735,1,0,0:0:0:0:
208,224,9227,1,8,0:0:0:0:
208,224,9719,1,8,0:0:0:0:
208,224,9965,1,0,0:0:0:0:
208,224,10211,1,8,0:0:0:0:
208,224,10457,1,8,0:0:0:0:
208,224,10703,1,0,0:0:0:0:
208,224,10948,1,0,0:0:0:0:
208,224,11194,1,8,0:0:0:0:
224,208,11440,1,0,0:0:0:0:
224,208,11686,1,8,0:0:0:0:
224,208,12178,1,0,0:0:0:0:
224,208,12424,1,0,0:0:0:0:
224,208,12670,1,8,0:0:0:0:
224,208,13162,1,0,0:0:0:0:
224,208,13653,1,8,0:0:0:0:
192,224,13899,1,0,0:0:0:0:
192,224,14145,1,0,0:0:0:0:
192,224,14391,1,8,0:0:0:0:
224,208,14637,1,8,0:0:0:0:
224,208,15129,1,8,0:0:0:0:
224,208,15375,1,0,0:0:0:0:
224,208,15621,1,8,0:0:0:0:
224,208,15744,1,0,0:0:0:0:
224,208,15867,1,0,0:0:0:0:
224,208,15989,1,0,0:0:0:0:
224,208,16112,1,8,0:0:0:0:
224,208,16358,1,0,0:0:0:0:
224,208,16604,1,12,0:0:0:0:
224,208,17096,1,0,0:0:0:0:
224,208,17342,1,8,0:0:0:0:
224,208,17588,1,8,0:0:0:0:
224,208,17834,1,0,0:0:0:0:
224,208,17957,1,0,0:0:0:0:
224,208,18080,1,0,0:0:0:0:
224,208,18326,1,8,0:0:0:0:
224,208,18571,1,0,0:0:0:0:
224,208,19063,1,8,0:0:0:0:
224,208,19309,1,0,0:0:0:0:
224,208,19555,1,8,0:0:0:0:
224,208,19801,1,0,0:0:0:0:
224,208,20047,1,8,0:0:0:0:
224,208,20170,1,8,0:0:0:0:
224,208,20293,1,8,0:0:0:0:
224,208,20416,1,8,0:0:0:0:
224,208,20539,1,0,0:0:0:0:
224,208,21030,1,0,0:0:0:0:
256,192,21276,1,8,0:0:0:0:
256,192,21522,1,8,0:0:0:0:
256,192,21768,1,0,0:0:0:0:
256,192,21891,1,0,0:0:0:0:
256,192,22014,1,0,0:0:0:0:
256,192,22260,1,8,0:0:0:0:
256,192,22506,1,0,0:0:0:0:
256,192,22998,1,8,0:0:0:0:
256,192,23244,1,8,0:0:0:0:
256,192,23489,1,8,0:0:0:0:
256,192,23735,1,0,0:0:0:0:
256,192,23981,1,8,0:0:0:0:
256,192,24104,1,8,0:0:0:0:
256,192,24227,1,8,0:0:0:0:
256,192,24350,1,8,0:0:0:0:
256,192,24473,1,0,0:0:0:0:
256,192,24965,1,0,0:0:0:0:
256,192,25211,1,8,0:0:0:0:
256,192,25457,1,8,0:0:0:0:
256,192,25703,1,0,0:0:0:0:
256,192,25826,1,0,0:0:0:0:
256,192,25948,1,0,0:0:0:0:
256,192,26194,1,8,0:0:0:0:
256,192,26440,1,0,0:0:0:0:
256,192,26932,1,8,0:0:0:0:
256,192,27178,1,0,0:0:0:0:
256,192,27424,1,8,0:0:0:0:
256,192,27670,1,0,0:0:0:0:
256,192,27916,1,8,0:0:0:0:
256,192,28039,1,8,0:0:0:0:
256,192,28162,1,8,0:0:0:0:
256,192,28285,1,8,0:0:0:0:
256,192,28407,1,0,0:0:0:0:
256,192,28899,1,0,0:0:0:0:
256,192,29145,1,8,0:0:0:0:
256,192,29391,1,8,0:0:0:0:
256,192,29637,1,0,0:0:0:0:
256,192,29760,1,0,0:0:0:0:
256,192,29883,1,8,0:0:0:0:
256,192,30129,1,0,0:0:0:0:
256,192,30621,1,8,0:0:0:0:
256,192,30744,1,8,0:0:0:0:
256,192,30867,1,0,0:0:0:0:
256,192,30989,1,0,0:0:0:0:
256,192,31112,1,8,0:0:0:0:
256,192,31358,1,12,0:0:0:0:
256,192,31727,1,12,0:0:0:0:
256,192,32096,1,12,0:0:0:0:
256,192,32342,1,0,0:0:0:0:
256,192,32834,1,8,0:0:0:0:
256,192,33080,1,0,0:0:0:0:
256,192,33326,1,0,0:0:0:0:
256,192,33571,1,8,0:0:0:0:
256,192,33817,1,0,0:0:0:0:
256,192,34063,1,8,0:0:0:0:
256,192,34555,1,0,0:0:0:0:
256,192,34801,1,8,0:0:0:0:
256,192,35293,1,0,0:0:0:0:
256,192,35785,1,8,0:0:0:0:
256,192,36030,1,0,0:0:0:0:
256,192,36276,1,0,0:0:0:0:
256,192,36522,1,8,0:0:0:0:
256,192,36768,1,8,0:0:0:0:
256,192,37014,1,0,0:0:0:0:
256,192,37260,1,0,0:0:0:0:
256,192,37506,1,8,0:0:0:0:
256,192,37752,1,0,0:0:0:0:
256,192,37998,1,8,0:0:0:0:
256,192,38489,1,0,0:0:0:0:
256,192,38735,1,8,0:0:0:0:
256,192,39227,1,0,0:0:0:0:
256,192,39719,1,8,0:0:0:0:
256,192,39965,1,0,0:0:0:0:
256,192,40211,1,0,0:0:0:0:
256,192,40457,1,8,0:0:0:0:
256,192,40703,1,8,0:0:0:0:
256,192,40948,1,8,0:0:0:0:
256,192,41194,1,0,0:0:0:0:
256,192,41440,1,8,0:0:0:0:
256,192,41686,1,8,0:0:0:0:
256,192,41932,1,0,0:0:0:0:
256,192,42424,1,0,0:0:0:0:
256,192,42670,1,8,0:0:0:0:
256,192,43162,1,0,0:0:0:0:
256,192,43407,1,0,0:0:0:0:
256,192,43653,1,8,0:0:0:0:
256,192,43899,1,0,0:0:0:0:
256,192,44022,1,0,0:0:0:0:
256,192,44145,1,0,0:0:0:0:
256,192,44637,1,0,0:0:0:0:
256,192,44883,1,8,0:0:0:0:
256,192,45129,1,0,0:0:0:0:
256,192,45498,1,0,0:0:0:0:
256,192,45621,1,8,0:0:0:0:
256,192,45867,1,0,0:0:0:0:
256,192,46358,1,0,0:0:0:0:
256,192,46604,1,8,0:0:0:0:
256,192,46850,1,8,0:0:0:0:
256,192,47096,1,0,0:0:0:0:
256,192,47588,1,8,0:0:0:0:
256,192,47834,1,8,0:0:0:0:
256,192,47957,1,8,0:0:0:0:
256,192,48080,1,0,0:0:0:0:
256,192,48326,1,0,0:0:0:0:
256,192,48571,1,8,0:0:0:0:
256,192,48817,1,8,0:0:0:0:
256,192,49063,1,0,0:0:0:0:
256,192,49309,1,8,0:0:0:0:
256,192,49555,1,0,0:0:0:0:
256,192,50047,1,0,0:0:0:0:
256,192,50293,1,0,0:0:0:0:
256,192,50416,1,0,0:0:0:0:
256,192,50539,1,8,0:0:0:0:
256,192,50785,1,8,0:0:0:0:
256,192,51030,1,0,0:0:0:0:
256,192,51276,1,8,0:0:0:0:
256,192,51522,1,8,0:0:0:0:
256,192,51768,1,8,0:0:0:0:
256,192,52014,1,0,0:0:0:0:
256,192,52506,1,8,0:0:0:0:
256,192,52752,1,0,0:0:0:0:
256,192,52875,1,0,0:0:0:0:
256,192,52998,1,8,0:0:0:0:
256,192,53244,1,0,0:0:0:0:
256,192,53489,1,8,0:0:0:0:
256,192,53735,1,8,0:0:0:0:
256,192,53858,1,8,0:0:0:0:
256,192,53981,1,0,0:0:0:0:
256,192,54227,1,0,0:0:0:0:
256,192,54473,1,8,0:0:0:0:
256,192,54719,1,0,0:0:0:0:
256,192,54842,1,0,0:0:0:0:
256,192,54965,1,8,0:0:0:0:
256,192,55211,1,8,0:0:0:0:
256,192,55457,1,8,0:0:0:0:
256,192,55703,1,8,0:0:0:0:
256,192,55948,1,0,0:0:0:0:
256,192,56440,1,0,0:0:0:0:
256,192,56686,1,0,0:0:0:0:
256,192,56932,1,8,0:0:0:0:
256,192,57178,1,8,0:0:0:0:
256,192,57301,1,8,0:0:0:0:
256,192,57424,1,0,0:0:0:0:
256,192,57670,1,0,0:0:0:0:
256,192,57916,1,8,0:0:0:0:
256,192,58162,1,0,0:0:0:0:
256,192,58407,1,8,0:0:0:0:
256,192,58530,1,0,0:0:0:0:
256,192,58653,1,8,0:0:0:0:
256,192,58899,1,0,0:0:0:0:
256,192,59145,1,8,0:0:0:0:
256,192,59391,1,8,0:0:0:0:
256,192,59637,1,0,0:0:0:0:
256,192,59883,1,8,0:0:0:0:
256,192,60375,1,0,0:0:0:0:
256,192,60867,1,8,0:0:0:0:
256,192,61358,1,0,0:0:0:0:
256,192,61850,1,4,0:0:0:0:
256,192,62096,1,12,0:0:0:0:
256,192,62342,1,12,0:0:0:0:
256,192,62834,1,8,0:0:0:0:
256,192,62957,1,8,0:0:0:0:
256,192,63080,1,8,0:0:0:0:
256,192,63203,1,8,0:0:0:0:
256,192,63326,1,0,0:0:0:0:
256,192,63817,1,4,0:0:0:0:
208,208,64309,1,8,0:0:0:0:
208,208,64555,1,8,0:0:0:0:
208,208,64801,1,0,0:0:0:0:
208,208,65047,1,0,0:0:0:0:
208,208,65170,1,0,0:0:0:0:
208,208,65293,1,8,0:0:0:0:
224,192,65539,1,0,0:0:0:0:
224,192,65785,1,8,0:0:0:0:
208,208,65907,1,8,0:0:0:0:
224,192,66030,1,0,0:0:0:0:
256,192,66153,1,0,0:0:0:0:
224,192,66276,1,8,0:0:0:0:
224,192,66522,1,8,0:0:0:0:
224,192,66768,1,0,0:0:0:0:
224,192,67260,1,8,0:0:0:0:
256,192,67506,1,0,0:0:0:0:
256,192,67752,1,8,0:0:0:0:
256,192,68244,1,0,0:0:0:0:
256,192,68489,1,8,0:0:0:0:
256,192,68735,1,0,0:0:0:0:
256,192,68981,1,8,0:0:0:0:
256,192,69104,1,0,0:0:0:0:
256,192,69227,1,0,0:0:0:0:
256,192,69473,1,8,0:0:0:0:
256,192,69719,1,0,0:0:0:0:
256,192,69842,1,0,0:0:0:0:
256,192,69965,1,8,0:0:0:0:
256,192,70088,1,0,0:0:0:0:
256,192,70211,1,8,0:0:0:0:
256,192,70457,1,8,0:0:0:0:
256,192,70703,5,0,0:0:0:0:
256,192,70826,1,8,0:0:0:0:
256,192,70948,1,0,0:0:0:0:
256,192,71194,1,8,0:0:0:0:
256,192,71686,1,0,0:0:0:0:
256,192,72178,1,0,0:0:0:0:
256,192,72424,1,8,0:0:0:0:
256,192,72670,1,0,0:0:0:0:
256,192,72793,1,0,0:0:0:0:
256,192,72916,1,8,0:0:0:0:
256,192,73162,1,0,0:0:0:0:
256,192,73407,1,8,0:0:0:0:
256,192,73653,1,8,0:0:0:0:
256,192,73776,1,0,0:0:0:0:
256,192,73899,1,0,0:0:0:0:
256,192,74022,1,0,0:0:0:0:
256,192,74145,1,8,0:0:0:0:
256,192,74391,1,8,0:0:0:0:
256,192,74637,1,0,0:0:0:0:
256,192,75129,1,8,0:0:0:0:
256,192,75375,1,0,0:0:0:0:
256,192,75621,1,0,0:0:0:0:
256,192,76112,1,0,0:0:0:0:
256,192,76358,1,8,0:0:0:0:
256,192,76604,1,0,0:0:0:0:
256,192,76850,1,8,0:0:0:0:
256,192,76973,1,8,0:0:0:0:
256,192,77096,1,0,0:0:0:0:
256,192,77342,1,0,0:0:0:0:
256,192,77588,1,8,0:0:0:0:
256,192,77834,1,0,0:0:0:0:
256,192,78080,1,8,0:0:0:0:
256,192,78326,1,0,0:0:0:0:
256,224,78571,1,0,0:0:0:0:
256,192,78694,1,8,0:0:0:0:
256,192,78817,1,0,0:0:0:0:
256,192,79063,1,8,0:0:0:0:
256,192,79309,1,8,0:0:0:0:
256,192,79432,1,8,0:0:0:0:
256,192,79555,1,8,0:0:0:0:
224,208,80047,1,0,0:0:0:0:
224,208,80293,1,8,0:0:0:0:
224,208,80539,1,0,0:0:0:0:
224,208,80785,1,0,0:0:0:0:
224,208,80907,1,0,0:0:0:0:
224,208,81030,1,8,0:0:0:0:
224,208,81276,1,0,0:0:0:0:
256,192,81522,1,8,0:0:0:0:
256,192,81645,1,8,0:0:0:0:
256,192,81768,1,0,0:0:0:0:
256,192,81891,1,0,0:0:0:0:
256,192,82014,1,8,0:0:0:0:
256,192,82260,1,8,0:0:0:0:
256,192,82506,1,0,0:0:0:0:
256,192,82752,1,0,0:0:0:0:
256,192,82998,1,8,0:0:0:0:
256,192,83244,1,0,0:0:0:0:
256,192,83489,1,0,0:0:0:0:
256,192,83981,1,8,0:0:0:0:
256,192,84227,1,0,0:0:0:0:
256,192,84473,1,8,0:0:0:0:
256,192,84719,1,0,0:0:0:0:
256,192,84842,1,0,0:0:0:0:
256,192,84965,1,8,0:0:0:0:
256,192,85211,1,0,0:0:0:0:
256,192,85457,1,0,0:0:0:0:
256,192,85580,1,8,0:0:0:0:
256,192,85703,1,0,0:0:0:0:
256,192,85826,1,0,0:0:0:0:
256,192,85948,1,8,0:0:0:0:
256,192,86194,1,0,0:0:0:0:
256,192,86440,1,0,0:0:0:0:
256,192,86563,1,8,0:0:0:0:
256,192,86686,1,0,0:0:0:0:
256,192,86932,1,8,0:0:0:0:
256,192,87424,1,8,0:0:0:0:
256,192,87670,1,0,0:0:0:0:
256,192,87916,1,8,0:0:0:0:
256,192,88407,1,0,0:0:0:0:
256,192,88530,1,0,0:0:0:0:
256,192,88653,1,8,0:0:0:0:
256,192,88899,1,0,0:0:0:0:
256,192,89145,1,8,0:0:0:0:
256,192,89391,1,8,0:0:0:0:
256,192,89514,1,0,0:0:0:0:
256,192,89637,1,0,0:0:0:0:
256,192,89760,1,0,0:0:0:0:
256,192,89883,1,8,0:0:0:0:
256,192,90129,1,8,0:0:0:0:
256,192,90375,1,8,0:0:0:0:
256,192,90621,1,0,0:0:0:0:
256,192,90867,1,8,0:0:0:0:
256,192,91112,1,8,0:0:0:0:
256,192,91358,1,0,0:0:0:0:
256,192,91850,1,8,0:0:0:0:
256,192,92096,1,8,0:0:0:0:
256,192,92342,1,0,0:0:0:0:
256,192,92834,1,8,0:0:0:0:
240,224,93080,1,0,0:0:0:0:
256,192,93203,1,0,0:0:0:0:
256,192,93326,1,8,0:0:0:0:
256,192,93571,1,0,0:0:0:0:
256,192,93817,1,8,0:0:0:0:
256,192,94063,1,0,0:0:0:0:
256,192,94309,1,8,0:0:0:0:
256,192,94432,1,0,0:0:0:0:
256,192,94555,1,0,0:0:0:0:
256,192,94678,1,8,0:0:0:0:
256,192,94801,1,8,0:0:0:0:
256,192,95047,1,8,0:0:0:0:
256,192,95170,1,8,0:0:0:0:
256,192,95293,1,4,0:0:0:0:
224,208,95785,1,0,0:0:0:0:
224,208,96031,1,8,0:0:0:0:
224,208,96277,1,8,0:0:0:0:
224,208,96523,1,0,0:0:0:0:
224,208,96646,1,0,0:0:0:0:
224,208,96769,1,0,0:0:0:0:
224,208,97015,1,8,0:0:0:0:
224,208,97260,1,0,0:0:0:0:
224,208,97752,1,8,0:0:0:0:
224,208,97998,1,0,0:0:0:0:
224,208,98244,1,8,0:0:0:0:
224,208,98490,1,0,0:0:0:0:
224,208,98736,1,8,0:0:0:0:
224,208,98859,1,8,0:0:0:0:
224,208,98982,1,8,0:0:0:0:
224,208,99105,1,8,0:0:0:0:
224,208,99228,1,0,0:0:0:0:
224,208,99719,1,0,0:0:0:0:
256,192,99965,1,8,0:0:0:0:
256,192,100211,1,8,0:0:0:0:
256,192,100457,1,0,0:0:0:0:
256,192,100580,1,0,0:0:0:0:
256,192,100703,1,0,0:0:0:0:
256,192,100949,1,8,0:0:0:0:
256,192,101195,1,0,0:0:0:0:
256,192,101687,1,8,0:0:0:0:
256,192,101933,1,8,0:0:0:0:
256,192,102178,1,8,0:0:0:0:
256,192,102424,1,0,0:0:0:0:
256,192,102670,1,8,0:0:0:0:
256,192,102793,1,8,0:0:0:0:
256,192,102916,1,8,0:0:0:0:
256,192,103039,1,8,0:0:0:0:
256,192,103162,1,0,0:0:0:0:
256,192,103654,1,0,0:0:0:0:
256,192,103900,1,8,0:0:0:0:
256,192,104146,1,8,0:0:0:0:
256,192,104392,1,0,0:0:0:0:
256,192,104515,1,0,0:0:0:0:
256,192,104637,1,0,0:0:0:0:
256,192,104883,1,8,0:0:0:0:
256,192,105129,1,0,0:0:0:0:
256,192,105621,1,8,0:0:0:0:
256,192,105867,1,0,0:0:0:0:
256,192,106113,1,8,0:0:0:0:
256,192,106359,1,0,0:0:0:0:
256,192,106605,1,8,0:0:0:0:
256,192,106728,1,8,0:0:0:0:
256,192,106851,1,8,0:0:0:0:
256,192,106974,1,8,0:0:0:0:
256,192,107096,1,0,0:0:0:0:
256,192,107588,5,0,0:0:0:0:
256,192,107834,1,8,0:0:0:0:
256,192,108080,1,8,0:0:0:0:
256,192,108326,1,0,0:0:0:0:
256,192,108449,1,0,0:0:0:0:
256,192,108572,1,8,0:0:0:0:
256,192,108818,1,0,0:0:0:0:
256,192,109309,5,8,0:0:0:0:
256,192,109432,1,8,0:0:0:0:
256,192,109555,1,0,0:0:0:0:
256,192,109677,1,0,0:0:0:0:
256,192,109800,1,8,0:0:0:0:
256,192,110046,1,12,0:0:0:0:
256,192,110415,1,12,0:0:0:0:
256,192,110785,1,12,0:0:0:0:
256,192,111522,12,0,114965,0:0:0:0:
