osu file format v14

[General]
AudioFilename: audio.mp3
AudioLeadIn: 0
PreviewTime: 47772
Countdown: 0
SampleSet: Soft
StackLeniency: 0.5
Mode: 0
LetterboxInBreaks: 0
WidescreenStoryboard: 1

[Editor]
DistanceSpacing: 1
BeatDivisor: 8
GridSize: 4
TimelineZoom: 1

[Metadata]
Title:Shiawase Iro
TitleUnicode:しあわせ色
Artist:Hiiragi Mayuki (CV: Ogura Yui) / Hagino Chiaki (CV: Toujou Hisako)
ArtistUnicode:柊 真雪(CV:小倉 唯)/萩野千秋(CV:東城日沙子)
Creator:Mishima Yurara
Version:Advanced
Source:ひなこのーと
Tags:Hinako note Gekidan Hitotose
BeatmapID:1562878
BeatmapSetID:628548

[Difficulty]
HPDrainRate:4
CircleSize:3
OverallDifficulty:5
ApproachRate:5.5
SliderMultiplier:1
SliderTickRate:1

[Events]
//Background and Video events
0,0,"7537195_p01.png",0,0
//Break Periods
//Storyboard Layer 0 (Background)
//Storyboard Layer 1 (Fail)
//Storyboard Layer 2 (Pass)
//Storyboard Layer 3 (Foreground)
//Storyboard Sound Samples

[TimingPoints]
867,491.803278688525,4,2,1,40,1,0
15621,-100,4,2,1,60,0,0

[Colours]
Combo1 : 244,244,0
Combo2 : 128,128,255
Combo3 : 255,128,128
Combo4 : 0,230,230

[HitObjects]
81,132,867,6,0,P|58:93|51:30,2,100,2|0|0,0:0|0:0|0:0,0:0:0:0:
122,161,2096,2,0,L|180:154,2,50,0|0|0,0:0|0:0|0:0,0:0:0:0:
85,195,2834,2,0,L|-24:186,2,100,2|2|2,0:0|0:0|0:0,0:0:0:0:
152,268,4309,1,0,0:0:0:0:
219,341,4801,6,0,L|328:350,2,100,2|0|0,0:0|0:0|0:0,0:0:0:0:
170,327,6030,2,0,L|159:376,2,50,0|0|0,0:0|0:0|0:0,0:0:0:0:
195,283,6768,2,0,P|221:222|227:182,2,100,2|2|2,0:0|0:0|0:0,0:0:0:0:
113,224,8244,1,0,0:0:0:0:
104,124,8735,6,0,P|43:98|3:92,2,100,2|0|0,0:0|0:0|0:0,0:0:0:0:
150,103,9965,2,0,L|170:49,2,50,0|0|0,0:0|0:0|0:0,0:0:0:0:
186,137,10703,2,0,L|289:127,2,100,2|2|2,0:0|0:0|0:0,0:0:0:0:
114,207,12178,1,0,0:0:0:0:
183,278,12670,6,0,P|223:323|255:354,1,100,2|0,0:0|0:0,0:0:0:0:
348,324,13653,2,0,P|399:309|452:286,2,100,2|0|2,0:0|0:0|0:0,0:0:0:0:
279,253,15129,2,0,L|291:146,2,100,2|8|8,0:0|3:0|0:0,0:0:0:0:
260,299,16358,1,2,0:0:0:0:
253,349,16604,6,0,L|308:344,2,50,6|0|8,0:0|0:0|0:0,0:0:0:0:
203,348,17342,2,0,P|182:301|179:243,1,100,2|0,0:1|0:0,0:0:0:0:
150,210,18080,1,8,0:0:0:0:
150,210,18326,2,0,P|84:212|9:260,1,150,2|10,0:0|0:0,0:0:0:0:
28,353,19555,2,0,P|62:358|136:348,1,100,2|10,0:0|0:0,0:0:0:0:
162,315,20293,2,0,L|169:288,1,25
173,266,20539,6,0,L|118:261,2,50,2|0|8,0:0|0:0|0:0,0:0:0:0:
221,254,21277,2,0,P|242:207|245:149,1,100,2|0,0:1|0:0,0:0:0:0:
288,130,22015,1,8,0:0:0:0:
288,130,22261,2,0,P|354:132|429:180,1,150,2|10,0:0|0:0,0:0:0:0:
410,273,23490,2,0,P|376:278|302:268,1,100,2|10,0:0|0:0,0:0:0:0:
275,235,24227,2,0,L|259:206,1,25
245,195,24473,6,0,L|250:140,2,50,2|0|8,0:0|0:0|0:0,0:0:0:0:
214,235,25211,2,0,P|169:252|131:294,1,100,2|0,0:1|0:0,0:0:0:0:
91,316,25948,1,8,0:0:0:0:
91,316,26194,2,0,P|59:279|60:179,1,150,2|10,0:0|0:0,0:0:0:0:
141,125,27424,2,0,L|249:137,1,100,2|10,0:0|0:0,0:0:0:0:
289,127,28162,2,0,L|317:117,1,25
337,111,28407,6,0,L|350:60,2,50,2|0|8,0:0|0:0|0:0,0:0:0:0:
354,158,29145,2,0,L|356:264,1,100,2|0,0:1|0:0,0:0:0:0:
318,291,29883,1,8,0:0:0:0:
318,291,30129,2,0,L|168:278,1,150,2|8,0:0|0:0,0:0:0:0:
81,229,31358,2,0,L|92:148,2,75,10|10|10,1:1|1:1|1:1,0:0:0:0:
63,275,32342,6,0,L|108:308,1,50,2|0,0:0|0:0,0:0:0:0:
152,312,32834,2,0,L|201:303,1,50,8|0,0:0|0:0,0:0:0:0:
244,275,33326,2,0,P|266:221|293:185,1,100,2|8,0:0|0:0,0:0:0:0:
292,137,34063,1,0,0:0:0:0:
290,87,34309,2,0,L|188:68,2,100,2|8|2,0:0|0:0|0:0,0:0:0:0:
388,68,35785,1,0,1:0:0:0:
439,153,36276,6,0,P|436:200|434:211,1,50,2|0,0:0|0:0,0:0:0:0:
388,220,36768,2,0,P|391:267|393:278,1,50,8|0,0:0|0:0,0:0:0:0:
348,295,37260,2,0,L|243:279,1,100,2|8,0:0|0:0,0:0:0:0:
199,283,37998,1,0,0:0:0:0:
149,285,38244,2,0,P|126:231|121:180,2,100,2|8|2,0:0|0:0|0:0,0:0:0:0:
181,379,39719,1,0,1:0:0:0:
270,334,40211,6,0,P|286:294|288:286,1,50,2|0,0:0|0:0,0:0:0:0:
309,242,40703,2,0,P|293:202|291:194,1,50,8|0,0:0|0:0,0:0:0:0:
318,153,41194,2,0,P|320:91|312:52,1,100,2|8,0:0|0:0,0:0:0:0:
274,20,41932,1,0,0:0:0:0:
223,20,42178,2,0,L|115:35,2,100,2|8|2,0:0|0:0|0:0,0:0:0:0:
322,32,43653,2,0,L|333:85,1,50,8|0,0:0|0:0,0:0:0:0:
376,104,44145,6,0,L|360:212,1,100,2|8,0:0|0:0,0:0:0:0:
346,250,44883,1,0,0:0:0:0:
312,287,45129,2,0,P|281:276|205:274,1,100,2|8,0:0|0:0,0:0:0:0:
168,292,45867,1,0,0:0:0:0:
121,310,46112,1,2,0:0:0:0:
56,233,46604,1,8,0:0:0:0:
126,162,47096,1,2,0:0:0:0:
60,86,47588,1,8,0:0:0:0:
147,36,48080,6,0,L|201:43,3,50,6|2|8|2,0:0|0:1|0:0|0:1,0:0:0:0:
234,74,49063,2,0,L|288:81,3,50,2|2|8|2,0:0|0:1|0:0|0:1,0:0:0:0:
317,117,50047,2,0,L|371:124,3,50,0|2|8|2,0:0|0:1|0:0|0:1,0:0:0:0:
402,157,51030,1,2,0:0:0:0:
375,199,51276,1,8,0:1:0:0:
341,236,51522,1,8,1:1:0:0:
248,200,52014,6,0,P|206:195|142:213,2,100,2|10|2,0:0|0:0|0:0,0:0:0:0:
341,236,53489,1,8,0:0:0:0:
341,236,53735,2,0,P|342:177|380:84,1,150,2|10,0:0|0:0,0:0:0:0:
411,57,54719,1,0,0:0:0:0:
411,57,54965,2,0,L|407:7,2,50,2|8|8,0:0|1:1|1:1,0:0:0:0:
337,124,55948,6,0,L|278:120,3,50,2|2|8|2,0:0|0:1|0:0|0:1,0:0:0:0:
247,149,56932,2,0,L|198:145,3,50,2|2|8|2,0:0|0:1|0:0|0:1,0:0:0:0:
158,175,57916,2,0,L|109:171,3,50,2|2|8|2,0:0|0:1|0:0|0:1,0:0:0:0:
71,204,58899,1,2,0:0:0:0:
60,252,59145,1,8,0:1:0:0:
80,297,59391,1,8,1:1:0:0:
162,353,59883,5,6,0:0:0:0:
247,172,60867,1,6,0:0:0:0:
406,295,61850,1,6,0:0:0:0:
419,195,62342,1,8,0:0:0:0:
340,133,62834,1,8,0:0:0:0:
247,172,63326,1,8,0:0:0:0:
242,221,63571,1,0,0:0:0:0:
226,269,63817,6,0,P|179:254|121:256,2,100,6|8|2,0:0|0:0|0:1,0:0:0:0:
258,306,65047,2,0,L|250:359,2,50,2|10|2,0:0|0:0|0:0,0:0:0:0:
306,293,65785,1,2,0:0:0:0:
332,250,66030,1,0,0:0:0:0:
348,202,66276,1,10,0:0:0:0:
342,152,66522,1,0,0:0:0:0:
329,103,66768,1,2,0:0:0:0:
259,30,67260,2,0,L|207:35,1,50,10|2,0:0|0:0,0:0:0:0:
175,72,67752,6,0,L|183:177,2,100,2|8|2,0:0|0:0|0:1,0:0:0:0:
127,56,68981,2,0,L|88:23,2,50,2|10|2,0:0|0:0|0:0,0:0:0:0:
114,104,69719,1,2,0:0:0:0:
86,145,69965,1,0,0:0:0:0:
64,190,70211,1,10,0:0:0:0:
43,235,70457,1,0,0:0:0:0:
26,282,70703,1,2,0:0:0:0:
120,314,71194,2,0,L|173:297,1,50,10|0,0:0|0:0,0:0:0:0:
215,283,71686,6,0,P|228:324|269:374,2,100,2|8|2,0:0|0:0|0:1,0:0:0:0:
184,242,72916,2,0,L|128:231,2,50,2|10|2,0:0|0:0|0:0,0:0:0:0:
230,223,73653,1,2,0:0:0:0:
248,176,73899,1,0,0:0:0:0:
251,126,74145,1,10,0:0:0:0:
244,76,74391,1,0,0:0:0:0:
222,30,74637,1,2,0:0:0:0:
139,86,75129,2,0,L|118:141,1,50,10|2,0:0|0:0,0:0:0:0:
86,168,75621,6,0,P|99:219|109:272,1,100,2|8,0:1|0:0,0:0:0:0:
133,308,76358,1,2,0:0:0:0:
176,354,76604,2,0,P|198:353|231:349,1,50,2|0,0:1|0:0,0:0:0:0:
268,323,77096,2,0,P|290:324|323:328,1,50,10|0,0:0|0:0,0:0:0:0:
365,343,77588,5,2,0:1:0:0:
389,299,77834,1,0,0:0:0:0:
401,250,78080,1,10,0:0:0:0:
404,200,78326,1,0,0:0:0:0:
397,150,78571,1,2,0:1:0:0:
244,215,79063,2,0,L|233:164,1,50,10|10,0:0|0:0,0:0:0:0:
224,116,79555,6,0,P|273:130|328:128,2,100,4|8|2,0:0|0:0|0:1,0:0:0:0:
201,71,80785,2,0,P|213:31|222:18,2,50,2|10|2,0:0|0:0|0:0,0:0:0:0:
166,107,81522,1,2,0:0:0:0:
128,140,81768,1,0,0:0:0:0:
98,181,82014,1,10,0:0:0:0:
77,226,82260,1,0,0:0:0:0:
68,275,82506,1,2,0:0:0:0:
123,357,82998,2,0,L|183:353,1,50,10|2,0:0|0:0,0:0:0:0:
218,335,83489,6,0,L|319:350,2,100,2|8|2,0:0|0:0|0:1,0:0:0:0:
177,305,84719,2,0,L|127:301,2,50,2|10|2,0:0|0:0|0:0,0:0:0:0:
216,273,85457,1,2,0:0:0:0:
251,237,85703,1,0,0:0:0:0:
286,202,85948,1,8,0:0:0:0:
329,177,86194,1,0,0:0:0:0:
374,157,86440,1,2,0:0:0:0:
407,62,86932,2,0,L|347:62,1,50,10|0,0:0|0:0,0:0:0:0:
309,75,87424,6,0,P|265:51|216:42,2,100,2|10|2,0:0|0:0|0:1,0:0:0:0:
311,124,88653,2,0,L|298:181,2,50,2|10|2,0:0|0:0|0:0,0:0:0:0:
361,121,89391,1,2,0:0:0:0:
384,165,89637,1,0,0:0:0:0:
395,214,89883,1,10,0:0:0:0:
393,264,90129,1,0,0:0:0:0:
374,311,90375,1,2,0:0:0:0:
289,365,90867,2,0,L|235:354,1,50,10|2,0:0|0:0,0:0:0:0:
203,320,91358,6,0,P|164:323|103:344,1,100,2|8,0:1|0:0,0:0:0:0:
56,347,92096,1,2,0:0:0:0:
8,331,92342,2,0,P|10:301|14:271,1,50,2|0,0:1|0:0,0:0:0:0:
57,259,92834,2,0,P|55:229|51:199,1,50,10|0,0:0|0:0,0:0:0:0:
28,165,93326,2,0,P|34:111|50:61,2,100,2|10|8,0:0|0:0|0:0,0:0:0:0:
125,143,94801,1,8,0:0:0:0:
224,154,95293,6,0,L|231:96,2,50,6|0|8,0:0|0:0|0:0,0:0:0:0:
223,204,96031,2,0,P|202:251|199:309,1,100,2|0,0:1|0:0,0:0:0:0:
161,332,96769,1,8,0:0:0:0:
161,332,97015,2,0,P|95:330|20:282,1,150,2|10,0:0|0:0,0:0:0:0:
24,187,98244,2,0,P|58:182|132:192,1,100,2|10,0:0|0:0,0:0:0:0:
170,174,98981,2,0,L|182:149,1,25
192,128,99228,6,0,L|197:73,2,50,2|0|8,0:0|0:0|0:0,0:0:0:0:
225,165,99966,2,0,P|272:186|330:189,1,100,2|0,0:1|0:0,0:0:0:0:
369,198,100704,1,8,0:0:0:0:
369,198,100948,2,0,P|367:264|319:339,1,150,0|8,0:0|0:0,0:0:0:0:
230,299,102179,2,0,P|225:265|235:191,1,100,2|10,0:0|0:0,0:0:0:0:
250,153,102916,2,0,L|246:119,1,25
229,110,103162,6,0,L|234:55,2,50,2|0|8,0:0|0:0|0:0,0:0:0:0:
198,150,103900,2,0,P|153:167|115:209,1,100,2|0,0:1|0:0,0:0:0:0:
75,228,104637,1,8,0:0:0:0:
75,228,104883,2,0,P|43:191|44:91,1,150,2|10,0:0|0:0,0:0:0:0:
125,40,106113,2,0,L|233:52,1,100,2|10,0:0|0:0,0:0:0:0:
264,81,106850,2,0,L|299:87,1,25
313,86,107096,6,0,L|326:35,2,50,2|0|8,0:0|0:0|0:0,0:0:0:0:
331,132,107834,2,0,L|333:238,1,100,2|0,0:1|0:0,0:0:0:0:
298,266,108572,1,8,0:0:0:0:
298,266,108818,2,0,L|148:253,1,150,2|10,0:0|0:0,0:0:0:0:
101,235,109801,2,0,L|80:220,1,25,0|8,0:0|0:0,0:0:0:0:
61,204,110047,2,0,L|72:123,2,75,10|10|10,1:1|1:1|1:1,0:0:0:0:
