osu file format v14

[General]
AudioFilename: audio.mp3
AudioLeadIn: 0
PreviewTime: 47772
Countdown: 0
SampleSet: Soft
StackLeniency: 0.5
Mode: 0
LetterboxInBreaks: 0
WidescreenStoryboard: 1

[Editor]
DistanceSpacing: 1.2
BeatDivisor: 8
GridSize: 4
TimelineZoom: 1

[Metadata]
Title:Shiawase Iro
TitleUnicode:しあわせ色
Artist:Hiiragi Mayuki (CV: Ogura Yui) / Hagino Chiaki (CV: Toujou Hisako)
ArtistUnicode:柊 真雪(CV:小倉 唯)/萩野千秋(CV:東城日沙子)
Creator:Mishima Yurara
Version:Colourful
Source:ひなこのーと
Tags:Hinako note Gekidan Hitotose
BeatmapID:1325143
BeatmapSetID:628548

[Difficulty]
HPDrainRate:6
CircleSize:4
OverallDifficulty:8
ApproachRate:8
SliderMultiplier:1.4
SliderTickRate:1

[Events]
//Background and Video events
0,0,"7537195_p01.png",0,0
//Break Periods
//Storyboard Layer 0 (Background)
//Storyboard Layer 1 (Fail)
//Storyboard Layer 2 (Pass)
//Storyboard Layer 3 (Foreground)
//Storyboard Sound Samples

[TimingPoints]
867,491.803278688525,4,2,1,40,1,0
15621,-83.3333333333333,4,2,1,60,0,0
63817,-71.4285714285714,4,2,1,60,0,0
95293,-83.3333333333333,4,2,1,60,0,0

[Colours]
Combo1 : 244,244,0
Combo2 : 128,128,255
Combo3 : 255,128,128
Combo4 : 0,230,230

[HitObjects]
176,150,375,6,0,P|209:136|243:131,1,70
331,176,867,6,0,P|351:115|358:32,2,140,2|0|0,0:0|0:0|0:0,0:0:0:0:
345,258,2096,1,0,0:0:0:0:
296,325,2342,1,0,0:0:0:0:
214,338,2588,1,0,0:0:0:0:
131,261,2834,6,0,P|97:251|62:253,1,70,2|0,0:0|0:0,0:0:0:0:
219,208,3326,2,0,P|194:183|163:167,1,70,2|0,0:0|0:0,0:0:0:0:
321,206,3817,1,2,0:0:0:0:
321,206,4309,2,0,P|312:172|293:142,1,70
199,77,4801,6,0,P|150:67|52:91,2,140,2|0|0,0:0|0:0|0:0,0:0:0:0:
278,49,6030,1,0,0:0:0:0:
361,59,6276,1,0,0:0:0:0:
444,69,6522,1,0,0:0:0:0:
500,168,6768,6,0,P|498:202|491:245,1,70,2|0,0:0|0:0,0:0:0:0:
415,273,7260,2,0,P|417:307|422:342,1,70,2|0,0:0|0:0,0:0:0:0:
330,168,7752,1,2,0:0:0:0:
330,168,8244,2,0,P|328:202|321:245,1,70
318,124,8735,6,0,L|460:98,2,140,2|0|0,0:0|0:0|0:0,0:0:0:0:
237,147,9965,1,0,0:0:0:0:
168,97,10211,1,0,0:0:0:0:
150,14,10457,1,0,0:0:0:0:
60,81,10703,6,0,L|0:117,1,70,2|0,0:0|0:0,0:0:0:0:
151,189,11194,2,0,L|81:190,1,70,2|0,0:0|0:0,0:0:0:0:
176,327,11686,1,2,0:0:0:0:
176,327,12178,2,0,L|115:293,1,70
15,346,12670,6,0,P|14:289|19:201,1,140,2|0,0:0|0:0,0:0:0:0:
76,137,13407,1,0,0:0:0:0:
178,179,13653,2,0,P|185:219|199:256,1,70,2|0,0:0|0:0,0:0:0:0:
61,118,14145,2,0,P|73:82|78:50,1,70
290,61,14637,6,0,L|296:143,1,70,2|0,0:0|0:0,0:0:0:0:
376,209,15129,2,0,L|370:291,1,70,2|0,0:0|0:0,0:0:0:0:
293,351,15498,1,0,1:0:0:0:
255,369,15621,5,8,3:0:0:0:
213,367,15743,1,8,3:0:0:0:
171,366,15867,2,0,L|116:364,1,41.9999987182618,4|4,3:0|3:0,0:0:0:0:
29,359,16112,2,0,B|19:318|19:318|29:277,1,83.9999974365235,8|4,0:0|3:0,0:0:0:0:
155,136,16604,5,6,0:0:0:0:
248,192,16850,1,0,0:0:0:0:
357,192,17096,1,8,0:0:0:0:
444,126,17342,2,0,P|415:95|380:72,1,83.9999974365235,2|2,0:1|0:0,0:0:0:0:
512,202,17834,2,0,P|477:225|448:256,1,83.9999974365235,0|8,0:0|0:0,0:0:0:0:
367,356,18326,6,0,P|377:274|357:192,1,167.999994873047,2|0,0:0|0:0,0:0:0:0:
259,52,19063,2,0,P|219:65|182:85,1,83.9999974365235,10|0,0:0|0:0,0:0:0:0:
93,231,19555,2,0,P|160:281|240:305,1,167.999994873047,2|10,0:0|0:0,0:0:0:0:
367,356,20293,2,0,L|325:348,1,41.9999987182618
240,305,20539,5,2,0:0:0:0:
334,248,20785,1,0,0:0:0:0:
372,146,21030,1,8,0:0:0:0:
390,37,21276,2,0,P|348:31|307:37,1,83.9999974365235,2|2,0:1|0:0,0:0:0:0:
466,79,21768,2,0,P|460:120|466:162,1,83.9999974365235,0|8,0:0|0:0,0:0:0:0:
355,266,22260,6,0,P|417:268|527:325,1,167.999994873047,2|0,0:0|0:0,0:0:0:0:
265,218,22998,2,0,P|270:176|265:135,1,83.9999974365235,10|0,0:0|0:0,0:0:0:0:
109,369,23489,2,0,P|192:362|266:323,1,167.999994873047,2|10,0:0|0:0,0:0:0:0:
270,222,24104,1,0,0:0:0:0:
270,222,24227,2,0,L|276:180,1,41.9999987182618
355,266,24473,5,2,0:0:0:0:
266,323,24719,1,0,0:0:0:0:
161,333,24965,1,8,0:0:0:0:
85,259,25211,2,0,P|57:289|43:329,1,83.9999974365235,2|2,0:1|0:0,0:0:0:0:
175,213,25703,2,0,P|161:173|134:143,1,83.9999974365235,0|8,0:0|0:0,0:0:0:0:
50,90,26194,6,0,P|104:58|224:43,1,167.999994873047,2|0,0:0|0:0,0:0:0:0:
265,124,26932,2,0,P|305:134|343:151,1,83.9999974365235,10|0,0:0|0:0,0:0:0:0:
388,243,27424,2,0,P|419:270|443:304,1,83.9999974365235,2|0,0:0|0:0,0:0:0:0:
512,148,27916,1,10,0:0:0:0:
470,149,28038,1,0,0:0:0:0:
428,150,28161,1,0,0:0:0:0:
386,151,28284,1,0,0:0:0:0:
344,152,28407,5,2,0:0:0:0:
305,254,28653,1,0,0:0:0:0:
227,330,28899,1,8,0:0:0:0:
122,364,29145,2,0,P|81:354|47:331,1,83.9999974365235,2|2,0:1|0:0,0:0:0:0:
207,162,29637,2,0,P|197:202|173:237,1,83.9999974365235,0|8,0:0|0:0,0:0:0:0:
11,230,30129,6,0,B|52:250|92:236|92:236|133:221|174:238,1,167.999994873047,2|0,0:0|0:0,0:0:0:0:
246,194,30744,1,0,0:0:0:0:
250,163,30866,1,8,0:0:0:0:
253,131,30989,1,0,0:0:0:0:
257,100,31112,2,0,L|261:53,1,41.9999987182618,8|8,0:0|0:0,0:0:0:0:
342,113,31358,6,0,L|323:265,2,125.999996154785,10|10|10,1:1|1:1|1:1,0:0:0:0:
163,70,32342,5,2,0:0:0:0:
220,237,32588,2,0,P|228:277|224:319,1,83.9999974365235,0|8,0:0|0:0,0:0:0:0:
173,378,33080,1,0,0:0:0:0:
304,336,33326,2,0,P|359:334|401:343,2,83.9999974365235,2|0|8,0:0|0:0|0:0,0:0:0:0:
111,325,34063,6,0,P|101:252|106:150,1,167.999994873047,2|0,0:0|0:0,0:0:0:0:
41,115,34801,1,10,0:0:0:0:
41,115,35047,1,0,0:0:0:0:
111,325,35293,6,0,B|94:258|136:210|136:210|187:153|167:81,1,251.999992309571,2|0,0:0|0:0,0:0:0:0:
91,15,36276,5,2,0:0:0:0:
263,35,36522,2,0,P|278:87|271:126,2,83.9999974365235,0|8|0,0:0|0:0|0:0,0:0:0:0:
194,190,37260,2,0,P|153:193|114:179,1,83.9999974365235,2|0,0:0|0:0,0:0:0:0:
169,90,37752,1,8,0:0:0:0:
274,115,37998,6,0,P|332:107|455:113,1,167.999994873047,2|0,0:0|0:0,0:0:0:0:
420,269,38735,2,0,P|407:229|401:187,1,83.9999974365235,8|0,0:0|0:0,0:0:0:0:
274,115,39227,6,0,B|343:125|385:71|385:71|450:71|498:119,1,251.999992309571,2|0,0:0|0:0,0:0:0:0:
489,206,40211,5,2,0:0:0:0:
330,304,40457,2,0,L|225:282,1,83.9999974365235,0|8,0:0|0:0,0:0:0:0:
176,237,40948,1,0,0:0:0:0:
274,115,41194,2,0,L|256:197,2,83.9999974365235,2|0|8,0:0|0:0|0:0,0:0:0:0:
163,269,41932,6,0,L|-11:230,1,167.999994873047,2|0,0:0|0:0,0:0:0:0:
42,143,42670,1,8,0:0:0:0:
42,143,42916,1,0,0:0:0:0:
163,269,43162,6,0,B|127:249|96:259|96:259|81:232|81:232|49:246|10:235,1,167.999994873047,2|8,0:0|0:0,0:0:0:0:
123,355,43899,1,0,0:0:0:0:
123,355,44022,1,0,0:0:0:0:
123,355,44145,6,0,L|320:334,1,167.999994873047,2|8,0:0|0:0,0:0:0:0:
456,304,44883,1,0,0:0:0:0:
339,273,45129,1,0,0:0:0:0:
263,66,45621,5,8,0:0:0:0:
347,105,45867,2,0,L|339:273,1,167.999994873047,2|0,0:0|0:0,0:0:0:0:
242,310,46604,2,0,L|136:292,1,83.9999974365235,8|0,0:0|0:0,0:0:0:0:
54,193,47096,2,0,L|160:175,1,83.9999974365235,2|0,0:0|0:0,0:0:0:0:
34,292,47588,1,8,0:0:0:0:
33,98,47834,1,8,0:0:0:0:
33,98,47957,1,8,0:0:0:0:
33,97,48080,6,0,P|73:88|115:86,1,83.9999974365235,6|2,0:0|0:1,0:0:0:0:
297,151,48571,2,0,P|256:141|214:139,1,83.9999974365235,8|2,0:0|0:1,0:0:0:0:
198,31,49063,2,0,P|238:22|280:20,1,83.9999974365235,2|2,0:0|0:1,0:0:0:0:
141,206,49555,2,0,P|100:196|58:194,1,83.9999974365235,8|2,0:0|0:1,0:0:0:0:
247,271,50047,6,0,P|287:280|329:282,1,83.9999974365235,2|2,0:0|0:1,0:0:0:0:
510,217,50539,2,0,P|469:226|427:228,1,83.9999974365235,8|2,0:0|0:1,0:0:0:0:
247,271,51030,1,2,0:0:0:0:
315,160,51276,1,10,1:1:0:0:
426,227,51522,2,0,P|424:185|415:145,1,83.9999974365235,8|2,1:1|0:1,0:0:0:0:
351,72,51891,1,0,0:0:0:0:
351,72,52014,6,0,L|507:6,2,167.999994873047,2|10|2,0:0|0:0|0:0,0:0:0:0:
279,31,53244,1,0,0:0:0:0:
193,38,53489,1,8,0:0:0:0:
151,159,53735,6,0,L|307:225,1,167.999994873047,2|0,0:0|0:0,0:0:0:0:
357,283,54473,2,0,L|448:271,1,83.9999974365235,10|0,0:0|0:0,0:0:0:0:
253,384,54965,1,2,0:0:0:0:
266,301,55211,1,8,1:1:0:0:
279,218,55457,2,0,B|273:177|273:177|284:136,1,83.9999974365235,8|0,1:1|0:0,0:0:0:0:
175,259,55948,6,0,P|133:264|91:262,1,83.9999974365235,2|2,0:0|0:1,0:0:0:0:
279,218,56440,2,0,P|321:213|363:215,1,83.9999974365235,8|2,0:0|0:1,0:0:0:0:
469,135,56932,2,0,P|427:140|385:138,1,83.9999974365235,2|2,0:0|0:1,0:0:0:0:
424,305,57424,2,0,P|466:300|508:302,1,83.9999974365235,8|2,0:0|0:1,0:0:0:0:
260,180,57916,6,0,P|218:175|176:177,1,83.9999974365235,2|2,0:0|0:1,0:0:0:0:
364,221,58408,2,0,P|406:226|448:224,1,83.9999974365235,8|2,0:0|0:1,0:0:0:0:
260,180,58899,1,2,0:0:0:0:
370,113,59145,1,10,1:1:0:0:
447,224,59391,2,0,P|448:265|443:307,1,83.9999974365235,8|2,1:1|0:1,0:0:0:0:
289,349,59883,6,0,P|211:350|106:329,1,167.999994873047,6|8,0:0|0:0,0:0:0:0:
122,49,60867,2,0,P|205:34|289:35,1,167.999994873047,6|8,0:0|0:0,0:0:0:0:
408,215,61850,5,6,0:0:0:0:
276,246,62096,1,8,0:0:0:0:
203,133,62342,1,8,0:0:0:0:
203,133,62834,1,8,0:0:0:0:
272,328,63080,1,4,3:0:0:0:
272,328,63203,1,4,3:0:0:0:
272,328,63326,2,0,P|269:274|279:236,1,83.9999974365235,8|0,0:0|0:0,0:0:0:0:
196,226,63817,6,0,P|132:237|31:214,1,146.999995513916,6|0,0:0|0:0,0:0:0:0:
52,223,64309,2,0,P|80:171|87:71,1,146.999995513916,8|0,0:0|0:0,0:0:0:0:
89,84,64801,2,0,P|128:56|176:45,1,97.9999970092774,2|2,0:1|0:0,0:0:0:0:
271,119,65293,2,0,P|319:114|365:129,1,97.9999970092774,10|2,0:0|0:0,0:0:0:0:
411,239,65785,5,2,0:0:0:0:
497,268,66031,1,0,0:0:0:0:
497,357,66277,1,10,0:0:0:0:
411,384,66523,1,0,0:0:0:0:
359,312,66769,1,2,0:0:0:0:
168,142,67260,2,0,P|170:191|182:238,1,97.9999970092774,10|2,0:0|0:0,0:0:0:0:
168,142,67752,6,0,P|229:127|321:134,1,146.999995513916,2|0,0:0|0:0,0:0:0:0:
312,131,68244,2,0,P|337:170|424:217,1,146.999995513916,8|0,0:0|0:0,0:0:0:0:
424,217,68735,2,0,P|426:278|411:321,1,97.9999970092774,2|2,0:1|0:0,0:0:0:0:
287,382,69227,2,0,P|274:334|277:286,1,97.9999970092774,10|2,0:0|0:0,0:0:0:0:
168,142,69719,5,2,0:0:0:0:
219,213,69965,1,0,0:0:0:0:
168,284,70211,1,10,0:0:0:0:
84,257,70457,1,0,0:0:0:0:
84,169,70702,1,2,0:0:0:0:
84,169,70826,2,0,L|137:11,1,146.999995513916,8|10,0:0|0:0,0:0:0:0:
214,11,71440,1,0,0:0:0:0:
322,40,71686,6,0,P|327:115|297:189,1,146.999995513916,2|0,0:0|0:0,0:0:0:0:
302,182,72178,2,0,P|255:225|160:242,1,146.999995513916,8|0,0:0|0:0,0:0:0:0:
176,244,72670,2,0,P|119:237|74:220,1,97.9999970092774,2|2,0:1|0:0,0:0:0:0:
303,321,73162,2,0,P|245:328|200:345,1,97.9999970092774,10|2,0:0|0:0,0:0:0:0:
429,244,73653,5,2,0:0:0:0:
335,213,73899,1,0,0:0:0:0:
335,115,74145,1,10,0:0:0:0:
429,85,74391,1,0,0:0:0:0:
486,164,74637,1,2,0:0:0:0:
303,239,75129,2,0,P|310:181|327:136,1,97.9999970092774,10|2,0:0|0:0,0:0:0:0:
303,239,75621,6,0,B|207:215|207:215|129:272,1,195.999994018555,2|8,0:1|0:0,0:1:0:0:
51,330,76358,1,2,0:0:0:0:
303,239,76604,2,0,L|223:297,1,97.9999970092774,2|2,0:1|0:0,0:0:0:0:
51,330,77096,2,0,L|130:272,1,97.9999970092774,10|2,0:0|0:0,0:0:0:0:
263,378,77588,6,0,L|167:362,1,97.9999970092774,2|0,0:0|0:0,0:0:0:0:
153,187,78080,2,0,L|250:171,1,97.9999970092774,10|0,0:0|0:0,0:0:0:0:
134,276,78571,1,2,0:0:0:0:
134,276,78694,1,8,0:0:0:0:
97,20,79063,2,0,P|105:57|107:127,1,97.9999970092774,10|10,0:0|0:0,0:0:0:0:
153,187,79432,1,8,0:0:0:0:
153,187,79555,6,0,P|137:254|138:333,1,146.999995513916,4|0,0:0|0:0,0:0:0:0:
137,331,80047,2,0,P|206:315|284:324,1,146.999995513916,8|0,0:0|0:0,0:0:0:0:
281,323,80539,2,0,P|329:344|381:353,1,97.9999970092774,2|2,0:1|0:0,0:0:0:0:
293,113,81030,2,0,P|251:143|217:184,1,97.9999970092774,10|2,0:0|0:0,0:0:0:0:
469,228,81522,5,2,0:0:0:0:
418,156,81768,1,0,0:0:0:0:
334,184,82014,1,10,0:0:0:0:
334,272,82260,1,0,0:0:0:0:
418,299,82506,1,2,0:0:0:0:
134,266,82998,2,0,P|128:327|132:376,1,97.9999970092774,10|2,0:0|0:0,0:0:0:0:
134,266,83489,6,0,P|64:257|15:187,1,146.999995513916,2|0,0:0|0:0,0:0:0:0:
18,200,83981,2,0,P|88:191|137:121,1,146.999995513916,8|0,0:0|0:0,0:0:0:0:
133,134,84473,2,0,P|188:168|227:177,1,97.9999970092774,2|2,0:1|0:0,0:0:0:0:
282,17,84965,2,0,P|277:65|288:113,1,97.9999970092774,10|2,0:0|0:0,0:0:0:0:
457,86,85457,5,2,0:0:0:0:
373,113,85703,1,0,0:0:0:0:
373,201,85948,1,10,0:0:0:0:
457,228,86194,1,0,0:0:0:0:
508,157,86440,1,2,0:0:0:0:
508,157,86563,2,0,L|489:3,1,146.999995513916,8|10,0:0|0:0,0:0:0:0:
408,33,87178,1,0,0:0:0:0:
269,16,87424,6,0,P|203:12|113:38,1,146.999995513916,2|0,0:0|0:0,0:0:0:0:
125,32,87916,2,0,P|69:78|24:161,1,146.999995513916,10|0,0:0|0:0,0:0:0:0:
31,141,88407,2,0,P|17:208|23:268,1,97.9999970092774,2|2,0:1|0:0,0:0:0:0:
172,355,88899,2,0,P|171:306|158:258,1,97.9999970092774,10|2,0:0|0:0,0:0:0:0:
312,141,89391,5,2,0:0:0:0:
400,169,89637,1,0,0:0:0:0:
400,262,89883,1,10,0:0:0:0:
312,291,90129,1,0,0:0:0:0:
257,216,90375,1,2,0:0:0:0:
416,22,90867,2,0,P|454:51|485:89,1,97.9999970092774,10|2,0:0|0:0,0:0:0:0:
416,22,91358,6,0,B|365:78|365:78|306:61|306:61|249:77,1,195.999994018555,2|8,0:1|0:0,0:0:0:0:
155,105,92096,1,2,0:0:0:0:
306,143,92342,2,0,L|207:173,1,97.9999970092774,2|2,0:1|0:0,0:0:0:0:
93,45,92834,2,0,L|0:16,1,97.9999970092774,10|2,0:0|0:0,0:0:0:0:
40,163,93326,6,0,L|133:134,1,97.9999970092774,2|0,0:0|0:0,0:0:0:0:
46,283,93817,2,0,L|139:312,1,97.9999970092774,10|0,0:0|0:0,0:0:0:0:
306,366,94309,1,8,0:0:0:0:
306,366,94432,1,8,0:0:0:0:
190,224,94678,1,8,0:0:0:0:
190,224,94801,1,8,0:0:0:0:
374,224,95047,1,8,0:0:0:0:
374,224,95170,1,8,0:0:0:0:
374,224,95293,5,6,0:0:0:0:
317,140,95539,1,0,0:0:0:0:
224,99,95785,1,8,0:0:0:0:
123,94,96030,2,0,P|84:101|35:131,1,83.9999974365235,2|2,0:1|0:0,0:0:0:0:
55,226,96522,2,0,P|91:246|132:254,1,83.9999974365235,0|8,0:0|0:0,0:0:0:0:
256,274,97014,6,0,P|289:200|288:97,1,167.999994873047,2|0,0:0|0:0,0:0:0:0:
376,101,97752,2,0,P|367:41|348:9,1,83.9999974365235,10|0,0:0|0:0,0:0:0:0:
251,38,98244,2,0,P|170:26|74:51,1,167.999994873047,2|10,0:0|0:0,0:0:0:0:
22,112,98981,2,0,L|27:168,1,41.9999987182618
86,234,99227,5,2,0:0:0:0:
161,300,99473,1,0,0:0:0:0:
256,331,99719,1,8,0:0:0:0:
356,334,99965,2,0,P|399:308|447:299,1,83.9999974365235,2|2,0:1|0:0,0:0:0:0:
512,194,100457,2,0,P|471:182|436:160,1,83.9999974365235,0|8,0:0|0:0,0:0:0:0:
288,229,100948,6,0,P|273:146|278:62,1,167.999994873047,2|0,0:0|0:0,0:0:0:0:
360,18,101686,2,0,P|421:19|458:29,1,83.9999974365235,10|0,0:0|0:0,0:0:0:0:
206,15,102178,2,0,P|132:58|48:73,1,167.999994873047,2|10,0:0|0:0,0:0:0:0:
0,141,102793,1,0,0:0:0:0:
0,141,102916,2,0,L|3:191,1,41.9999987182618
51,72,103162,5,2,0:0:0:0:
134,128,103407,1,0,0:0:0:0:
234,137,103653,1,8,0:0:0:0:
331,112,103899,2,0,P|299:76|253:54,1,83.9999974365235,2|2,0:1|0:0,0:0:0:0:
472,116,104391,2,0,P|440:142|418:178,1,83.9999974365235,0|8,0:0|0:0,0:0:0:0:
333,262,104883,6,0,P|281:239|201:149,1,167.999994873047,2|0,0:0|0:0,0:0:0:0:
125,213,105621,2,0,P|75:193|36:186,1,83.9999974365235,10|0,0:0|0:0,0:0:0:0:
280,115,106112,2,0,P|320:105|359:89,1,83.9999974365235,2|0,0:0|0:0,0:0:0:0:
177,140,106604,1,10,0:0:0:0:
181,108,106726,1,0,0:0:0:0:
185,77,106849,1,0,0:0:0:0:
189,46,106972,1,0,0:0:0:0:
194,15,107095,5,2,0:0:0:0:
275,75,107342,1,0,0:0:0:0:
374,93,107588,1,8,0:0:0:0:
462,141,107834,2,0,P|446:203|432:225,1,83.9999974365235,2|2,0:1|0:0,0:0:0:0:
374,330,108326,2,0,P|332:322|295:303,1,83.9999974365235,0|8,0:0|0:0,0:0:0:0:
304,196,108817,6,0,B|349:209|359:253|359:253|346:291|296:304,1,167.999994873047,2|0,0:0|0:0,0:0:0:0:
204,302,109432,1,0,0:0:0:0:
178,300,109554,1,8,0:0:0:0:
152,298,109677,1,0,0:0:0:0:
126,296,109801,2,0,L|69:293,1,41.9999987182618,0|8,0:0|0:0,0:0:0:0:
156,384,110047,5,10,1:1:0:0:
3,183,110416,1,10,1:1:0:0:
224,61,110785,1,10,1:1:0:0:
