osu file format v14

[General]
AudioFilename: audio.mp3
AudioLeadIn: 0
PreviewTime: 63264
Countdown: 0
SampleSet: Normal
StackLeniency: 0.7
Mode: 3
LetterboxInBreaks: 0
SpecialStyle: 0
WidescreenStoryboard: 1

[Editor]
DistanceSpacing: 0.4
BeatDivisor: 4
GridSize: 32
TimelineZoom: 1.6

[Metadata]
Title:Shiawase Iro
TitleUnicode:しあわせ色
Artist:Hiiragi Mayuki (CV: Ogura Yui) / Hagino Chiaki (CV: Toujou Hisako)
ArtistUnicode:柊 真雪(CV:小倉 唯)/萩野千秋(CV:東城日沙子)
Creator:Hidden is fun
Version:The Color of Happiness Must be Orange
Source:ひなこのーと
Tags:かーてんこーる Curtain Call ZMCZ-11129 hinako note hinakonote jpop j-pop pop anime nao Japanese jp tojo female vocals Tomoya Sonoda 園田 智也
BeatmapID:3968090
BeatmapSetID:1921759

[Difficulty]
HPDrainRate:8
CircleSize:4
OverallDifficulty:7.5
ApproachRate:5
SliderMultiplier:1.4
SliderTickRate:1

[Events]
//Background and Video events
0,0,"bg.jpg",0,0
//Break Periods
//Storyboard Layer 0 (Background)
//Storyboard Layer 1 (Fail)
//Storyboard Layer 2 (Pass)
//Storyboard Layer 3 (Foreground)
//Storyboard Layer 4 (Overlay)
//Storyboard Sound Samples
Sample,67747,0,"0_F#7_122_960.wav",70
Sample,70698,0,"12_F#7_122_480.wav",50
Sample,93812,0,"12_G7_122_480.wav",50
Sample,148402,0,"0_F#7_122_960.wav",70
Sample,151353,0,"12_F#7_122_480.wav",50
Sample,174468,0,"12_G7_122_480.wav",50
Sample,222173,0,"12_F#7_122_480.wav",50
Sample,245288,0,"12_G7_122_480.wav",50

[TimingPoints]
862,491.803278688525,4,1,1,35,1,0
63812,-100,4,1,1,35,0,1
95288,-100,4,1,1,35,0,0
144468,-100,4,1,1,35,0,1
175943,-100,4,1,1,35,0,0
231025,-100,4,1,1,35,0,1
250698,-100,4,1,1,35,0,0

[HitObjects]
192,192,370,128,0,616:0:0:0:0:
320,192,616,128,0,862:0:0:0:0:
64,192,862,128,0,1353:0:0:0:0:
448,192,862,1,0,0:0:0:0:
192,192,1107,1,0,0:0:0:0:
320,192,1353,128,0,1845:0:0:0:70:12_B7_122_480.wav
448,192,1353,1,0,0:0:0:0:
192,192,1599,1,0,0:0:0:0:
64,192,1845,1,0,0:0:0:70:12_A7_122_480.wav
448,192,1845,128,0,1968:0:0:0:0:
64,192,2091,1,0,0:0:0:70:12_F#7_122_480.wav
320,192,2091,128,0,2214:0:0:0:0:
192,192,2337,128,0,2460:0:0:0:70:12_E7_122_480.wav
448,192,2337,1,0,0:0:0:0:
64,192,2583,128,0,2706:0:0:0:70:12_D7_122_480.wav
448,192,2583,1,0,0:0:0:0:
192,192,2829,1,0,0:0:0:70:12_E7_122_480.wav
320,192,2829,128,0,2952:0:0:0:0:
64,192,3075,128,0,3198:0:0:0:70:12_D7_122_480.wav
448,192,3075,1,0,0:0:0:0:
192,192,3321,128,0,3443:0:0:0:70:12_E7_122_480.wav
448,192,3321,1,0,0:0:0:0:
64,192,3566,1,0,0:0:0:70:12_F#7_122_480.wav
320,192,3566,128,0,3689:0:0:0:0:
64,192,3812,1,0,0:0:0:70:12_F#7_122_480.wav
448,192,3812,128,0,3935:0:0:0:0:
192,192,4058,128,0,4181:0:0:0:70:12_E7_122_480.wav
320,192,4304,128,0,4427:0:0:0:60:12_A7_122_480.wav
448,192,4304,128,0,4550:0:0:0:0:
64,192,4550,128,0,4673:0:0:0:60:12_C#7_122_480.wav
192,192,4550,128,0,4796:0:0:0:0:
320,192,4796,128,0,5288:0:0:0:70:12_D7_122_480.wav
448,192,4796,1,0,0:0:0:0:
192,192,5042,1,0,0:0:0:0:
64,192,5288,128,0,5780:0:0:0:70:12_B7_122_480.wav
448,192,5288,1,0,0:0:0:0:
320,192,5534,1,0,0:0:0:0:
192,192,5780,1,0,0:0:0:70:12_A7_122_480.wav
448,192,5780,128,0,5902:0:0:0:0:
64,192,6025,1,0,0:0:0:70:12_F#7_122_480.wav
320,192,6025,128,0,6148:0:0:0:0:
192,192,6271,128,0,6394:0:0:0:70:12_E7_122_480.wav
448,192,6271,1,0,0:0:0:0:
64,192,6517,128,0,6640:0:0:0:70:12_D7_122_480.wav
320,192,6517,1,0,0:0:0:0:
320,192,6763,128,0,6886:0:0:0:70:12_E7_122_480.wav
448,192,6763,1,0,0:0:0:0:
192,192,7009,128,0,7132:0:0:0:70:12_D7_122_480.wav
64,192,7255,128,0,7378:0:0:0:70:12_E7_122_480.wav
448,192,7255,128,0,7378:0:0:0:0:
320,192,7501,128,0,7624:0:0:0:50:12_D7_122_480.wav
448,192,7501,128,0,7624:0:0:0:50:12_A7_122_480.wav
64,192,7747,128,0,7870:0:0:0:50:12_D7_122_480.wav
192,192,7747,128,0,7870:0:0:0:50:12_F#7_122_480.wav
320,192,7993,1,0,0:0:0:0:
64,192,8239,128,0,8484:0:0:0:0:
192,192,8239,1,0,0:0:0:0:
320,192,8484,128,0,8730:0:0:0:0:
448,192,8484,1,0,0:0:0:0:
64,192,8730,1,0,0:0:0:0:
192,192,8730,128,0,9222:0:0:0:0:
448,192,8976,1,0,0:0:0:0:
64,192,9222,1,0,0:0:0:70:12_B7_122_480.wav
320,192,9222,128,0,9714:0:0:0:0:
64,192,9468,1,0,0:0:0:0:
192,192,9714,1,0,0:0:0:70:12_A7_122_480.wav
448,192,9714,128,0,9837:0:0:0:0:
64,192,9960,1,0,0:0:0:70:12_F#7_122_480.wav
320,192,9960,128,0,10083:0:0:0:0:
192,192,10206,128,0,10329:0:0:0:70:12_E7_122_480.wav
448,192,10206,1,0,0:0:0:0:
64,192,10452,128,0,10575:0:0:0:70:12_D7_122_480.wav
320,192,10452,1,0,0:0:0:0:
320,192,10698,128,0,10821:0:0:0:70:12_E7_122_480.wav
448,192,10698,1,0,0:0:0:0:
64,192,10943,128,0,11066:0:0:0:70:12_D7_122_480.wav
192,192,10943,1,0,0:0:0:0:
192,192,11189,1,0,0:0:0:70:12_E7_122_480.wav
320,192,11189,128,0,11312:0:0:0:0:
64,192,11435,1,0,0:0:0:70:12_F#7_122_480.wav
448,192,11435,128,0,11558:0:0:0:0:
192,192,11681,128,0,11804:0:0:0:70:12_F#7_122_480.wav
320,192,11681,1,0,0:0:0:0:
448,192,11927,128,0,12050:0:0:0:70:12_E7_122_480.wav
64,192,12173,128,0,12296:0:0:0:60:12_A7_122_480.wav
192,192,12173,128,0,12419:0:0:0:0:
320,192,12419,128,0,12665:0:0:0:60:12_C#7_122_480.wav
448,192,12419,128,0,12542:0:0:0:0:
64,192,12665,128,0,13157:0:0:0:70:12_D7_122_480.wav
192,192,12665,1,0,0:0:0:50:0_D5_122_960.wav
448,192,12911,1,0,0:0:0:0:
320,192,13157,128,0,13402:0:0:0:0:
448,192,13157,1,0,0:0:0:0:
192,192,13402,128,0,13648:0:0:0:0:
64,192,13402,1,0,0:0:0:0:
320,192,13648,1,0,0:0:0:50:12_E7_122_480.wav
448,192,13648,128,0,13894:0:0:0:50:0_E5_122_960.wav
64,192,13894,1,0,0:0:0:0:
320,192,13894,128,0,14140:0:0:0:0:
192,192,14140,128,0,14386:0:0:0:60:12_E7_122_480.wav
448,192,14140,1,0,0:0:0:0:
320,192,14386,1,0,0:0:0:60:12_F#7_122_480.wav
64,192,14386,128,0,14632:0:0:0:0:
192,192,14632,1,0,0:0:0:70:12_G7_122_480.wav
448,192,14632,128,0,14878:0:0:0:0:
192,192,14878,1,0,0:0:0:70:12_F#7_122_480.wav
320,192,14878,128,0,15001:0:0:0:0:
64,192,15124,128,0,15370:0:0:0:50:12_E7_122_480.wav
448,192,15124,1,0,0:0:0:50:12_G7_122_480.wav
192,192,15370,128,0,15493:0:0:0:70:12_D7_122_480.wav
320,192,15370,1,0,0:0:0:0:
448,192,15493,1,8,0:0:0:0:
320,192,15554,1,8,0:0:0:0:
64,192,15616,1,2,0:0:0:0:
192,192,15616,1,0,0:0:0:70:12_D7_122_480.wav
320,192,15739,1,2,0:0:0:0:
448,192,15739,1,0,0:0:0:0:
64,192,15862,1,2,0:0:0:0:
192,192,15862,1,0,0:0:0:0:
320,192,15984,1,2,0:0:0:0:
64,192,16107,1,2,0:0:0:0:
192,192,16107,1,8,0:0:0:0:
448,192,16107,1,0,0:0:0:0:
192,192,16353,1,2,0:0:0:0:
320,192,16353,1,0,0:0:0:0:
64,192,16599,1,2,0:0:0:0:
320,192,16599,1,4,0:0:0:0:
448,192,16599,1,0,0:0:0:0:
64,192,16845,1,0,0:0:0:0:
192,192,16845,1,0,0:0:0:0:
320,192,16968,1,0,0:0:0:0:
64,192,17091,1,2,1:1:0:0:
192,192,17091,1,8,1:1:0:0:
448,192,17091,1,0,0:0:0:0:
320,192,17337,1,0,0:0:0:0:
448,192,17337,1,0,0:0:0:0:
192,192,17583,1,2,1:1:0:0:
320,192,17583,1,0,0:0:0:0:
64,192,17829,1,0,0:0:0:0:
448,192,17829,1,0,0:0:0:0:
320,192,17952,1,0,0:0:0:0:
64,192,18075,1,2,1:1:0:0:
192,192,18075,1,8,1:1:0:0:
448,192,18075,1,0,0:0:0:0:
320,192,18321,128,0,18443:0:0:0:70:11_A6_122_480.wav
448,192,18321,128,0,18443:0:0:0:0:
64,192,18566,1,2,1:1:0:0:
192,192,18566,1,0,0:0:0:0:
320,192,18812,1,0,0:0:0:0:
192,192,18935,1,0,0:0:0:0:
64,192,19058,128,2,19181:1:1:0:0:
320,192,19058,1,8,1:1:0:0:
448,192,19058,128,0,19181:0:0:0:70:11_G6_122_480.wav
192,192,19304,1,0,0:0:0:0:
64,192,19550,128,2,19673:1:1:0:0:
320,192,19550,128,0,19673:0:0:0:70:11_F#6_122_480.wav
448,192,19796,1,0,0:0:0:0:
320,192,19919,1,0,0:0:0:0:
64,192,20042,128,2,20165:1:1:0:0:
192,192,20042,128,8,20165:1:1:0:0:
448,192,20042,1,0,0:0:0:70:11_D6_122_480.wav
320,192,20165,1,0,0:0:0:0:
64,192,20288,1,0,0:0:0:0:
192,192,20411,1,0,0:0:0:0:
64,192,20534,1,2,1:1:0:0:
448,192,20534,1,0,0:0:0:0:
192,192,20780,1,0,0:0:0:0:
320,192,20780,1,0,0:0:0:0:
448,192,20902,1,0,0:0:0:0:
64,192,21025,1,2,1:1:0:0:
192,192,21025,1,8,1:1:0:0:
320,192,21025,1,0,0:0:0:0:
64,192,21271,1,0,0:0:0:0:
448,192,21271,1,0,0:0:0:0:
192,192,21517,1,2,1:1:0:0:
320,192,21517,1,0,0:0:0:0:
64,192,21763,1,0,0:0:0:0:
448,192,21763,1,0,0:0:0:0:
320,192,21886,1,0,0:0:0:0:
64,192,22009,1,2,1:1:0:0:
192,192,22009,1,8,1:1:0:0:
448,192,22009,1,0,0:0:0:0:
320,192,22255,128,0,22378:0:0:0:70:11_A6_122_480.wav
448,192,22255,128,0,22378:0:0:0:0:
64,192,22501,1,2,1:1:0:0:
192,192,22501,1,0,0:0:0:0:
320,192,22747,1,0,0:0:0:0:
64,192,22870,1,0,0:0:0:0:
192,192,22993,128,2,23116:1:1:0:0:
320,192,22993,128,8,23116:1:1:0:0:
448,192,22993,1,0,0:0:0:70:11_G6_122_480.wav
448,192,23239,1,0,0:0:0:0:
64,192,23484,128,2,23607:1:1:0:0:
192,192,23484,128,0,23607:0:0:0:70:11_F#6_122_480.wav
320,192,23730,1,0,0:0:0:0:
192,192,23853,1,0,0:0:0:0:
64,192,23976,128,2,24099:1:1:0:0:
320,192,23976,1,8,1:1:0:0:
448,192,23976,128,0,24099:0:0:0:70:11_D6_122_480.wav
192,192,24099,1,0,0:0:0:0:
64,192,24222,1,0,0:0:0:0:
320,192,24345,1,0,0:0:0:0:
64,192,24468,1,2,1:1:0:0:
448,192,24468,1,0,0:0:0:0:
192,192,24714,1,0,0:0:0:0:
320,192,24714,1,0,0:0:0:0:
448,192,24837,1,0,0:0:0:0:
64,192,24960,1,2,1:1:0:0:
192,192,24960,1,8,1:1:0:0:
320,192,24960,1,0,0:0:0:0:
64,192,25206,1,0,0:0:0:0:
448,192,25206,1,0,0:0:0:0:
320,192,25452,1,2,1:1:0:0:
448,192,25452,1,0,0:0:0:0:
64,192,25698,1,0,0:0:0:0:
192,192,25698,1,0,0:0:0:0:
320,192,25821,1,0,0:0:0:0:
64,192,25943,1,2,1:1:0:0:
192,192,25943,1,8,1:1:0:0:
448,192,25943,1,0,0:0:0:0:
320,192,26189,128,0,26312:0:0:0:70:11_A6_122_480.wav
448,192,26189,128,0,26312:0:0:0:0:
64,192,26435,1,2,1:1:0:0:
192,192,26435,1,0,0:0:0:0:
448,192,26681,1,0,0:0:0:0:
320,192,26804,1,0,0:0:0:0:
64,192,26927,1,2,1:1:0:0:
192,192,26927,128,8,27050:1:1:0:0:
448,192,26927,128,0,27050:0:0:0:70:11_G6_122_480.wav
320,192,27173,1,0,0:0:0:0:
64,192,27419,128,2,27542:1:1:0:0:
448,192,27419,128,0,27542:0:0:0:70:11_F#6_122_480.wav
192,192,27665,1,0,0:0:0:0:
320,192,27788,1,0,0:0:0:0:
64,192,27911,128,2,28034:1:1:0:0:
192,192,27911,128,8,28034:1:1:0:0:
448,192,27911,1,0,0:0:0:70:11_D6_122_480.wav
320,192,28034,1,0,0:0:0:0:
64,192,28157,1,0,0:0:0:0:
192,192,28280,1,0,0:0:0:0:
320,192,28402,1,2,1:1:0:0:
448,192,28402,1,0,0:0:0:0:
64,192,28648,1,0,0:0:0:0:
192,192,28648,1,0,0:0:0:0:
320,192,28771,1,0,0:0:0:0:
64,192,28894,1,2,1:1:0:0:
192,192,28894,1,8,1:1:0:0:
448,192,28894,1,0,0:0:0:0:
320,192,29140,1,0,0:0:0:0:
448,192,29140,1,0,0:0:0:0:
64,192,29386,1,2,1:1:0:0:
320,192,29386,1,0,0:0:0:0:
192,192,29632,1,0,0:0:0:0:
448,192,29632,1,0,0:0:0:0:
320,192,29755,1,0,0:0:0:0:
64,192,29878,1,2,1:1:0:0:
192,192,29878,1,8,1:1:0:0:
448,192,29878,1,0,0:0:0:0:
64,192,30124,1,0,0:0:0:0:
320,192,30124,1,0,0:0:0:0:
64,192,30370,1,2,0:0:0:0:
192,192,30370,1,0,0:0:0:0:
448,192,30616,1,0,0:0:0:70:12_F#7_122_480.wav
320,192,30739,1,0,0:0:0:70:12_G7_122_480.wav
64,192,30862,1,10,0:0:0:0:
448,192,30862,1,0,0:0:0:70:12_F#7_122_480.wav
192,192,30984,1,0,0:0:0:70:12_E7_122_480.wav
320,192,31107,1,8,0:0:0:0:
448,192,31107,1,0,0:0:0:70:12_E7_122_480.wav
64,192,31230,1,8,0:0:0:0:
192,192,31230,1,0,0:0:0:70:12_D7_122_480.wav
320,192,31353,1,8,0:0:0:0:
448,192,31353,1,2,1:1:0:0:
64,192,31599,1,0,0:0:0:0:
192,192,31722,1,2,1:1:0:0:
320,192,31722,1,8,0:0:0:0:
448,192,31722,1,0,0:0:0:70:12_B6_122_480.wav
64,192,31845,1,0,0:0:0:0:
64,192,32091,1,2,1:1:0:0:
192,192,32091,1,8,0:0:0:0:
320,192,32091,1,0,0:0:0:70:12_D7_122_480.wav
320,192,32337,1,2,0:0:0:0:
448,192,32337,1,0,0:0:0:0:
64,192,32583,1,0,0:0:0:0:
448,192,32583,128,0,32706:0:0:0:0:
64,192,32829,1,8,0:0:0:0:
192,192,32829,1,2,0:0:0:0:
320,192,32829,128,0,32952:0:0:0:0:
192,192,33075,128,0,33198:0:0:0:0:
448,192,33075,1,0,0:0:0:0:
64,192,33321,128,2,33443:0:0:0:0:
448,192,33321,1,0,0:0:0:0:
192,192,33566,1,0,0:0:0:0:
320,192,33566,128,0,33689:0:0:0:0:
64,192,33812,1,8,0:0:0:0:
192,192,33812,128,2,33935:0:0:0:0:
448,192,33812,1,0,0:0:0:0:
320,192,34058,128,0,34550:0:0:0:70:11_A6_122_480.wav
448,192,34058,128,0,34181:0:0:0:0:
192,192,34304,1,2,0:0:0:0:
64,192,34550,1,0,0:0:0:0:
192,192,34550,128,0,34796:0:0:0:0:
64,192,34796,128,2,35042:0:0:0:0:
320,192,34796,128,8,34919:0:0:0:0:
448,192,34796,1,0,0:0:0:70:11_G6_122_480.wav
192,192,35042,1,0,0:0:0:0:
448,192,35042,128,0,35288:0:0:0:0:
192,192,35288,128,2,35411:0:0:0:0:
320,192,35288,128,0,36025:0:0:0:70:11_F#6_122_480.wav
64,192,35534,1,0,0:0:0:0:
64,192,35780,128,2,35902:0:0:0:0:
192,192,35780,1,8,0:0:0:0:
448,192,35780,1,0,0:0:0:70:11_D6_122_480.wav
192,192,36025,1,0,0:0:0:0:
64,192,36271,1,2,0:0:0:0:
320,192,36271,1,0,0:0:0:0:
320,192,36517,128,0,36640:0:0:0:0:
448,192,36517,1,0,0:0:0:0:
64,192,36763,1,2,0:0:0:0:
192,192,36763,1,8,0:0:0:0:
448,192,36763,128,0,36886:0:0:0:0:
64,192,37009,128,0,37132:0:0:0:0:
320,192,37009,1,0,0:0:0:0:
192,192,37255,128,2,37747:0:0:0:0:
448,192,37255,1,0,0:0:0:0:
64,192,37501,1,0,0:0:0:0:
64,192,37747,128,2,37870:0:0:0:0:
320,192,37747,1,8,0:0:0:0:
448,192,37747,1,0,0:0:0:0:
320,192,37993,128,0,38484:0:0:0:70:11_A6_122_480.wav
448,192,37993,128,0,38116:0:0:0:0:
192,192,38239,1,2,0:0:0:0:
64,192,38484,1,0,0:0:0:0:
192,192,38484,128,0,38730:0:0:0:0:
64,192,38730,128,2,38976:0:0:0:0:
320,192,38730,128,8,38853:0:0:0:0:
448,192,38730,1,0,0:0:0:70:11_G6_122_480.wav
192,192,38976,1,0,0:0:0:0:
448,192,38976,128,0,39222:0:0:0:0:
192,192,39222,128,2,39345:0:0:0:0:
320,192,39222,128,0,39960:0:0:0:70:11_F#6_122_480.wav
64,192,39468,1,0,0:0:0:0:
64,192,39714,128,2,39837:0:0:0:0:
192,192,39714,1,8,0:0:0:0:
448,192,39714,1,0,0:0:0:70:11_D6_122_480.wav
448,192,39960,1,0,0:0:0:0:
64,192,40206,1,2,0:0:0:0:
192,192,40206,1,0,0:0:0:0:
320,192,40452,1,0,0:0:0:0:
448,192,40452,128,0,40575:0:0:0:0:
64,192,40698,1,2,0:0:0:0:
192,192,40698,1,8,0:0:0:0:
320,192,40698,128,0,40821:0:0:0:0:
192,192,40943,128,0,41066:0:0:0:0:
448,192,40943,1,0,0:0:0:0:
64,192,41189,128,2,41312:0:0:0:0:
448,192,41189,1,0,0:0:0:0:
192,192,41435,128,0,41558:0:0:0:0:
320,192,41435,1,0,0:0:0:0:
64,192,41681,1,2,0:0:0:0:
320,192,41681,1,8,0:0:0:0:
448,192,41681,128,0,41804:0:0:0:0:
64,192,41927,128,0,42050:0:0:0:70:11_A6_122_480.wav
192,192,41927,128,0,42419:0:0:0:0:
320,192,42173,1,2,0:0:0:0:
320,192,42419,128,0,42665:0:0:0:0:
448,192,42419,1,0,0:0:0:0:
64,192,42665,1,2,0:0:0:0:
192,192,42665,128,8,42788:0:0:0:0:
448,192,42665,128,0,42911:0:0:0:70:11_G6_122_480.wav
64,192,42911,128,0,43157:0:0:0:0:
320,192,42911,1,0,0:0:0:0:
192,192,43157,128,2,43648:0:0:0:0:
320,192,43157,128,0,43280:0:0:0:70:11_F#6_122_480.wav
448,192,43402,1,0,0:0:0:0:
64,192,43648,1,2,0:0:0:0:
320,192,43648,1,8,0:0:0:0:
448,192,43648,128,0,43771:0:0:0:70:11_D6_122_480.wav
64,192,43894,1,0,0:0:0:0:
192,192,43894,128,0,44017:0:0:0:0:
320,192,44017,128,0,44140:0:0:0:0:
448,192,44017,1,0,0:0:0:0:
64,192,44140,128,2,44632:0:0:0:0:
192,192,44140,1,0,0:0:0:0:
448,192,44386,1,0,0:0:0:0:
192,192,44632,1,2,0:0:0:0:
320,192,44632,1,8,0:0:0:0:
448,192,44632,1,0,0:0:0:0:
192,192,44878,1,0,0:0:0:0:
320,192,44878,128,0,45001:0:0:0:0:
64,192,45124,128,2,45247:0:0:0:0:
448,192,45124,1,0,0:0:0:0:
192,192,45370,1,0,0:0:0:0:
64,192,45616,1,2,0:0:0:0:
320,192,45616,128,8,45862:0:0:0:0:
448,192,45616,1,0,0:0:0:0:
64,192,45862,1,0,0:0:0:70:12_G7_122_480.wav
192,192,45862,128,0,46353:0:0:0:0:
320,192,46107,1,2,0:0:0:0:
448,192,46107,1,0,0:0:0:0:
64,192,46353,128,0,46476:0:0:0:0:
320,192,46353,1,0,0:0:0:0:
64,192,46599,1,2,0:0:0:0:
192,192,46599,1,8,0:0:0:0:
448,192,46599,128,0,46722:0:0:0:70:12_F#7_122_480.wav
192,192,46845,1,0,0:0:0:0:
320,192,46845,128,0,46968:0:0:0:0:
64,192,47091,128,2,47583:0:0:0:0:
448,192,47091,1,0,0:0:0:70:12_E7_122_480.wav
320,192,47337,1,0,0:0:0:0:
192,192,47583,1,2,0:0:0:0:
320,192,47583,1,8,0:0:0:0:
448,192,47583,128,0,47829:0:0:0:70:12_D7_122_480.wav
64,192,47829,1,8,0:0:0:0:
192,192,47829,1,0,0:0:0:0:
320,192,47952,1,8,0:0:0:0:
64,192,48075,1,2,0:0:0:0:
192,192,48075,1,4,0:0:0:0:
448,192,48075,1,0,0:0:0:0:
320,192,48321,128,0,48566:0:0:0:0:
448,192,48321,128,0,48443:0:0:0:0:
64,192,48566,1,2,0:0:0:0:
192,192,48566,128,8,48812:0:0:0:0:
64,192,48812,128,0,49058:0:0:0:0:
448,192,48812,128,0,48935:0:0:0:0:
192,192,49058,1,2,0:0:0:0:
320,192,49058,128,0,49304:0:0:0:0:
192,192,49304,128,0,49550:0:0:0:0:
448,192,49304,128,0,49427:0:0:0:0:
64,192,49550,1,2,0:0:0:0:
320,192,49550,1,8,0:0:0:0:
64,192,49796,128,0,50042:0:0:0:0:
448,192,49796,128,0,49919:0:0:0:0:
192,192,50042,128,2,50288:0:0:0:0:
320,192,50042,1,0,0:0:0:0:
64,192,50288,128,0,50534:0:0:0:0:
320,192,50288,128,0,50411:0:0:0:0:
192,192,50534,1,2,0:0:0:0:
448,192,50534,128,8,50780:0:0:0:0:
192,192,50780,128,0,51025:0:0:0:0:
320,192,50780,128,0,50902:0:0:0:0:
64,192,51025,1,2,0:0:0:0:
192,192,51271,1,2,0:0:0:0:
320,192,51271,1,8,0:0:0:0:
448,192,51271,1,0,0:0:0:0:
192,192,51517,1,2,0:0:0:0:
320,192,51517,1,8,0:0:0:0:
448,192,51517,128,0,51763:0:0:0:0:
64,192,51763,1,0,0:0:0:0:
320,192,51763,128,0,52009:0:0:0:0:
192,192,52009,128,2,52501:0:0:0:0:
448,192,52009,1,0,0:0:0:0:
64,192,52255,128,0,52378:0:0:0:0:
320,192,52501,1,8,0:0:0:0:
448,192,52501,128,2,52993:0:0:0:0:
64,192,52747,128,0,52870:0:0:0:0:
192,192,52993,1,2,0:0:0:0:
320,192,52993,128,0,53484:0:0:0:0:
64,192,53239,128,0,53362:0:0:0:0:
192,192,53484,1,2,0:0:0:0:
448,192,53484,1,8,0:0:0:0:
64,192,53730,128,0,53853:0:0:0:0:
448,192,53730,128,0,54468:0:0:0:0:
192,192,53976,1,2,0:0:0:0:
320,192,53976,1,0,0:0:0:0:
192,192,54222,128,0,54345:0:0:0:0:
64,192,54468,1,2,0:0:0:0:
320,192,54468,128,8,54714:0:0:0:0:
64,192,54714,128,0,54960:0:0:0:0:
192,192,54714,128,0,54837:0:0:0:0:
320,192,54960,1,2,0:0:0:0:
448,192,54960,128,0,55452:0:0:0:0:
64,192,55206,1,2,0:0:0:0:
192,192,55206,1,8,0:0:0:0:
320,192,55206,1,0,0:0:0:0:
64,192,55452,1,2,0:0:0:0:
192,192,55452,1,8,0:0:0:0:
320,192,55452,1,0,0:0:0:0:
192,192,55698,128,0,55821:0:0:0:0:
64,192,55943,1,2,0:0:0:0:
448,192,55943,1,0,0:0:0:0:
64,192,56189,128,0,56435:0:0:0:0:
320,192,56189,128,0,56312:0:0:0:0:
192,192,56435,128,2,56681:0:0:0:0:
448,192,56435,1,8,0:0:0:0:
320,192,56681,128,0,56804:0:0:0:0:
448,192,56681,128,0,56927:0:0:0:0:
64,192,56927,128,2,57173:0:0:0:0:
192,192,56927,1,0,0:0:0:0:
320,192,57173,128,0,57296:0:0:0:0:
448,192,57173,128,0,57419:0:0:0:0:
64,192,57419,1,2,0:0:0:0:
192,192,57419,1,8,0:0:0:0:
64,192,57665,128,0,57911:0:0:0:0:
320,192,57665,128,0,57788:0:0:0:0:
448,192,57911,1,2,0:0:0:0:
192,192,57911,128,0,58157:0:0:0:0:
320,192,58157,128,0,58402:0:0:0:0:
448,192,58157,128,0,58280:0:0:0:0:
64,192,58402,128,2,58648:0:0:0:0:
192,192,58402,1,8,0:0:0:0:
448,192,58648,128,0,58771:0:0:0:0:
320,192,58648,128,0,58894:0:0:0:0:
64,192,58894,1,2,0:0:0:0:
192,192,58894,1,0,0:0:0:0:
64,192,59140,1,2,0:0:0:0:
320,192,59140,1,8,0:0:0:0:
448,192,59140,1,0,0:0:0:0:
64,192,59386,1,2,0:0:0:0:
320,192,59386,128,8,59632:0:0:0:0:
448,192,59386,1,0,0:0:0:0:
192,192,59632,128,0,59878:0:0:0:0:
448,192,59632,1,0,0:0:0:0:
64,192,59878,1,2,0:0:0:0:
320,192,59878,128,0,60370:0:0:0:0:
192,192,60124,1,0,0:0:0:0:
64,192,60370,128,2,60493:0:0:0:0:
192,192,60370,1,8,0:0:0:0:
448,192,60370,1,0,0:0:0:0:
320,192,60616,1,0,0:0:0:0:
64,192,60862,1,2,0:0:0:0:
192,192,60862,128,0,61353:0:0:0:0:
448,192,61107,1,0,0:0:0:0:
64,192,61353,1,2,0:0:0:0:
320,192,61353,1,8,0:0:0:0:
448,192,61353,128,0,61476:0:0:0:0:
64,192,61845,1,2,0:0:0:0:
192,192,61845,1,0,0:0:0:0:
320,192,61845,1,0,0:0:0:0:
64,192,62091,1,2,0:0:0:0:
320,192,62091,1,8,0:0:0:0:
448,192,62091,1,0,0:0:0:0:
192,192,62337,1,2,0:0:0:0:
320,192,62337,1,8,0:0:0:0:
448,192,62337,1,0,0:0:0:0:
64,192,62706,1,8,0:0:0:0:
192,192,62767,1,8,0:0:0:0:
320,192,62829,1,2,0:0:0:0:
448,192,62829,1,8,0:0:0:0:
64,192,63075,1,2,0:0:0:0:
192,192,63075,1,0,0:0:0:0:
320,192,63198,1,2,0:0:0:0:
448,192,63198,1,0,0:0:0:0:
64,192,63321,1,2,0:0:0:0:
192,192,63321,1,0,0:0:0:0:
448,192,63321,128,0,63566:0:0:0:0:
320,192,63566,128,0,63812:0:0:0:0:
64,192,63812,128,2,64181:0:0:0:0:
192,192,63812,1,4,0:0:0:0:
448,192,63812,1,0,0:0:0:70:0_F#7_122_960.wav
192,192,64058,1,0,0:0:0:0:
64,192,64304,1,2,0:0:0:0:
320,192,64304,128,8,64796:0:0:0:0:
448,192,64304,1,0,0:0:0:70:12_B7_122_480.wav
192,192,64550,1,0,0:0:0:0:
64,192,64796,1,2,0:0:0:0:
448,192,64796,128,0,64919:0:0:0:70:12_A7_122_480.wav
64,192,65042,1,0,0:0:0:70:12_F#7_122_480.wav
320,192,65042,128,0,65165:0:0:0:0:
192,192,65288,128,2,65411:0:0:0:0:
320,192,65288,1,8,0:0:0:0:
448,192,65288,1,0,0:0:0:70:12_E7_122_480.wav
64,192,65534,128,0,65657:0:0:0:70:12_D7_122_480.wav
448,192,65534,1,0,0:0:0:0:
320,192,65780,1,2,0:0:0:0:
448,192,65780,128,0,66025:0:0:0:70:12_E7_122_480.wav
64,192,66025,1,0,0:0:0:70:12_D7_122_480.wav
192,192,66025,128,0,66148:0:0:0:0:
64,192,66271,128,2,66517:0:0:0:0:
320,192,66271,1,8,0:0:0:0:
448,192,66271,1,0,0:0:0:70:12_E7_122_480.wav
192,192,66517,128,0,66640:0:0:0:70:12_F#7_122_480.wav
320,192,66517,1,0,0:0:0:0:
64,192,66763,1,2,0:0:0:0:
320,192,66763,128,0,66886:0:0:0:70:12_F#7_122_480.wav
448,192,66763,1,0,0:0:0:0:
64,192,67009,128,0,67132:0:0:0:70:12_E7_122_480.wav
192,192,67255,1,2,0:0:0:0:
320,192,67255,128,8,67378:0:0:0:0:
448,192,67255,128,0,67501:0:0:0:60:12_A7_122_480.wav
64,192,67501,128,0,67747:0:0:0:60:12_C#7_122_480.wav
192,192,67501,128,0,67624:0:0:0:0:
320,192,67747,128,2,68116:0:0:0:0:
192,192,67993,1,0,0:0:0:0:
64,192,68239,1,10,0:0:0:0:
192,192,68239,1,0,0:0:0:50:12_B7_122_480.wav
448,192,68239,128,0,68730:0:0:0:50:12_D8_122_960.wav
320,192,68484,1,0,0:0:0:0:
64,192,68730,1,2,0:0:0:0:
192,192,68730,128,0,68853:0:0:0:70:12_A7_122_480.wav
64,192,68976,128,0,69099:0:0:0:70:12_F#7_122_480.wav
448,192,68976,1,0,0:0:0:0:
192,192,69222,1,2,0:0:0:0:
320,192,69222,1,8,0:0:0:0:
448,192,69222,128,0,69345:0:0:0:70:12_E7_122_480.wav
64,192,69468,1,0,0:0:0:70:12_D7_122_480.wav
320,192,69468,128,0,69591:0:0:0:0:
192,192,69714,128,2,69960:0:0:0:0:
448,192,69714,1,0,0:0:0:70:12_E7_122_480.wav
64,192,69960,128,0,70083:0:0:0:70:12_D7_122_480.wav
320,192,69960,1,0,0:0:0:0:
192,192,70206,1,2,0:0:0:0:
320,192,70206,1,8,0:0:0:0:
448,192,70206,128,0,70452:0:0:0:70:12_E7_122_480.wav
64,192,70452,1,0,0:0:0:50:12_D7_122_480.wav
320,192,70452,128,0,70575:0:0:0:50:12_A7_122_480.wav
64,192,70698,1,2,0:0:0:0:
192,192,70698,128,0,70821:0:0:0:50:12_D7_122_480.wav
320,192,70821,1,8,0:0:0:0:
448,192,70821,1,0,0:0:0:0:
64,192,71189,1,2,0:0:0:0:
192,192,71189,1,8,0:0:0:0:
320,192,71189,128,0,71435:0:0:0:0:
192,192,71435,1,0,0:0:0:0:
448,192,71435,128,0,71681:0:0:0:0:
64,192,71681,128,2,72050:0:0:0:0:
320,192,71681,1,0,0:0:0:70:0_F#7_122_960.wav
448,192,71927,1,0,0:0:0:0:
192,192,72173,128,2,72665:0:0:0:0:
320,192,72173,1,8,0:0:0:0:
448,192,72173,1,0,0:0:0:70:12_B7_122_480.wav
320,192,72419,1,0,0:0:0:0:
64,192,72665,1,2,0:0:0:0:
448,192,72665,128,0,72788:0:0:0:70:12_A7_122_480.wav
64,192,72911,1,0,0:0:0:70:12_F#7_122_480.wav
320,192,72911,128,0,73034:0:0:0:0:
192,192,73157,128,2,73280:0:0:0:0:
320,192,73157,1,8,0:0:0:0:
448,192,73157,1,0,0:0:0:70:12_E7_122_480.wav
64,192,73402,128,0,73525:0:0:0:70:12_D7_122_480.wav
448,192,73402,1,0,0:0:0:0:
192,192,73648,1,2,0:0:0:0:
320,192,73648,128,0,73894:0:0:0:70:12_E7_122_480.wav
192,192,73894,128,0,74017:0:0:0:70:12_D7_122_480.wav
448,192,73894,1,0,0:0:0:0:
64,192,74140,128,2,74386:0:0:0:0:
320,192,74140,1,8,0:0:0:0:
448,192,74140,1,0,0:0:0:70:12_E7_122_480.wav
192,192,74386,128,0,74509:0:0:0:70:12_F#7_122_480.wav
320,192,74386,1,0,0:0:0:0:
64,192,74632,1,2,0:0:0:0:
448,192,74632,128,0,74755:0:0:0:70:12_F#7_122_480.wav
64,192,74878,128,0,75001:0:0:0:70:12_E7_122_480.wav
192,192,74878,1,0,0:0:0:0:
192,192,75124,128,2,75370:0:0:0:0:
320,192,75124,1,8,0:0:0:0:
448,192,75124,128,0,75247:0:0:0:60:12_A7_122_480.wav
64,192,75370,128,0,75616:0:0:0:60:12_C#7_122_480.wav
320,192,75370,128,0,75493:0:0:0:0:
192,192,75616,1,2,0:0:0:0:
448,192,75616,128,0,75862:0:0:0:70:12_D7_122_480.wav
320,192,75862,1,0,0:0:0:0:
64,192,76107,1,2,0:0:0:0:
192,192,76107,1,8,0:0:0:0:
320,192,76107,128,0,76353:0:0:0:70:12_E7_122_480.wav
64,192,76353,128,0,76599:0:0:0:70:12_F#7_122_480.wav
448,192,76353,1,0,0:0:0:0:
192,192,76599,1,2,0:0:0:0:
448,192,76599,128,0,76722:0:0:0:70:12_D7_122_480.wav
64,192,76845,1,0,0:0:0:70:12_A6_122_960.wav
320,192,76845,128,0,76968:0:0:0:0:
64,192,77091,1,2,0:0:0:0:
192,192,77091,128,8,77214:0:0:0:0:
448,192,77091,1,0,0:0:0:70:12_D7_122_480.wav
320,192,77337,1,0,0:0:0:70:12_F#7_122_480.wav
448,192,77337,128,0,77460:0:0:0:0:
64,192,77583,128,2,77829:0:0:0:0:
192,192,77583,1,0,0:0:0:70:12_G7_122_480.wav
320,192,77829,128,0,77952:0:0:0:70:12_F#7_122_480.wav
448,192,77829,1,0,0:0:0:0:
64,192,78075,1,10,0:0:0:0:
192,192,78075,1,0,0:0:0:50:12_E7_122_480.wav
448,192,78075,128,0,78321:0:0:0:50:12_G7_122_480.wav
192,192,78321,128,0,78443:0:0:0:70:12_D7_122_480.wav
320,192,78321,1,0,0:0:0:0:
320,192,78566,128,10,78689:0:0:0:0:
448,192,78566,1,0,0:0:0:70:12_E7_122_480.wav
64,192,78689,1,8,0:0:0:0:
192,192,78689,1,0,0:0:0:0:
64,192,79058,128,2,79304:0:0:0:0:
192,192,79058,1,8,0:0:0:0:
320,192,79058,1,0,0:0:0:0:
320,192,79304,1,8,0:0:0:0:
448,192,79304,1,0,0:0:0:0:
192,192,79427,1,8,0:0:0:0:
64,192,79550,1,2,0:0:0:0:
320,192,79550,1,4,0:0:0:0:
448,192,79550,128,0,79919:0:0:0:70:0_F#7_122_960.wav
192,192,79796,1,0,0:0:0:0:
64,192,80042,1,2,0:0:0:0:
192,192,80042,128,8,80534:0:0:0:0:
320,192,80042,1,0,0:0:0:70:12_B7_122_480.wav
320,192,80288,1,0,0:0:0:0:
64,192,80534,1,2,0:0:0:0:
448,192,80534,128,0,80657:0:0:0:70:12_A7_122_480.wav
192,192,80780,1,0,0:0:0:70:12_F#7_122_480.wav
320,192,80780,128,0,80902:0:0:0:0:
64,192,81025,1,2,0:0:0:0:
192,192,81025,128,8,81148:0:0:0:0:
448,192,81025,1,0,0:0:0:70:12_E7_122_480.wav
64,192,81271,128,0,81394:0:0:0:70:12_D7_122_480.wav
320,192,81271,1,0,0:0:0:0:
192,192,81517,1,2,0:0:0:0:
448,192,81517,128,0,81763:0:0:0:70:12_E7_122_480.wav
64,192,81763,1,0,0:0:0:70:12_D7_122_480.wav
320,192,81763,128,0,81886:0:0:0:0:
64,192,82009,128,2,82255:0:0:0:0:
192,192,82009,1,8,0:0:0:0:
448,192,82009,1,0,0:0:0:70:12_E7_122_480.wav
192,192,82255,128,0,82378:0:0:0:70:12_F#7_122_480.wav
320,192,82255,1,0,0:0:0:0:
64,192,82501,1,2,0:0:0:0:
448,192,82501,128,0,82624:0:0:0:70:12_F#7_122_480.wav
320,192,82747,128,0,82870:0:0:0:70:12_E7_122_480.wav
64,192,82993,128,2,83239:0:0:0:0:
192,192,82993,128,8,83116:0:0:0:0:
448,192,82993,1,0,0:0:0:60:12_A7_122_480.wav
320,192,83239,128,0,83362:0:0:0:60:12_C#7_122_480.wav
448,192,83239,128,0,83484:0:0:0:0:
64,192,83484,1,2,0:0:0:0:
192,192,83484,128,0,83853:0:0:0:70:0_F#7_122_960.wav
320,192,83730,1,0,0:0:0:0:
64,192,83976,1,2,0:0:0:0:
320,192,83976,1,8,0:0:0:0:
448,192,83976,128,0,84468:0:0:0:70:12_D8_122_960.wav
64,192,84222,1,0,0:0:0:0:
192,192,84468,128,2,84591:0:0:0:0:
320,192,84468,1,0,0:0:0:70:12_C#8_122_480.wav
64,192,84714,128,0,84837:0:0:0:70:12_A7_122_480.wav
320,192,84714,1,0,0:0:0:0:
64,192,84960,1,2,0:0:0:0:
192,192,84960,1,8,0:0:0:0:
448,192,84960,128,0,85083:0:0:0:70:12_F#7_122_480.wav
192,192,85206,1,0,0:0:0:50:12_D7_122_480.wav
320,192,85206,128,0,85329:0:0:0:50:12_A7_122_480.wav
64,192,85452,128,2,85698:0:0:0:0:
448,192,85452,1,0,0:0:0:70:12_E7_122_480.wav
192,192,85698,128,0,85821:0:0:0:70:12_D7_122_480.wav
320,192,85698,1,0,0:0:0:0:
64,192,85943,1,2,0:0:0:0:
320,192,85943,1,8,0:0:0:0:
448,192,85943,128,0,86189:0:0:0:70:12_E7_122_480.wav
192,192,86189,1,0,0:0:0:70:12_A7_122_480.wav
320,192,86189,128,0,86312:0:0:0:0:
64,192,86435,128,2,86558:0:0:0:0:
192,192,86435,1,0,0:0:0:70:12_F#7_122_480.wav
320,192,86558,1,8,0:0:0:0:
448,192,86558,1,0,0:0:0:0:
64,192,86927,128,8,87173:0:0:0:0:
192,192,86927,1,2,0:0:0:0:
448,192,86927,1,0,0:0:0:0:
320,192,87173,128,0,87419:0:0:0:0:
448,192,87173,1,0,0:0:0:0:
64,192,87419,1,2,0:0:0:0:
192,192,87419,128,0,87788:0:0:0:70:0_F#7_122_960.wav
448,192,87665,1,0,0:0:0:0:
64,192,87911,1,2,0:0:0:0:
320,192,87911,128,8,88402:0:0:0:0:
448,192,87911,1,0,0:0:0:70:12_B7_122_480.wav
192,192,88157,1,0,0:0:0:0:
64,192,88402,1,2,0:0:0:0:
448,192,88402,128,0,88525:0:0:0:70:12_A7_122_480.wav
64,192,88648,1,0,0:0:0:70:12_F#7_122_480.wav
320,192,88648,128,0,88771:0:0:0:0:
192,192,88894,128,2,89017:0:0:0:0:
320,192,88894,1,8,0:0:0:0:
448,192,88894,1,0,0:0:0:70:12_E7_122_480.wav
64,192,89140,128,0,89263:0:0:0:70:12_D7_122_480.wav
448,192,89140,1,0,0:0:0:0:
192,192,89386,1,2,0:0:0:0:
320,192,89386,128,0,89632:0:0:0:70:12_E7_122_480.wav
64,192,89632,1,0,0:0:0:70:12_D7_122_480.wav
448,192,89632,128,0,89755:0:0:0:0:
64,192,89878,128,2,90124:0:0:0:0:
192,192,89878,1,8,0:0:0:0:
320,192,89878,1,0,0:0:0:70:12_E7_122_480.wav
192,192,90124,128,0,90247:0:0:0:70:12_F#7_122_480.wav
448,192,90124,1,0,0:0:0:0:
320,192,90370,128,2,90493:0:0:0:0:
448,192,90370,1,0,0:0:0:70:12_F#7_122_480.wav
64,192,90616,128,0,90739:0:0:0:70:12_E7_122_480.wav
192,192,90862,1,2,0:0:0:0:
320,192,90862,128,8,90984:0:0:0:0:
448,192,90862,128,0,91107:0:0:0:60:12_A7_122_480.wav
64,192,91107,128,0,91230:0:0:0:60:12_C#7_122_480.wav
192,192,91107,128,0,91353:0:0:0:0:
320,192,91353,128,2,91722:0:0:0:0:
448,192,91353,1,0,0:0:0:70:12_D7_122_480.wav
192,192,91599,1,0,0:0:0:0:
64,192,91845,1,2,0:0:0:0:
192,192,91845,1,8,0:0:0:0:
448,192,91845,128,0,92091:0:0:0:70:12_E7_122_480.wav
64,192,92091,1,0,0:0:0:70:12_F#7_122_480.wav
320,192,92091,128,0,92337:0:0:0:0:
192,192,92337,128,2,92583:0:0:0:0:
448,192,92337,1,0,0:0:0:70:12_D7_122_480.wav
64,192,92583,128,0,92829:0:0:0:70:12_A6_122_960.wav
320,192,92583,1,0,0:0:0:0:
192,192,92829,1,2,0:0:0:0:
320,192,92829,1,8,0:0:0:0:
448,192,92829,128,0,93075:0:0:0:70:12_D7_122_480.wav
64,192,93075,1,0,0:0:0:70:12_F#7_122_480.wav
320,192,93075,128,0,93321:0:0:0:0:
192,192,93321,128,2,93566:0:0:0:0:
448,192,93321,1,0,0:0:0:70:12_G7_122_480.wav
64,192,93566,128,0,93689:0:0:0:70:12_F#7_122_480.wav
320,192,93566,1,0,0:0:0:0:
192,192,93812,1,10,0:0:0:0:
448,192,93812,128,0,94058:0:0:0:50:12_E7_122_480.wav
64,192,94058,1,0,0:0:0:70:12_D7_122_480.wav
320,192,94058,128,0,94181:0:0:0:0:
64,192,94304,1,10,0:0:0:0:
192,192,94304,1,0,0:0:0:70:12_D7_122_480.wav
320,192,94427,1,8,0:0:0:0:
448,192,94427,1,0,0:0:0:0:
64,192,94550,1,0,0:0:0:0:
192,192,94550,1,0,0:0:0:0:
320,192,94673,1,8,0:0:0:0:
64,192,94796,1,2,0:0:0:0:
192,192,94796,1,8,0:0:0:0:
448,192,94796,1,0,0:0:0:0:
320,192,95042,1,8,0:0:0:0:
448,192,95042,1,2,0:0:0:0:
192,192,95165,1,8,0:0:0:0:
64,192,95288,1,2,0:0:0:0:
320,192,95288,1,4,0:0:0:0:
448,192,95288,1,0,0:0:0:0:
64,192,95534,1,0,0:0:0:0:
192,192,95534,1,0,0:0:0:0:
320,192,95657,1,0,0:0:0:0:
64,192,95780,1,2,0:0:0:0:
192,192,95780,1,8,0:0:0:0:
448,192,95780,1,0,0:0:0:0:
320,192,96025,1,0,0:0:0:0:
448,192,96025,1,0,0:0:0:0:
192,192,96271,1,2,0:0:0:0:
320,192,96271,1,0,0:0:0:0:
64,192,96517,1,0,0:0:0:0:
448,192,96517,1,0,0:0:0:0:
320,192,96640,1,0,0:0:0:0:
64,192,96763,1,2,0:0:0:0:
192,192,96763,1,8,0:0:0:0:
448,192,96763,1,0,0:0:0:0:
320,192,97009,128,0,97132:0:0:0:70:11_A6_122_480.wav
448,192,97009,128,0,97132:0:0:0:0:
64,192,97255,1,2,0:0:0:0:
192,192,97255,1,0,0:0:0:0:
320,192,97501,1,0,0:0:0:0:
192,192,97624,1,0,0:0:0:0:
64,192,97747,128,8,97870:0:0:0:0:
320,192,97747,1,2,0:0:0:0:
448,192,97747,128,0,97870:0:0:0:70:11_G6_122_480.wav
192,192,97993,1,0,0:0:0:0:
64,192,98239,128,2,98362:0:0:0:0:
320,192,98239,128,0,98362:0:0:0:70:11_F#6_122_480.wav
448,192,98484,1,0,0:0:0:0:
320,192,98607,1,0,0:0:0:0:
64,192,98730,128,2,98853:0:0:0:0:
192,192,98730,128,8,98853:0:0:0:0:
448,192,98730,1,0,0:0:0:70:11_D6_122_480.wav
320,192,98853,1,0,0:0:0:0:
64,192,98976,1,0,0:0:0:0:
192,192,99099,1,0,0:0:0:0:
320,192,99222,1,2,0:0:0:0:
448,192,99222,1,0,0:0:0:0:
64,192,99468,1,0,0:0:0:0:
192,192,99468,1,0,0:0:0:0:
448,192,99591,1,0,0:0:0:0:
64,192,99714,1,2,0:0:0:0:
192,192,99714,1,8,0:0:0:0:
320,192,99714,1,0,0:0:0:0:
64,192,99960,1,0,0:0:0:0:
448,192,99960,1,0,0:0:0:0:
192,192,100206,1,2,0:0:0:0:
320,192,100206,1,0,0:0:0:0:
64,192,100452,1,0,0:0:0:0:
448,192,100452,1,0,0:0:0:0:
320,192,100575,1,0,0:0:0:0:
64,192,100698,1,2,0:0:0:0:
192,192,100698,1,8,0:0:0:0:
448,192,100698,1,0,0:0:0:0:
320,192,100943,128,0,101066:0:0:0:70:11_A6_122_480.wav
448,192,100943,128,0,101066:0:0:0:0:
64,192,101189,1,2,0:0:0:0:
192,192,101189,1,0,0:0:0:0:
320,192,101435,1,0,0:0:0:0:
64,192,101558,1,0,0:0:0:0:
192,192,101681,128,2,101804:0:0:0:0:
320,192,101681,128,8,101804:0:0:0:0:
448,192,101681,1,0,0:0:0:70:11_G6_122_480.wav
448,192,101927,1,0,0:0:0:0:
64,192,102173,128,2,102296:0:0:0:0:
192,192,102173,128,0,102296:0:0:0:70:11_F#6_122_480.wav
320,192,102419,1,0,0:0:0:0:
192,192,102542,1,0,0:0:0:0:
64,192,102665,128,2,102788:0:0:0:0:
320,192,102665,1,8,0:0:0:0:
448,192,102665,128,0,102788:0:0:0:70:11_D6_122_480.wav
192,192,102788,1,0,0:0:0:0:
64,192,102911,1,0,0:0:0:0:
320,192,103034,1,0,0:0:0:0:
64,192,103157,1,2,0:0:0:0:
448,192,103157,1,0,0:0:0:0:
192,192,103402,1,0,0:0:0:0:
320,192,103402,1,0,0:0:0:0:
448,192,103525,1,0,0:0:0:0:
64,192,103648,1,8,0:0:0:0:
192,192,103648,1,2,0:0:0:0:
320,192,103648,1,0,0:0:0:0:
64,192,103894,1,0,0:0:0:0:
448,192,103894,1,0,0:0:0:0:
320,192,104140,1,2,0:0:0:0:
448,192,104140,1,0,0:0:0:0:
64,192,104386,1,0,0:0:0:0:
192,192,104386,1,0,0:0:0:0:
320,192,104509,1,0,0:0:0:0:
64,192,104632,1,2,0:0:0:0:
192,192,104632,1,8,0:0:0:0:
448,192,104632,1,0,0:0:0:0:
320,192,104878,128,0,105001:0:0:0:70:11_A6_122_480.wav
448,192,104878,128,0,105001:0:0:0:0:
64,192,105124,1,2,0:0:0:0:
192,192,105124,1,0,0:0:0:0:
448,192,105370,1,0,0:0:0:0:
320,192,105493,1,0,0:0:0:0:
64,192,105616,1,2,0:0:0:0:
192,192,105616,128,8,105739:0:0:0:0:
448,192,105616,128,0,105739:0:0:0:70:11_G6_122_480.wav
320,192,105862,1,0,0:0:0:0:
64,192,106107,128,2,106230:0:0:0:0:
448,192,106107,128,0,106230:0:0:0:70:11_F#6_122_480.wav
192,192,106353,1,0,0:0:0:0:
320,192,106476,1,0,0:0:0:0:
64,192,106599,128,2,106722:0:0:0:0:
192,192,106599,128,8,106722:0:0:0:0:
448,192,106599,1,0,0:0:0:70:11_D6_122_480.wav
320,192,106722,1,0,0:0:0:0:
64,192,106845,1,0,0:0:0:0:
192,192,106968,1,0,0:0:0:0:
320,192,107091,1,2,0:0:0:0:
448,192,107091,1,0,0:0:0:0:
64,192,107337,1,0,0:0:0:0:
448,192,107337,1,0,0:0:0:0:
192,192,107460,1,0,0:0:0:0:
64,192,107583,1,2,0:0:0:0:
320,192,107583,1,8,0:0:0:0:
448,192,107583,1,0,0:0:0:0:
192,192,107829,1,0,0:0:0:0:
320,192,107829,1,0,0:0:0:0:
64,192,108075,1,2,0:0:0:0:
448,192,108075,1,0,0:0:0:0:
192,192,108321,1,0,0:0:0:0:
448,192,108321,1,0,0:0:0:0:
320,192,108443,1,0,0:0:0:0:
64,192,108566,1,2,0:0:0:0:
192,192,108566,1,8,0:0:0:0:
448,192,108566,1,0,0:0:0:0:
64,192,108812,1,0,0:0:0:0:
320,192,108812,1,0,0:0:0:0:
64,192,109058,1,2,0:0:0:0:
192,192,109058,1,0,0:0:0:0:
448,192,109304,1,0,0:0:0:70:12_F#7_122_480.wav
320,192,109427,1,0,0:0:0:70:12_G7_122_480.wav
64,192,109550,1,10,0:0:0:0:
448,192,109550,1,0,0:0:0:70:12_F#7_122_480.wav
192,192,109673,1,0,0:0:0:70:12_E7_122_480.wav
320,192,109796,1,0,0:0:0:70:12_E7_122_480.wav
448,192,109796,1,0,0:0:0:0:
64,192,109919,1,8,0:0:0:0:
192,192,109919,1,0,0:0:0:70:12_D7_122_480.wav
64,192,110042,1,8,0:0:0:0:
320,192,110042,1,2,0:0:0:0:
448,192,110042,1,0,0:0:0:70:12_A6_122_960.wav
192,192,110288,1,0,0:0:0:0:
64,192,110411,1,8,0:0:0:0:
320,192,110411,1,2,0:0:0:0:
448,192,110411,1,0,0:0:0:70:12_B6_122_480.wav
192,192,110534,1,0,0:0:0:0:
64,192,110780,1,2,0:0:0:0:
192,192,110780,1,8,0:0:0:0:
320,192,110780,1,0,0:0:0:70:12_D7_122_480.wav
64,192,111025,1,0,0:0:0:70:12_A7_122_480.wav
448,192,111025,128,0,111148:0:0:0:0:
320,192,111271,128,0,111517:0:0:0:0:
64,192,111517,128,0,111763:0:0:0:70:12_D7_122_480.wav
192,192,111517,128,0,111640:0:0:0:0:
448,192,111763,128,0,112009:0:0:0:0:
192,192,112009,128,0,112255:0:0:0:70:12_E7_122_480.wav
320,192,112009,128,0,112132:0:0:0:0:
448,192,112255,128,0,112501:0:0:0:0:
64,192,112501,128,0,112624:0:0:0:70:12_A6_122_960.wav
320,192,112501,128,0,112747:0:0:0:0:
192,192,112747,128,0,113239:0:0:0:0:
448,192,112993,128,0,113116:0:0:0:70:12_A7_122_480.wav
320,192,113239,128,0,113484:0:0:0:0:
64,192,113484,128,0,113730:0:0:0:70:12_D7_122_480.wav
192,192,113484,128,0,113607:0:0:0:0:
448,192,113730,128,0,113976:0:0:0:0:
192,192,113976,128,0,114960:0:0:0:70:12_E7_122_480.wav
320,192,113976,128,0,114099:0:0:0:0:
448,192,114222,1,0,0:0:0:0:
64,192,114468,128,0,114591:0:0:0:70:12_A6_122_960.wav
320,192,114714,1,0,0:0:0:0:
448,192,114960,128,0,115083:0:0:0:70:12_A7_122_480.wav
320,192,115206,128,0,115452:0:0:0:0:
64,192,115452,128,0,115698:0:0:0:70:12_D7_122_480.wav
192,192,115452,128,0,115575:0:0:0:0:
448,192,115698,128,0,115943:0:0:0:0:
64,192,115943,128,0,116189:0:0:0:70:12_E7_122_480.wav
320,192,115943,128,0,116066:0:0:0:0:
448,192,116189,128,0,116435:0:0:0:0:
64,192,116435,128,0,116558:0:0:0:70:12_A6_122_960.wav
192,192,116435,128,0,116681:0:0:0:0:
320,192,116681,128,0,117173:0:0:0:0:
448,192,116927,128,0,117050:0:0:0:70:12_A7_122_480.wav
64,192,117173,128,0,117419:0:0:0:0:
192,192,117419,128,0,117542:0:0:0:70:12_D7_122_480.wav
448,192,117419,128,0,117665:0:0:0:0:
64,192,117665,128,0,117911:0:0:0:0:
192,192,117911,128,0,118894:0:0:0:70:12_E7_122_480.wav
320,192,117911,128,0,118034:0:0:0:0:
448,192,118157,1,0,0:0:0:0:
64,192,118402,128,0,118525:0:0:0:70:12_A6_122_960.wav
320,192,118648,1,0,0:0:0:0:
64,192,118894,1,0,0:0:0:70:12_A7_122_480.wav
448,192,118894,128,0,119017:0:0:0:0:
320,192,119140,128,0,119386:0:0:0:0:
64,192,119386,128,0,119632:0:0:0:70:12_D7_122_480.wav
192,192,119386,128,0,119509:0:0:0:0:
448,192,119632,128,0,119878:0:0:0:0:
192,192,119878,128,0,120124:0:0:0:70:12_E7_122_480.wav
320,192,119878,128,0,120001:0:0:0:0:
448,192,120124,128,0,120370:0:0:0:0:
64,192,120370,128,0,120493:0:0:0:70:12_A6_122_960.wav
320,192,120370,128,0,120616:0:0:0:0:
192,192,120616,128,0,121107:0:0:0:0:
448,192,120862,128,0,120984:0:0:0:70:12_A7_122_480.wav
64,192,121107,128,0,121353:0:0:0:0:
192,192,121353,128,0,121476:0:0:0:70:12_D7_122_480.wav
320,192,121353,128,0,121599:0:0:0:0:
64,192,121599,128,0,121845:0:0:0:0:
320,192,121845,128,0,121968:0:0:0:70:12_E7_122_480.wav
448,192,121845,128,0,122337:0:0:0:0:
192,192,122091,1,0,0:0:0:0:
64,192,122337,128,0,122460:0:0:0:70:12_A6_122_960.wav
320,192,122583,128,0,122706:0:0:0:0:
192,192,122706,128,0,122829:0:0:0:0:
64,192,122829,128,0,123321:0:0:0:70:12_A7_122_480.wav
448,192,122829,128,0,122952:0:0:0:0:
320,192,123075,1,0,0:0:0:0:
192,192,123321,128,0,123443:0:0:0:70:12_D7_122_480.wav
448,192,123566,128,0,123812:0:0:0:0:
192,192,123812,128,0,124058:0:0:0:70:12_E7_122_480.wav
320,192,123812,128,0,123935:0:0:0:0:
448,192,124058,1,0,0:0:0:0:
64,192,124304,128,0,124427:0:0:0:70:12_A6_122_960.wav
320,192,124304,128,0,124550:0:0:0:0:
192,192,124550,128,0,124796:0:0:0:0:
448,192,125042,128,0,125288:0:0:0:0:
320,192,125288,128,0,125534:0:0:0:0:
64,192,125780,128,0,126271:0:0:0:0:
192,192,126271,1,8,0:0:0:0:
320,192,126271,1,2,0:0:0:0:
448,192,126271,128,0,126517:0:0:0:0:
64,192,126517,1,8,0:0:0:0:
192,192,126517,1,0,0:0:0:0:
320,192,126640,1,8,0:0:0:0:
64,192,126763,1,2,0:0:0:0:
192,192,126763,1,4,0:0:0:0:
448,192,126763,1,0,0:0:0:0:
192,192,127009,128,0,127132:0:0:0:0:
320,192,127009,1,0,0:0:0:0:
64,192,127255,128,2,127378:0:0:0:0:
320,192,127255,1,8,0:0:0:0:
448,192,127255,1,0,0:0:0:0:
192,192,127501,1,0,0:0:0:0:
448,192,127501,128,0,127624:0:0:0:0:
64,192,127747,1,2,0:0:0:0:
192,192,127747,128,0,127993:0:0:0:0:
320,192,127993,128,0,128239:0:0:0:0:
448,192,127993,1,0,0:0:0:0:
64,192,128239,1,2,0:0:0:0:
192,192,128239,1,8,0:0:0:0:
448,192,128239,1,0,0:0:0:0:
192,192,128484,1,0,0:0:0:0:
448,192,128484,128,0,128607:0:0:0:0:
64,192,128730,1,2,0:0:0:0:
320,192,128730,128,0,128853:0:0:0:0:
192,192,128976,128,0,129099:0:0:0:0:
448,192,128976,1,0,0:0:0:0:
64,192,129222,128,2,129468:0:0:0:0:
320,192,129222,1,8,0:0:0:0:
448,192,129222,1,0,0:0:0:0:
192,192,129468,128,0,129714:0:0:0:0:
320,192,129468,1,0,0:0:0:0:
64,192,129714,1,2,0:0:0:0:
448,192,129714,1,0,0:0:0:0:
192,192,129960,1,2,0:0:0:0:
320,192,129960,1,8,0:0:0:0:
448,192,129960,1,0,0:0:0:0:
192,192,130206,128,8,130452:0:0:0:0:
320,192,130206,1,2,0:0:0:0:
448,192,130206,1,0,0:0:0:0:
64,192,130452,128,0,130698:0:0:0:0:
320,192,130698,1,2,0:0:0:0:
448,192,130698,128,0,131189:0:0:0:0:
192,192,130943,1,0,0:0:0:0:
64,192,131189,1,2,0:0:0:0:
192,192,131189,1,8,0:0:0:0:
320,192,131189,128,0,131681:0:0:0:0:
64,192,131435,1,0,0:0:0:0:
192,192,131681,128,2,132173:0:0:0:0:
448,192,131681,1,0,0:0:0:0:
320,192,131927,1,0,0:0:0:0:
64,192,132173,1,2,0:0:0:0:
320,192,132173,1,8,0:0:0:0:
448,192,132173,1,0,0:0:0:0:
64,192,132419,1,0,0:0:0:0:
448,192,132419,128,0,132911:0:0:0:0:
192,192,132665,1,2,0:0:0:0:
320,192,132665,1,0,0:0:0:0:
64,192,132911,1,0,0:0:0:0:
192,192,132911,128,0,133157:0:0:0:0:
64,192,133157,128,2,133402:0:0:0:0:
320,192,133157,1,8,0:0:0:0:
448,192,133157,1,0,0:0:0:0:
320,192,133402,1,0,0:0:0:0:
64,192,133648,1,2,0:0:0:0:
448,192,133648,128,0,133894:0:0:0:0:
64,192,133894,1,2,0:0:0:0:
192,192,133894,1,8,0:0:0:0:
320,192,133894,128,0,134140:0:0:0:0:
192,192,134140,128,0,134386:0:0:0:0:
64,192,134386,128,2,134632:0:0:0:0:
320,192,134386,1,8,0:0:0:0:
448,192,134386,1,0,0:0:0:0:
192,192,134632,1,2,0:0:0:0:
448,192,134632,1,0,0:0:0:0:
64,192,134878,1,0,0:0:0:0:
320,192,134878,128,0,135001:0:0:0:0:
64,192,135124,1,2,0:0:0:0:
192,192,135124,128,8,135247:0:0:0:0:
448,192,135124,1,0,0:0:0:0:
320,192,135370,1,0,0:0:0:0:
448,192,135370,128,0,135493:0:0:0:0:
192,192,135616,1,2,0:0:0:0:
320,192,135616,128,0,135862:0:0:0:0:
64,192,135862,1,0,0:0:0:0:
192,192,135862,128,0,136107:0:0:0:0:
64,192,136107,1,2,0:0:0:0:
320,192,136107,1,8,0:0:0:0:
448,192,136107,1,0,0:0:0:0:
320,192,136353,128,0,136476:0:0:0:0:
448,192,136353,1,0,0:0:0:0:
64,192,136599,128,2,136722:0:0:0:0:
192,192,136599,1,0,0:0:0:0:
320,192,136845,1,0,0:0:0:0:
448,192,136845,128,0,136968:0:0:0:0:
64,192,137091,1,2,0:0:0:0:
192,192,137091,1,8,0:0:0:0:
320,192,137091,128,0,137337:0:0:0:0:
192,192,137337,128,0,137583:0:0:0:0:
448,192,137337,1,0,0:0:0:0:
64,192,137583,1,2,0:0:0:0:
448,192,137583,1,0,0:0:0:0:
64,192,137829,1,2,0:0:0:0:
192,192,137829,1,8,0:0:0:0:
320,192,137829,1,0,0:0:0:0:
64,192,138075,1,8,0:0:0:0:
192,192,138075,1,2,0:0:0:0:
320,192,138075,128,0,138321:0:0:0:0:
192,192,138321,1,0,0:0:0:0:
448,192,138321,128,0,138566:0:0:0:0:
64,192,138566,128,2,139058:0:0:0:0:
320,192,138566,1,0,0:0:0:0:
448,192,138812,1,0,0:0:0:0:
192,192,139058,128,2,139304:0:0:0:0:
320,192,139058,1,8,0:0:0:0:
448,192,139058,1,0,0:0:0:0:
64,192,139304,1,0,0:0:0:0:
320,192,139550,128,2,140042:0:0:0:0:
448,192,139550,1,0,0:0:0:0:
192,192,139796,1,0,0:0:0:0:
64,192,140042,1,2,0:0:0:0:
192,192,140042,1,8,0:0:0:0:
448,192,140042,128,0,140288:0:0:0:0:
64,192,140288,1,0,0:0:0:0:
192,192,140534,1,8,0:0:0:0:
320,192,140534,1,0,0:0:0:0:
448,192,140534,1,0,0:0:0:0:
320,192,140780,1,2,0:0:0:0:
448,192,140780,1,0,0:0:0:0:
64,192,141025,1,8,0:0:0:0:
192,192,141025,1,0,0:0:0:0:
320,192,141025,1,0,0:0:0:0:
64,192,141271,1,2,0:0:0:0:
192,192,141271,1,0,0:0:0:0:
192,192,141517,1,8,0:0:0:0:
320,192,141517,1,0,0:0:0:0:
448,192,141517,1,0,0:0:0:0:
320,192,141763,1,2,0:0:0:0:
448,192,141763,1,0,0:0:0:0:
192,192,141886,1,2,0:0:0:0:
64,192,142009,128,8,143484:0:0:0:0:
320,192,142009,1,0,0:0:0:0:
448,192,142009,1,0,0:0:0:0:
192,192,142255,1,2,0:0:0:0:
448,192,142255,1,0,0:0:0:0:
320,192,143730,1,2,0:0:0:0:
448,192,143730,1,0,0:0:0:0:
64,192,143853,1,2,0:0:0:0:
192,192,143853,1,0,0:0:0:0:
320,192,143976,1,8,0:0:0:0:
448,192,143976,128,2,144222:0:0:0:0:
64,192,144222,1,2,0:0:0:0:
192,192,144222,1,0,0:0:0:0:
320,192,144345,1,2,0:0:0:0:
64,192,144468,128,2,144837:0:0:0:0:
192,192,144468,1,4,0:0:0:0:
448,192,144468,1,0,0:0:0:70:0_F#7_122_960.wav
448,192,144714,1,0,0:0:0:0:
192,192,144960,1,2,0:0:0:0:
320,192,144960,128,8,145452:0:0:0:0:
448,192,144960,1,0,0:0:0:70:12_B7_122_480.wav
192,192,145206,1,0,0:0:0:0:
64,192,145452,1,2,0:0:0:0:
448,192,145452,128,0,145575:0:0:0:70:12_A7_122_480.wav
64,192,145698,1,0,0:0:0:70:12_F#7_122_480.wav
320,192,145698,128,0,145821:0:0:0:0:
192,192,145943,128,2,146066:0:0:0:0:
320,192,145943,1,8,0:0:0:0:
448,192,145943,1,0,0:0:0:70:12_E7_122_480.wav
64,192,146189,128,0,146312:0:0:0:70:12_D7_122_480.wav
448,192,146189,1,0,0:0:0:0:
320,192,146435,1,2,0:0:0:0:
448,192,146435,128,0,146681:0:0:0:70:12_E7_122_480.wav
64,192,146681,1,0,0:0:0:70:12_D7_122_480.wav
192,192,146681,128,0,146804:0:0:0:0:
64,192,146927,128,2,147173:0:0:0:0:
320,192,146927,1,8,0:0:0:0:
448,192,146927,1,0,0:0:0:70:12_E7_122_480.wav
192,192,147173,128,0,147296:0:0:0:70:12_F#7_122_480.wav
320,192,147173,1,0,0:0:0:0:
64,192,147419,1,2,0:0:0:0:
320,192,147419,128,0,147542:0:0:0:70:12_F#7_122_480.wav
448,192,147419,1,0,0:0:0:0:
64,192,147665,128,0,147788:0:0:0:70:12_E7_122_480.wav
192,192,147911,1,2,0:0:0:0:
320,192,147911,128,8,148034:0:0:0:0:
448,192,147911,128,0,148157:0:0:0:60:12_A7_122_480.wav
64,192,148157,128,0,148402:0:0:0:60:12_C#7_122_480.wav
192,192,148157,128,0,148280:0:0:0:0:
320,192,148402,128,2,148771:0:0:0:0:
192,192,148648,1,0,0:0:0:0:
64,192,148894,1,10,0:0:0:0:
192,192,148894,1,0,0:0:0:50:12_B7_122_480.wav
448,192,148894,128,0,149386:0:0:0:50:12_D8_122_960.wav
320,192,149140,1,0,0:0:0:0:
64,192,149386,1,2,0:0:0:0:
192,192,149386,128,0,149509:0:0:0:70:12_A7_122_480.wav
64,192,149632,128,0,149755:0:0:0:70:12_F#7_122_480.wav
448,192,149632,1,0,0:0:0:0:
192,192,149878,1,2,0:0:0:0:
320,192,149878,1,8,0:0:0:0:
448,192,149878,128,0,150001:0:0:0:70:12_E7_122_480.wav
64,192,150124,1,0,0:0:0:70:12_D7_122_480.wav
320,192,150124,128,0,150247:0:0:0:0:
192,192,150370,128,2,150616:0:0:0:0:
448,192,150370,1,0,0:0:0:70:12_E7_122_480.wav
64,192,150616,128,0,150739:0:0:0:70:12_D7_122_480.wav
320,192,150616,1,0,0:0:0:0:
192,192,150862,1,2,0:0:0:0:
320,192,150862,1,8,0:0:0:0:
448,192,150862,128,0,151107:0:0:0:70:12_E7_122_480.wav
64,192,151107,1,0,0:0:0:50:12_D7_122_480.wav
320,192,151107,128,0,151230:0:0:0:50:12_A7_122_480.wav
64,192,151353,1,2,0:0:0:0:
192,192,151353,128,0,151476:0:0:0:50:12_D7_122_480.wav
320,192,151476,1,8,0:0:0:0:
448,192,151476,1,0,0:0:0:0:
64,192,151845,1,2,0:0:0:0:
192,192,151845,1,8,0:0:0:0:
320,192,151845,128,0,152091:0:0:0:0:
192,192,152091,1,0,0:0:0:0:
448,192,152091,128,0,152337:0:0:0:0:
64,192,152337,128,2,152706:0:0:0:0:
320,192,152337,1,0,0:0:0:70:0_F#7_122_960.wav
448,192,152583,1,0,0:0:0:0:
192,192,152829,128,2,153321:0:0:0:0:
320,192,152829,1,8,0:0:0:0:
448,192,152829,1,0,0:0:0:70:12_B7_122_480.wav
320,192,153075,1,0,0:0:0:0:
64,192,153321,1,2,0:0:0:0:
448,192,153321,128,0,153443:0:0:0:70:12_A7_122_480.wav
64,192,153566,1,0,0:0:0:70:12_F#7_122_480.wav
320,192,153566,128,0,153689:0:0:0:0:
192,192,153812,128,2,153935:0:0:0:0:
320,192,153812,1,8,0:0:0:0:
448,192,153812,1,0,0:0:0:70:12_E7_122_480.wav
64,192,154058,128,0,154181:0:0:0:70:12_D7_122_480.wav
448,192,154058,1,0,0:0:0:0:
192,192,154304,1,2,0:0:0:0:
320,192,154304,128,0,154550:0:0:0:70:12_E7_122_480.wav
192,192,154550,128,0,154673:0:0:0:70:12_D7_122_480.wav
448,192,154550,1,0,0:0:0:0:
64,192,154796,128,2,155042:0:0:0:0:
320,192,154796,1,8,0:0:0:0:
448,192,154796,1,0,0:0:0:70:12_E7_122_480.wav
192,192,155042,128,0,155165:0:0:0:70:12_F#7_122_480.wav
320,192,155042,1,0,0:0:0:0:
320,192,155288,1,2,0:0:0:0:
448,192,155288,128,0,155411:0:0:0:70:12_F#7_122_480.wav
64,192,155534,128,0,155657:0:0:0:70:12_E7_122_480.wav
192,192,155534,1,0,0:0:0:0:
192,192,155780,128,2,156025:0:0:0:0:
320,192,155780,1,8,0:0:0:0:
448,192,155780,128,0,155902:0:0:0:60:12_A7_122_480.wav
64,192,156025,128,0,156271:0:0:0:60:12_C#7_122_480.wav
320,192,156025,128,0,156148:0:0:0:0:
192,192,156271,1,2,0:0:0:0:
448,192,156271,128,0,156517:0:0:0:70:12_D7_122_480.wav
320,192,156517,1,0,0:0:0:0:
64,192,156763,1,2,0:0:0:0:
192,192,156763,1,8,0:0:0:0:
320,192,156763,128,0,157009:0:0:0:70:12_E7_122_480.wav
64,192,157009,128,0,157255:0:0:0:70:12_F#7_122_480.wav
448,192,157009,1,0,0:0:0:0:
192,192,157255,1,2,0:0:0:0:
448,192,157255,128,0,157378:0:0:0:70:12_D7_122_480.wav
64,192,157501,1,0,0:0:0:70:12_A6_122_960.wav
320,192,157501,128,0,157624:0:0:0:0:
64,192,157747,1,2,0:0:0:0:
192,192,157747,128,8,157870:0:0:0:0:
448,192,157747,1,0,0:0:0:70:12_D7_122_480.wav
320,192,157993,1,0,0:0:0:70:12_F#7_122_480.wav
448,192,157993,128,0,158116:0:0:0:0:
64,192,158239,128,2,158484:0:0:0:0:
192,192,158239,1,0,0:0:0:70:12_G7_122_480.wav
320,192,158484,128,0,158607:0:0:0:70:12_F#7_122_480.wav
448,192,158484,1,0,0:0:0:0:
64,192,158730,1,10,0:0:0:0:
192,192,158730,1,0,0:0:0:50:12_E7_122_480.wav
448,192,158730,128,0,158976:0:0:0:50:12_G7_122_480.wav
192,192,158976,128,0,159099:0:0:0:70:12_D7_122_480.wav
320,192,158976,1,0,0:0:0:0:
320,192,159222,128,10,159345:0:0:0:0:
448,192,159222,1,0,0:0:0:70:12_E7_122_480.wav
64,192,159345,1,8,0:0:0:0:
192,192,159345,1,0,0:0:0:0:
64,192,159714,128,2,159960:0:0:0:0:
192,192,159714,1,8,0:0:0:0:
320,192,159714,1,0,0:0:0:0:
320,192,159960,1,8,0:0:0:0:
448,192,159960,1,0,0:0:0:0:
192,192,160083,1,8,0:0:0:0:
64,192,160206,1,2,0:0:0:0:
320,192,160206,1,0,0:0:0:70:0_F#7_122_960.wav
448,192,160206,128,0,160575:0:0:0:0:
192,192,160452,1,0,0:0:0:0:
64,192,160698,1,2,0:0:0:0:
192,192,160698,128,8,161189:0:0:0:0:
320,192,160698,1,0,0:0:0:70:12_B7_122_480.wav
320,192,160943,1,0,0:0:0:0:
64,192,161189,1,2,0:0:0:0:
448,192,161189,128,0,161312:0:0:0:70:12_A7_122_480.wav
192,192,161435,1,0,0:0:0:70:12_F#7_122_480.wav
320,192,161435,128,0,161558:0:0:0:0:
64,192,161681,1,2,0:0:0:0:
192,192,161681,128,8,161804:0:0:0:0:
448,192,161681,1,0,0:0:0:70:12_E7_122_480.wav
64,192,161927,128,0,162050:0:0:0:70:12_D7_122_480.wav
320,192,161927,1,0,0:0:0:0:
192,192,162173,1,2,0:0:0:0:
448,192,162173,128,0,162419:0:0:0:70:12_E7_122_480.wav
64,192,162419,1,0,0:0:0:70:12_D7_122_480.wav
320,192,162419,128,0,162542:0:0:0:0:
64,192,162665,128,2,162911:0:0:0:0:
192,192,162665,1,8,0:0:0:0:
448,192,162665,1,0,0:0:0:70:12_E7_122_480.wav
192,192,162911,128,0,163034:0:0:0:70:12_F#7_122_480.wav
320,192,162911,1,0,0:0:0:0:
64,192,163157,1,2,0:0:0:0:
448,192,163157,128,0,163280:0:0:0:70:12_F#7_122_480.wav
320,192,163402,128,0,163525:0:0:0:70:12_E7_122_480.wav
64,192,163648,128,2,163894:0:0:0:0:
192,192,163648,128,8,163771:0:0:0:0:
448,192,163648,1,0,0:0:0:60:12_A7_122_480.wav
320,192,163894,128,0,164017:0:0:0:60:12_C#7_122_480.wav
448,192,163894,128,0,164140:0:0:0:0:
64,192,164140,1,2,0:0:0:0:
192,192,164140,128,0,164509:0:0:0:70:0_F#7_122_960.wav
320,192,164386,1,0,0:0:0:0:
64,192,164632,1,2,0:0:0:0:
320,192,164632,1,8,0:0:0:0:
448,192,164632,128,0,165001:0:0:0:70:12_D8_122_960.wav
64,192,164878,1,0,0:0:0:0:
192,192,165124,128,2,165247:0:0:0:0:
320,192,165124,1,0,0:0:0:70:12_C#8_122_480.wav
64,192,165370,128,0,165493:0:0:0:70:12_A7_122_480.wav
320,192,165370,1,0,0:0:0:0:
64,192,165616,1,2,0:0:0:0:
192,192,165616,1,8,0:0:0:0:
448,192,165616,128,0,165739:0:0:0:70:12_F#7_122_480.wav
192,192,165862,1,0,0:0:0:50:12_A7_122_480.wav
320,192,165862,128,0,165984:0:0:0:50:12_D7_122_480.wav
64,192,166107,128,2,166353:0:0:0:0:
448,192,166107,1,0,0:0:0:70:12_E7_122_480.wav
192,192,166353,128,0,166476:0:0:0:70:12_D7_122_480.wav
320,192,166353,1,0,0:0:0:0:
64,192,166599,1,2,0:0:0:0:
320,192,166599,1,8,0:0:0:0:
448,192,166599,128,0,166845:0:0:0:70:12_E7_122_480.wav
192,192,166845,1,0,0:0:0:70:12_A7_122_480.wav
320,192,166845,128,0,166968:0:0:0:0:
64,192,167091,128,2,167214:0:0:0:0:
192,192,167091,1,0,0:0:0:70:12_F#7_122_480.wav
320,192,167214,1,8,0:0:0:0:
448,192,167214,1,0,0:0:0:0:
64,192,167583,128,2,167829:0:0:0:0:
192,192,167583,1,8,0:0:0:0:
448,192,167583,1,0,0:0:0:0:
320,192,167829,128,0,168075:0:0:0:0:
448,192,167829,1,0,0:0:0:0:
64,192,168075,1,2,0:0:0:0:
192,192,168075,128,0,168443:0:0:0:70:0_F#7_122_960.wav
448,192,168321,1,0,0:0:0:0:
64,192,168566,1,2,0:0:0:0:
320,192,168566,128,8,169058:0:0:0:0:
448,192,168566,1,0,0:0:0:70:12_B7_122_480.wav
192,192,168812,1,0,0:0:0:0:
64,192,169058,1,2,0:0:0:0:
448,192,169058,128,0,169181:0:0:0:70:12_A7_122_480.wav
64,192,169304,1,0,0:0:0:70:12_F#7_122_480.wav
320,192,169304,128,0,169427:0:0:0:0:
192,192,169550,128,2,169673:0:0:0:0:
320,192,169550,1,8,0:0:0:0:
448,192,169550,1,0,0:0:0:70:12_E7_122_480.wav
64,192,169796,128,0,169919:0:0:0:70:12_D7_122_480.wav
448,192,169796,1,0,0:0:0:0:
192,192,170042,1,2,0:0:0:0:
320,192,170042,128,0,170288:0:0:0:70:12_E7_122_480.wav
64,192,170288,1,0,0:0:0:70:12_D7_122_480.wav
448,192,170288,128,0,170411:0:0:0:0:
64,192,170534,128,2,170780:0:0:0:0:
192,192,170534,1,8,0:0:0:0:
320,192,170534,1,0,0:0:0:70:12_E7_122_480.wav
192,192,170780,128,0,170902:0:0:0:70:12_F#7_122_480.wav
448,192,170780,1,0,0:0:0:0:
320,192,171025,128,2,171148:0:0:0:0:
448,192,171025,1,0,0:0:0:70:12_F#7_122_480.wav
64,192,171271,128,0,171394:0:0:0:70:12_E7_122_480.wav
192,192,171517,1,2,0:0:0:0:
320,192,171517,128,8,171640:0:0:0:0:
448,192,171517,128,0,171763:0:0:0:60:12_A7_122_480.wav
64,192,171763,128,0,171886:0:0:0:60:12_C#7_122_480.wav
192,192,171763,128,0,172009:0:0:0:0:
320,192,172009,128,2,172378:0:0:0:0:
448,192,172009,1,0,0:0:0:70:12_D7_122_480.wav
192,192,172255,1,0,0:0:0:0:
64,192,172501,1,2,0:0:0:0:
192,192,172501,1,8,0:0:0:0:
448,192,172501,128,0,172747:0:0:0:70:12_E7_122_480.wav
64,192,172747,128,0,172993:0:0:0:70:12_F#7_122_480.wav
320,192,172747,1,0,0:0:0:0:
192,192,172993,128,2,173239:0:0:0:0:
448,192,172993,1,0,0:0:0:70:12_D7_122_480.wav
64,192,173239,128,0,173484:0:0:0:70:12_A6_122_960.wav
320,192,173239,1,0,0:0:0:0:
192,192,173484,1,2,0:0:0:0:
320,192,173484,1,8,0:0:0:0:
448,192,173484,128,0,173730:0:0:0:70:12_D7_122_480.wav
64,192,173730,1,0,0:0:0:70:12_F#7_122_480.wav
320,192,173730,128,0,173976:0:0:0:0:
192,192,173976,128,2,174222:0:0:0:0:
448,192,173976,1,0,0:0:0:70:12_G7_122_480.wav
64,192,174222,128,0,174345:0:0:0:70:12_F#7_122_480.wav
320,192,174222,1,0,0:0:0:0:
192,192,174468,1,2,0:0:0:0:
448,192,174468,128,0,174714:0:0:0:50:12_E7_122_480.wav
320,192,174468,1,8,0:0:0:0:
64,192,174714,1,0,0:0:0:70:12_D7_122_480.wav
320,192,174714,128,0,174837:0:0:0:0:
64,192,174960,1,10,0:0:0:0:
192,192,174960,1,0,0:0:0:70:12_D7_122_480.wav
320,192,175083,1,8,0:0:0:0:
448,192,175083,1,0,0:0:0:0:
64,192,175206,1,0,0:0:0:0:
192,192,175206,1,0,0:0:0:0:
320,192,175329,1,8,0:0:0:0:
64,192,175452,1,2,0:0:0:0:
192,192,175452,1,8,0:0:0:0:
448,192,175452,1,0,0:0:0:0:
320,192,175698,1,8,0:0:0:0:
448,192,175698,1,2,0:0:0:0:
192,192,175821,1,8,0:0:0:0:
64,192,175943,1,2,0:0:0:0:
320,192,175943,1,4,0:0:0:0:
448,192,175943,1,0,0:0:0:0:
192,192,176189,1,0,0:0:0:0:
64,192,176435,1,2,0:0:0:0:
448,192,176435,128,8,176927:0:0:0:0:
320,192,176435,1,0,0:0:0:0:
320,192,176681,1,0,0:0:0:0:
64,192,176927,128,2,177419:0:0:0:0:
192,192,176927,1,0,0:0:0:0:
320,192,177173,1,0,0:0:0:0:
192,192,177419,128,2,177911:0:0:0:0:
448,192,177419,1,8,0:0:0:0:
320,192,177542,1,0,0:0:0:0:
64,192,177665,1,0,0:0:0:0:
320,192,177911,1,2,0:0:0:0:
448,192,177911,128,0,178402:0:0:0:70:0_F#6_122_960.wav
64,192,178157,1,0,0:0:0:0:
192,192,178402,1,10,0:0:0:0:
320,192,178402,128,0,178894:0:0:0:70:0_E6_122_960.wav
64,192,178402,1,0,0:0:0:0:
448,192,178648,1,0,0:0:0:0:
64,192,178894,1,2,0:0:0:0:
192,192,178894,128,0,179386:0:0:0:70:0_D6_122_960.wav
320,192,179140,1,0,0:0:0:0:
64,192,179386,128,10,179878:0:0:0:0:
448,192,179386,1,0,0:0:0:70:0_E6_122_960.wav
320,192,179509,1,0,0:0:0:0:
192,192,179632,1,0,0:0:0:0:
320,192,179878,1,2,0:0:0:0:
448,192,179878,1,0,0:0:0:0:
64,192,180124,1,0,0:0:0:0:
192,192,180370,128,2,180862:0:0:0:0:
448,192,180370,1,8,0:0:0:0:
64,192,180370,1,0,0:0:0:0:
320,192,180616,1,0,0:0:0:0:
64,192,180862,1,2,0:0:0:0:
448,192,180862,128,0,181353:0:0:0:0:
192,192,181107,1,0,0:0:0:0:
64,192,181353,1,2,0:0:0:0:
320,192,181353,128,8,181845:0:0:0:0:
192,192,181476,1,0,0:0:0:0:
448,192,181599,1,0,0:0:0:0:
64,192,181845,128,2,182337:0:0:0:0:
192,192,181845,1,0,0:0:0:70:0_E6_122_960.wav
448,192,182091,1,0,0:0:0:0:
192,192,182337,128,10,182829:0:0:0:0:
320,192,182337,1,0,0:0:0:70:0_F#6_122_960.wav
448,192,182337,1,0,0:0:0:0:
64,192,182583,1,0,0:0:0:0:
320,192,182829,1,2,0:0:0:0:
448,192,182829,128,0,183321:0:0:0:70:0_D6_122_960.wav
64,192,182952,1,8,0:0:0:0:
192,192,182952,1,0,0:0:0:0:
64,192,183321,1,2,0:0:0:0:
320,192,183321,128,0,183812:0:0:0:70:0_E6_122_960.wav
192,192,183443,1,0,0:0:0:0:
448,192,183566,1,0,0:0:0:0:
64,192,183812,1,2,0:0:0:0:
192,192,183812,1,0,0:0:0:0:
320,192,184058,1,0,0:0:0:0:
64,192,184304,1,2,0:0:0:0:
192,192,184304,128,8,184796:0:0:0:0:
448,192,184304,1,0,0:0:0:0:
320,192,184550,1,0,0:0:0:0:
64,192,184796,1,2,0:0:0:0:
448,192,184796,128,0,185288:0:0:0:0:
320,192,185042,1,0,0:0:0:0:
64,192,185288,128,2,185780:0:0:0:0:
192,192,185288,1,8,0:0:0:0:
320,192,185411,1,0,0:0:0:0:
448,192,185534,1,0,0:0:0:0:
192,192,185780,1,2,0:0:0:0:
320,192,185780,128,0,186271:0:0:0:70:0_F#6_122_960.wav
64,192,186025,1,0,0:0:0:0:
192,192,186271,1,10,0:0:0:0:
448,192,186271,128,0,186763:0:0:0:70:0_E6_122_960.wav
64,192,186271,1,0,0:0:0:0:
320,192,186517,1,0,0:0:0:0:
64,192,186763,1,2,0:0:0:0:
192,192,186763,128,0,187255:0:0:0:70:0_D6_122_960.wav
320,192,187009,1,0,0:0:0:0:
64,192,187255,1,10,0:0:0:0:
448,192,187255,1,0,0:0:0:70:0_E6_122_960.wav
320,192,187378,1,0,0:0:0:0:
64,192,187501,128,0,190698:0:0:0:70:0_E6_122_960.wav
192,192,187501,1,0,0:0:0:0:
320,192,187747,1,2,0:0:0:0:
448,192,187747,1,0,0:0:0:0:
448,192,187993,1,0,0:0:0:0:
192,192,188239,1,2,0:0:0:0:
320,192,188239,1,8,0:0:0:0:
192,192,188484,1,0,0:0:0:0:
320,192,188730,1,2,0:0:0:0:
448,192,188730,1,0,0:0:0:0:
320,192,188976,1,0,0:0:0:0:
192,192,189222,1,2,0:0:0:0:
448,192,189222,1,8,0:0:0:0:
320,192,189345,1,0,0:0:0:0:
192,192,189468,1,0,0:0:0:0:
320,192,189714,1,2,0:0:0:0:
448,192,189714,1,0,0:0:0:0:
448,192,189960,1,0,0:0:0:0:
192,192,190206,1,2,0:0:0:0:
320,192,190206,1,8,0:0:0:0:
192,192,190452,1,0,0:0:0:0:
320,192,190698,1,2,0:0:0:0:
448,192,190698,1,0,0:0:0:0:
320,192,190943,1,0,0:0:0:0:
448,192,191189,1,10,0:0:0:0:
64,192,191189,1,0,0:0:0:0:
192,192,191189,1,0,0:0:0:70:0_D6_122_960.wav
320,192,191312,1,0,0:0:0:0:
64,192,191435,1,0,0:0:0:70:0_E6_122_960.wav
192,192,191435,128,0,191681:0:0:0:0:
320,192,191681,1,2,0:0:0:0:
448,192,191681,128,0,193648:0:0:0:70:0_A6_122_960.wav
64,192,191927,1,0,0:0:0:0:
192,192,192173,1,2,0:0:0:0:
320,192,192173,1,8,0:0:0:0:
320,192,192419,1,0,0:0:0:0:
64,192,192665,1,2,0:0:0:0:
192,192,192665,1,0,0:0:0:0:
192,192,192911,1,0,0:0:0:0:
64,192,193157,1,2,0:0:0:0:
320,192,193157,1,8,0:0:0:0:
192,192,193280,1,0,0:0:0:0:
320,192,193402,1,0,0:0:0:0:
64,192,193648,1,2,0:0:0:0:
192,192,193648,1,0,0:0:0:0:
320,192,193894,1,0,0:0:0:0:
64,192,194140,1,2,0:0:0:0:
192,192,194140,1,8,0:0:0:0:
448,192,194140,1,0,0:0:0:0:
448,192,194386,1,0,0:0:0:0:
64,192,194632,1,2,0:0:0:0:
192,192,194632,1,0,0:0:0:0:
64,192,194878,1,2,0:0:0:0:
320,192,194878,1,8,0:0:0:0:
448,192,194878,1,0,0:0:0:0:
64,192,195124,128,2,195247:0:0:0:0:
320,192,195124,1,8,0:0:0:0:
448,192,195124,1,0,0:0:0:0:
192,192,195247,128,0,195370:0:0:0:0:
320,192,195370,128,8,195493:0:0:0:0:
448,192,195493,128,8,195616:0:0:0:0:
64,192,195616,128,2,196107:0:0:0:0:
192,192,195616,1,4,0:0:0:0:
320,192,195616,1,0,0:0:0:0:
448,192,195862,1,0,0:0:0:0:
192,192,196107,128,2,197091:0:0:0:0:
320,192,196107,1,8,0:0:0:0:
448,192,196107,1,0,0:0:0:0:
320,192,196353,1,0,0:0:0:0:
64,192,196599,1,2,0:0:0:0:
448,192,196599,1,0,0:0:0:0:
448,192,196845,1,0,0:0:0:0:
64,192,197091,1,2,0:0:0:0:
320,192,197091,128,8,197583:0:0:0:0:
448,192,197091,1,0,0:0:0:0:
64,192,197337,1,0,0:0:0:0:
192,192,197583,1,2,0:0:0:0:
448,192,197583,128,0,198075:0:0:0:0:
64,192,197829,1,0,0:0:0:0:
64,192,198075,1,2,0:0:0:0:
192,192,198075,1,8,0:0:0:0:
320,192,198075,128,0,198566:0:0:0:0:
448,192,198321,1,0,0:0:0:0:
64,192,198566,1,2,0:0:0:0:
192,192,198566,128,0,199058:0:0:0:0:
448,192,198812,1,0,0:0:0:0:
64,192,199058,128,2,199550:0:0:0:0:
320,192,199058,1,8,0:0:0:0:
448,192,199058,1,0,0:0:0:0:
192,192,199304,1,0,0:0:0:0:
320,192,199550,128,2,200042:0:0:0:0:
448,192,199550,1,0,0:0:0:0:
64,192,199796,1,0,0:0:0:0:
64,192,200042,1,2,0:0:0:0:
192,192,200042,128,8,201025:0:0:0:0:
448,192,200042,1,0,0:0:0:0:
320,192,200288,1,0,0:0:0:0:
64,192,200534,1,2,0:0:0:0:
448,192,200534,1,0,0:0:0:0:
320,192,200780,1,0,0:0:0:0:
64,192,201025,1,2,0:0:0:0:
320,192,201025,1,8,0:0:0:0:
448,192,201025,128,0,201517:0:0:0:0:
192,192,201271,1,0,0:0:0:0:
64,192,201517,128,2,202009:0:0:0:0:
320,192,201517,1,0,0:0:0:0:
448,192,201763,1,0,0:0:0:0:
192,192,202009,128,2,202993:0:0:0:0:
320,192,202009,1,8,0:0:0:0:
448,192,202009,1,0,0:0:0:0:
64,192,202255,1,0,0:0:0:0:
64,192,202501,1,2,0:0:0:0:
448,192,202501,1,0,0:0:0:0:
320,192,202747,1,0,0:0:0:0:
64,192,202993,1,2,0:0:0:0:
320,192,202993,1,8,0:0:0:0:
448,192,202993,1,0,0:0:0:0:
64,192,203239,1,8,0:0:0:0:
192,192,203239,1,0,0:0:0:0:
320,192,203362,1,8,0:0:0:0:
448,192,203362,1,0,0:0:0:0:
64,192,203484,1,2,0:0:0:0:
192,192,203484,1,0,0:0:0:0:
320,192,203730,1,0,0:0:0:0:
448,192,203730,128,0,203853:0:0:0:0:
64,192,203976,1,2,0:0:0:0:
192,192,203976,1,8,0:0:0:0:
320,192,203976,128,0,204222:0:0:0:0:
64,192,204222,128,0,204345:0:0:0:0:
448,192,204222,1,0,0:0:0:0:
192,192,204468,128,2,204714:0:0:0:0:
320,192,204468,1,0,0:0:0:0:
64,192,204714,1,0,0:0:0:0:
448,192,204714,128,0,205206:0:0:0:0:
64,192,204960,1,2,0:0:0:0:
192,192,204960,1,8,0:0:0:0:
192,192,205206,1,0,0:0:0:0:
320,192,205206,128,0,205698:0:0:0:0:
64,192,205452,1,2,0:0:0:0:
448,192,205452,1,0,0:0:0:0:
192,192,205698,128,0,205943:0:0:0:0:
448,192,205698,1,0,0:0:0:0:
64,192,205943,1,2,0:0:0:0:
320,192,205943,1,8,0:0:0:0:
448,192,205943,128,0,206189:0:0:0:0:
64,192,206189,128,0,206681:0:0:0:0:
192,192,206189,1,0,0:0:0:0:
320,192,206435,1,2,0:0:0:0:
192,192,206681,128,0,206927:0:0:0:0:
448,192,206681,1,0,0:0:0:0:
64,192,206927,1,2,0:0:0:0:
320,192,206927,128,8,207173:0:0:0:0:
448,192,206927,1,0,0:0:0:0:
192,192,207173,1,0,0:0:0:0:
448,192,207173,128,0,209878:0:0:0:0:
64,192,207419,1,2,0:0:0:0:
320,192,207419,1,0,0:0:0:0:
64,192,207665,1,0,0:0:0:0:
192,192,207911,1,8,0:0:0:0:
320,192,207911,1,2,0:0:0:0:
192,192,208157,1,0,0:0:0:0:
64,192,208402,1,2,0:0:0:0:
320,192,208402,1,0,0:0:0:0:
320,192,208648,1,0,0:0:0:0:
64,192,208894,1,2,0:0:0:0:
192,192,208894,1,8,0:0:0:0:
64,192,209140,1,0,0:0:0:0:
192,192,209386,1,2,0:0:0:0:
320,192,209386,1,0,0:0:0:0:
64,192,209632,1,0,0:0:0:0:
64,192,209878,128,2,210370:0:0:0:0:
192,192,209878,1,8,0:0:0:0:
320,192,209878,1,0,0:0:0:0:
448,192,210124,1,0,0:0:0:0:
192,192,210370,1,2,0:0:0:0:
320,192,210370,128,0,210862:0:0:0:0:
64,192,210616,1,0,0:0:0:0:
64,192,210862,1,2,0:0:0:0:
192,192,210862,1,8,0:0:0:0:
448,192,210862,128,0,211353:0:0:0:0:
320,192,211107,1,0,0:0:0:0:
64,192,211353,128,2,212337:0:0:0:0:
192,192,211353,1,0,0:0:0:0:
320,192,211599,1,0,0:0:0:0:
192,192,211845,1,2,0:0:0:0:
448,192,211845,1,8,0:0:0:0:
192,192,212091,1,0,0:0:0:0:
320,192,212337,1,2,0:0:0:0:
448,192,212337,1,0,0:0:0:0:
64,192,212583,1,2,0:0:0:0:
192,192,212583,1,0,0:0:0:0:
64,192,212829,1,2,0:0:0:0:
320,192,212829,1,8,0:0:0:0:
448,192,212829,1,0,0:0:0:0:
192,192,213075,1,2,0:0:0:0:
320,192,213075,1,0,0:0:0:0:
64,192,213321,1,2,0:0:0:0:
192,192,213321,1,8,0:0:0:0:
448,192,213321,1,0,0:0:0:0:
64,192,213566,1,0,0:0:0:0:
448,192,213812,1,0,0:0:0:0:
448,192,214058,1,0,0:0:0:0:
320,192,214304,1,0,0:0:0:0:
320,192,214550,1,0,0:0:0:0:
192,192,214796,128,0,215042:0:0:0:0:
320,192,215042,128,0,215288:0:0:0:0:
64,192,215288,128,2,215780:0:0:0:0:
448,192,215288,1,0,0:0:0:0:
320,192,215780,128,2,216271:0:0:0:0:
448,192,215780,1,0,0:0:0:70:12_B7_122_480.wav
64,192,216271,1,2,0:0:0:0:
448,192,216271,128,0,216394:0:0:0:70:12_A7_122_480.wav
64,192,216517,1,0,0:0:0:70:12_F#7_122_480.wav
320,192,216517,128,0,216640:0:0:0:0:
192,192,216763,128,2,216886:0:0:0:0:
448,192,216763,1,0,0:0:0:70:12_E7_122_480.wav
64,192,217009,128,0,217132:0:0:0:70:12_D7_122_480.wav
448,192,217009,1,0,0:0:0:0:
192,192,217255,1,2,0:0:0:0:
320,192,217255,128,0,217378:0:0:0:70:12_E7_122_480.wav
64,192,217501,128,0,217624:0:0:0:70:12_D7_122_480.wav
448,192,217501,1,0,0:0:0:0:
192,192,217747,128,2,217870:0:0:0:0:
448,192,217747,1,0,0:0:0:70:12_E7_122_480.wav
64,192,217993,1,0,0:0:0:70:12_F#7_122_480.wav
320,192,217993,128,0,218116:0:0:0:0:
64,192,218239,1,2,0:0:0:0:
448,192,218239,128,0,218362:0:0:0:70:12_F#7_122_480.wav
192,192,218484,128,0,218607:0:0:0:70:12_E7_122_480.wav
320,192,218730,128,2,218853:0:0:0:0:
448,192,218730,128,0,218976:0:0:0:60:12_A7_122_480.wav
64,192,218976,128,0,219099:0:0:0:60:12_C#7_122_480.wav
192,192,218976,128,0,219222:0:0:0:0:
320,192,219222,128,2,219714:0:0:0:0:
448,192,219222,1,0,0:0:0:70:12_D7_122_480.wav
64,192,219714,128,2,220206:0:0:0:0:
448,192,219714,1,0,0:0:0:70:12_B7_122_480.wav
192,192,220206,1,2,0:0:0:0:
448,192,220206,128,0,220329:0:0:0:70:12_A7_122_480.wav
64,192,220452,1,0,0:0:0:70:12_F#7_122_480.wav
320,192,220452,128,0,220575:0:0:0:0:
192,192,220698,128,2,220821:0:0:0:0:
448,192,220698,1,0,0:0:0:70:12_E7_122_480.wav
64,192,220943,128,0,221066:0:0:0:70:12_D7_122_480.wav
320,192,220943,1,0,0:0:0:0:
320,192,221189,128,2,221312:0:0:0:0:
448,192,221189,1,0,0:0:0:70:12_E7_122_480.wav
192,192,221435,128,0,221558:0:0:0:70:12_D7_122_480.wav
64,192,221681,128,2,221804:0:0:0:0:
448,192,221681,128,0,221804:0:0:0:70:12_E7_122_480.wav
320,192,221927,128,0,222050:0:0:0:50:12_D7_122_480.wav
448,192,221927,128,0,222050:0:0:0:50:12_A7_122_480.wav
64,192,222173,128,2,222296:0:0:0:0:
192,192,222173,128,0,222296:0:0:0:50:12_D7_122_480.wav
64,192,222665,128,2,222911:0:0:0:0:
192,192,222665,1,0,0:0:0:0:
320,192,222911,128,0,223157:0:0:0:0:
448,192,222911,1,0,0:0:0:0:
64,192,223157,1,2,0:0:0:0:
192,192,223157,128,0,223648:0:0:0:0:
448,192,223402,1,0,0:0:0:0:
64,192,223648,1,2,0:0:0:0:
320,192,223648,128,0,224140:0:0:0:70:12_B7_122_480.wav
64,192,223894,1,0,0:0:0:0:
192,192,224140,1,2,0:0:0:0:
448,192,224140,128,0,224263:0:0:0:70:12_A7_122_480.wav
64,192,224386,1,0,0:0:0:70:12_F#7_122_480.wav
320,192,224386,128,0,224509:0:0:0:0:
192,192,224632,128,2,224755:0:0:0:0:
448,192,224632,1,0,0:0:0:70:12_E7_122_480.wav
64,192,224878,128,0,225001:0:0:0:70:12_D7_122_480.wav
320,192,224878,1,0,0:0:0:0:
320,192,225124,128,2,225247:0:0:0:0:
448,192,225124,1,0,0:0:0:70:12_E7_122_480.wav
64,192,225370,128,0,225493:0:0:0:70:12_D7_122_480.wav
192,192,225370,1,0,0:0:0:0:
192,192,225616,1,2,0:0:0:0:
320,192,225616,128,0,225739:0:0:0:70:12_E7_122_480.wav
64,192,225862,1,0,0:0:0:70:12_F#7_122_480.wav
448,192,225862,128,0,225984:0:0:0:0:
192,192,226107,128,2,226230:0:0:0:0:
320,192,226107,1,0,0:0:0:70:12_F#7_122_480.wav
448,192,226353,128,0,226476:0:0:0:70:12_E7_122_480.wav
320,192,226476,1,0,0:0:0:0:
64,192,226599,128,2,226722:0:0:0:0:
192,192,226599,128,0,226845:0:0:0:60:12_A7_122_480.wav
320,192,226845,128,0,227091:0:0:0:60:12_C#7_122_480.wav
448,192,226845,128,0,226968:0:0:0:0:
64,192,227091,128,0,227337:0:0:0:0:
192,192,227091,1,0,0:0:0:0:
448,192,227583,128,0,227829:0:0:0:0:
320,192,227829,128,0,228075:0:0:0:0:
64,192,228075,128,0,228321:0:0:0:0:
192,192,228321,128,0,228566:0:0:0:0:
320,192,228566,128,0,228812:0:0:0:0:
448,192,228812,128,0,229058:0:0:0:0:
64,192,229058,128,2,229304:0:0:0:0:
192,192,229058,1,8,0:0:0:0:
320,192,229058,1,0,0:0:0:70:12_G7_122_480.wav
192,192,229304,128,2,229550:0:0:0:0:
448,192,229304,1,0,0:0:0:70:12_F#7_122_480.wav
64,192,229550,1,10,0:0:0:0:
320,192,229550,1,0,0:0:0:70:12_E7_122_480.wav
448,192,229550,128,0,229796:0:0:0:50:12_G7_122_480.wav
192,192,229796,1,2,0:0:0:0:
320,192,229796,128,0,230042:0:0:0:70:12_D7_122_480.wav
64,192,230042,1,2,0:0:0:0:
192,192,230042,128,8,230288:0:0:0:0:
448,192,230042,1,0,0:0:0:70:12_E7_122_480.wav
64,192,230288,1,2,0:0:0:0:
448,192,230288,1,0,0:0:0:0:
320,192,230411,1,2,0:0:0:0:
64,192,230534,128,2,230780:0:0:0:0:
192,192,230534,1,8,0:0:0:0:
448,192,230534,1,0,0:0:0:0:
192,192,230780,128,2,231025:0:0:0:0:
64,192,231025,1,2,0:0:0:0:
320,192,231025,1,4,0:0:0:0:
448,192,231025,128,0,231394:0:0:0:70:0_F#7_122_960.wav
192,192,231271,1,0,0:0:0:0:
64,192,231517,1,2,0:0:0:0:
192,192,231517,128,8,232009:0:0:0:0:
320,192,231517,1,0,0:0:0:70:12_B7_122_480.wav
320,192,231763,1,0,0:0:0:0:
64,192,232009,1,2,0:0:0:0:
448,192,232009,128,0,232132:0:0:0:70:12_A7_122_480.wav
192,192,232255,1,0,0:0:0:70:12_F#7_122_480.wav
320,192,232255,128,0,232378:0:0:0:0:
64,192,232501,1,2,0:0:0:0:
192,192,232501,128,8,232624:0:0:0:0:
448,192,232501,1,0,0:0:0:70:12_E7_122_480.wav
64,192,232747,128,0,232870:0:0:0:70:12_D7_122_480.wav
320,192,232747,1,0,0:0:0:0:
192,192,232993,1,2,0:0:0:0:
448,192,232993,128,0,233239:0:0:0:70:12_E7_122_480.wav
64,192,233239,1,0,0:0:0:70:12_D7_122_480.wav
320,192,233239,128,0,233362:0:0:0:0:
64,192,233484,128,2,233730:0:0:0:0:
192,192,233484,1,8,0:0:0:0:
448,192,233484,1,0,0:0:0:70:12_E7_122_480.wav
192,192,233730,128,0,233853:0:0:0:70:12_F#7_122_480.wav
320,192,233730,1,0,0:0:0:0:
64,192,233976,1,2,0:0:0:0:
448,192,233976,128,0,234099:0:0:0:70:12_F#7_122_480.wav
320,192,234222,128,0,234345:0:0:0:70:12_E7_122_480.wav
64,192,234468,128,2,234714:0:0:0:0:
192,192,234468,128,8,234591:0:0:0:0:
448,192,234468,1,0,0:0:0:60:12_A7_122_480.wav
320,192,234714,128,0,234837:0:0:0:60:12_C#7_122_480.wav
448,192,234714,128,0,234960:0:0:0:0:
64,192,234960,1,2,0:0:0:0:
192,192,234960,128,0,235329:0:0:0:70:0_F#7_122_960.wav
320,192,235206,1,0,0:0:0:0:
64,192,235452,1,8,0:0:0:0:
320,192,235452,1,2,0:0:0:0:
448,192,235452,128,0,235943:0:0:0:70:12_D8_122_960.wav
64,192,235698,1,0,0:0:0:0:
192,192,235943,128,2,236066:0:0:0:0:
320,192,235943,1,0,0:0:0:70:12_C#8_122_480.wav
64,192,236189,128,0,236312:0:0:0:70:12_A7_122_480.wav
320,192,236189,1,0,0:0:0:0:
64,192,236435,1,2,0:0:0:0:
192,192,236435,1,8,0:0:0:0:
448,192,236435,128,0,236558:0:0:0:70:12_F#7_122_480.wav
192,192,236681,1,0,0:0:0:50:12_D7_122_480.wav
320,192,236681,128,0,236804:0:0:0:50:12_A7_122_480.wav
64,192,236927,128,2,237173:0:0:0:0:
448,192,236927,1,0,0:0:0:70:12_E7_122_480.wav
192,192,237173,128,0,237296:0:0:0:70:12_D7_122_480.wav
320,192,237173,1,0,0:0:0:0:
64,192,237419,1,2,0:0:0:0:
320,192,237419,1,8,0:0:0:0:
448,192,237419,128,0,237665:0:0:0:70:12_E7_122_480.wav
192,192,237665,1,0,0:0:0:70:12_A7_122_480.wav
320,192,237665,128,0,237788:0:0:0:0:
64,192,237911,128,2,238034:0:0:0:0:
192,192,237911,1,0,0:0:0:70:12_F#7_122_480.wav
320,192,238034,1,8,0:0:0:0:
448,192,238034,1,0,0:0:0:0:
64,192,238402,128,2,238648:0:0:0:0:
192,192,238402,1,8,0:0:0:0:
448,192,238402,1,0,0:0:0:0:
320,192,238648,128,0,238894:0:0:0:0:
448,192,238648,1,0,0:0:0:0:
64,192,238894,1,2,0:0:0:0:
192,192,238894,128,0,239263:0:0:0:70:0_F#7_122_960.wav
448,192,239140,1,0,0:0:0:0:
64,192,239386,1,2,0:0:0:0:
320,192,239386,128,8,239878:0:0:0:0:
448,192,239386,1,0,0:0:0:70:12_B7_122_480.wav
192,192,239632,1,0,0:0:0:0:
64,192,239878,1,2,0:0:0:0:
448,192,239878,128,0,240001:0:0:0:70:12_A7_122_480.wav
64,192,240124,1,0,0:0:0:70:12_F#7_122_480.wav
320,192,240124,128,0,240247:0:0:0:0:
192,192,240370,128,8,240493:0:0:0:0:
320,192,240370,1,2,0:0:0:0:
448,192,240370,1,0,0:0:0:70:12_E7_122_480.wav
64,192,240616,128,0,240739:0:0:0:70:12_D7_122_480.wav
448,192,240616,1,0,0:0:0:0:
192,192,240862,1,2,0:0:0:0:
320,192,240862,128,0,241107:0:0:0:70:12_E7_122_480.wav
64,192,241107,1,0,0:0:0:70:12_D7_122_480.wav
448,192,241107,128,0,241230:0:0:0:0:
64,192,241353,128,2,241599:0:0:0:0:
192,192,241353,1,8,0:0:0:0:
320,192,241353,1,0,0:0:0:70:12_E7_122_480.wav
192,192,241599,128,0,241722:0:0:0:70:12_F#7_122_480.wav
448,192,241599,1,0,0:0:0:0:
320,192,241845,128,2,241968:0:0:0:0:
448,192,241845,1,0,0:0:0:70:12_F#7_122_480.wav
64,192,242091,128,0,242214:0:0:0:70:12_E7_122_480.wav
192,192,242337,1,2,0:0:0:0:
320,192,242337,128,8,242460:0:0:0:0:
448,192,242337,128,0,242583:0:0:0:60:12_A7_122_480.wav
64,192,242583,128,0,242706:0:0:0:60:12_C#7_122_480.wav
192,192,242583,128,0,242829:0:0:0:0:
320,192,242829,128,2,243198:0:0:0:0:
448,192,242829,1,0,0:0:0:70:12_D7_122_480.wav
192,192,243075,1,0,0:0:0:0:
64,192,243321,1,2,0:0:0:0:
192,192,243321,1,8,0:0:0:0:
448,192,243321,128,0,243566:0:0:0:70:12_E7_122_480.wav
64,192,243566,1,0,0:0:0:70:12_F#7_122_480.wav
320,192,243566,128,0,243812:0:0:0:0:
192,192,243812,128,2,244058:0:0:0:0:
448,192,243812,1,0,0:0:0:70:12_D7_122_480.wav
64,192,244058,128,0,244304:0:0:0:70:12_A6_122_960.wav
320,192,244058,1,0,0:0:0:0:
192,192,244304,1,2,0:0:0:0:
320,192,244304,1,8,0:0:0:0:
448,192,244304,128,0,244550:0:0:0:70:12_D7_122_480.wav
64,192,244550,1,0,0:0:0:70:12_F#7_122_480.wav
320,192,244550,128,0,244796:0:0:0:0:
192,192,244796,128,2,245042:0:0:0:0:
448,192,244796,1,0,0:0:0:70:12_G7_122_480.wav
64,192,245042,128,0,245165:0:0:0:70:12_F#7_122_480.wav
320,192,245042,1,0,0:0:0:0:
192,192,245288,1,10,0:0:0:0:
448,192,245288,128,0,245534:0:0:0:50:12_E7_122_480.wav
64,192,245534,1,0,0:0:0:70:12_D7_122_480.wav
320,192,245534,128,0,245657:0:0:0:0:
64,192,245780,1,10,0:0:0:0:
192,192,245780,128,0,245902:0:0:0:70:12_D7_122_480.wav
320,192,246025,1,0,0:0:0:0:
448,192,246025,1,0,0:0:0:0:
192,192,246148,1,10,0:0:0:0:
64,192,246271,1,8,0:0:0:0:
320,192,246271,128,0,246394:0:0:0:0:
448,192,246271,1,0,0:0:0:0:
64,192,246517,128,8,246640:0:0:0:0:
192,192,246517,1,0,0:0:0:0:
320,192,246763,1,2,0:0:0:0:
448,192,246763,128,0,246886:0:0:0:0:
192,192,247255,128,0,247501:0:0:0:0:
64,192,247501,128,0,247747:0:0:0:0:
320,192,247747,128,2,247993:0:0:0:0:
448,192,247747,1,0,0:0:0:70:12_D7_122_480.wav
448,192,247993,128,0,248239:0:0:0:70:12_A6_122_960.wav
64,192,248239,128,0,248484:0:0:0:70:12_D7_122_480.wav
192,192,248484,128,0,248730:0:0:0:70:12_F#7_122_480.wav
64,192,248730,1,8,0:0:0:0:
320,192,248730,1,0,0:0:0:70:12_G7_122_480.wav
448,192,248730,128,0,248976:0:0:0:0:
64,192,248976,1,2,0:0:0:0:
320,192,248976,128,0,249222:0:0:0:70:12_F#7_122_480.wav
64,192,249222,1,8,0:0:0:0:
192,192,249222,128,0,249468:0:0:0:70:12_E7_122_480.wav
448,192,249222,1,0,0:0:0:0:
320,192,249468,1,2,0:0:0:0:
448,192,249468,128,0,249714:0:0:0:70:12_D7_122_480.wav
64,192,249714,128,8,249960:0:0:0:0:
192,192,249714,1,0,0:0:0:70:12_D7_122_480.wav
320,192,249714,1,0,0:0:0:0:
320,192,249960,1,2,0:0:0:0:
448,192,249960,1,0,0:0:0:0:
192,192,250083,1,8,0:0:0:0:
64,192,250206,1,2,0:0:0:0:
320,192,250206,1,8,0:0:0:0:
448,192,250206,1,0,0:0:0:0:
64,192,250452,1,2,0:0:0:0:
192,192,250452,1,0,0:0:0:0:
192,192,250698,1,2,0:0:0:0:
320,192,250698,1,4,0:0:0:0:
448,192,250698,1,0,0:0:0:0:
64,192,250943,1,0,0:0:0:0:
448,192,250943,1,0,0:0:0:0:
320,192,251066,1,0,0:0:0:0:
64,192,251189,1,2,0:0:0:0:
192,192,251189,1,8,0:0:0:0:
448,192,251189,1,0,0:0:0:0:
192,192,251435,1,0,0:0:0:0:
320,192,251435,1,0,0:0:0:0:
320,192,251681,1,2,0:0:0:0:
448,192,251681,1,0,0:0:0:0:
64,192,251927,1,0,0:0:0:0:
192,192,251927,1,0,0:0:0:0:
320,192,252050,1,0,0:0:0:0:
64,192,252173,1,2,0:0:0:0:
192,192,252173,1,8,0:0:0:0:
448,192,252173,1,0,0:0:0:0:
320,192,252419,128,0,252542:0:0:0:70:11_A6_122_480.wav
448,192,252419,128,0,252542:0:0:0:0:
64,192,252665,1,2,0:0:0:0:
192,192,252665,1,0,0:0:0:0:
320,192,252911,1,0,0:0:0:0:
192,192,253034,1,0,0:0:0:0:
64,192,253157,128,2,253280:0:0:0:0:
320,192,253157,1,8,0:0:0:0:
448,192,253157,128,0,253280:0:0:0:70:11_G6_122_480.wav
192,192,253402,1,0,0:0:0:0:
64,192,253648,128,2,253771:0:0:0:0:
320,192,253648,128,0,253771:0:0:0:70:11_F#6_122_480.wav
448,192,253894,1,0,0:0:0:0:
320,192,254017,1,0,0:0:0:0:
64,192,254140,128,2,254263:0:0:0:0:
192,192,254140,128,8,254263:0:0:0:0:
448,192,254140,1,0,0:0:0:70:11_D6_122_480.wav
320,192,254263,1,0,0:0:0:0:
64,192,254386,1,0,0:0:0:0:
192,192,254509,1,0,0:0:0:0:
320,192,254632,1,2,0:0:0:0:
448,192,254632,1,0,0:0:0:0:
64,192,254878,1,0,0:0:0:0:
192,192,254878,1,0,0:0:0:0:
448,192,255001,1,0,0:0:0:0:
64,192,255124,1,2,0:0:0:0:
192,192,255124,1,8,0:0:0:0:
320,192,255124,1,0,0:0:0:0:
64,192,255370,1,0,0:0:0:0:
448,192,255370,1,0,0:0:0:0:
192,192,255616,1,2,0:0:0:0:
320,192,255616,1,0,0:0:0:0:
64,192,255862,1,0,0:0:0:0:
448,192,255862,1,0,0:0:0:0:
320,192,255984,1,0,0:0:0:0:
64,192,256107,1,2,0:0:0:0:
192,192,256107,1,8,0:0:0:0:
448,192,256107,1,0,0:0:0:0:
320,192,256353,128,0,256476:0:0:0:70:11_A6_122_480.wav
448,192,256353,128,0,256476:0:0:0:0:
64,192,256599,1,2,0:0:0:0:
192,192,256599,1,0,0:0:0:0:
320,192,256845,1,0,0:0:0:0:
64,192,256968,1,0,0:0:0:0:
192,192,257091,128,2,257214:0:0:0:0:
320,192,257091,128,8,257214:0:0:0:0:
448,192,257091,1,0,0:0:0:70:11_G6_122_480.wav
448,192,257337,1,0,0:0:0:0:
64,192,257583,128,2,257706:0:0:0:0:
192,192,257583,128,0,257706:0:0:0:70:11_F#6_122_480.wav
320,192,257829,1,0,0:0:0:0:
192,192,257952,1,0,0:0:0:0:
64,192,258075,128,2,258198:0:0:0:0:
320,192,258075,1,8,0:0:0:0:
448,192,258075,128,0,258198:0:0:0:70:11_D6_122_480.wav
192,192,258198,1,0,0:0:0:0:
64,192,258321,1,0,0:0:0:0:
320,192,258443,1,0,0:0:0:0:
64,192,258566,1,2,0:0:0:0:
448,192,258566,1,0,0:0:0:0:
192,192,258812,1,0,0:0:0:0:
320,192,258812,1,0,0:0:0:0:
448,192,258935,1,0,0:0:0:0:
64,192,259058,1,2,0:0:0:0:
192,192,259058,1,8,0:0:0:0:
320,192,259058,1,0,0:0:0:0:
64,192,259304,1,0,0:0:0:0:
448,192,259304,1,0,0:0:0:0:
320,192,259550,1,2,0:0:0:0:
448,192,259550,1,0,0:0:0:0:
64,192,259796,1,0,0:0:0:0:
192,192,259796,1,0,0:0:0:0:
320,192,259919,1,0,0:0:0:0:
64,192,260042,1,2,0:0:0:0:
192,192,260042,1,8,0:0:0:0:
448,192,260042,1,0,0:0:0:0:
320,192,260288,128,0,260411:0:0:0:70:11_A6_122_480.wav
448,192,260288,128,0,260411:0:0:0:0:
64,192,260534,1,2,0:0:0:0:
192,192,260534,1,0,0:0:0:0:
448,192,260780,1,0,0:0:0:0:
320,192,260902,1,0,0:0:0:0:
64,192,261025,1,2,0:0:0:0:
192,192,261025,128,8,261148:0:0:0:0:
448,192,261025,128,0,261148:0:0:0:70:11_G6_122_480.wav
320,192,261271,1,0,0:0:0:0:
64,192,261517,128,2,261640:0:0:0:0:
448,192,261517,128,0,261640:0:0:0:70:11_F#6_122_480.wav
192,192,261763,1,0,0:0:0:0:
320,192,261886,1,0,0:0:0:0:
64,192,262009,128,2,262132:0:0:0:0:
192,192,262009,128,8,262132:0:0:0:0:
448,192,262009,1,0,0:0:0:70:11_D6_122_480.wav
320,192,262132,1,0,0:0:0:0:
64,192,262255,1,0,0:0:0:0:
192,192,262378,1,0,0:0:0:0:
320,192,262501,1,2,0:0:0:0:
448,192,262501,1,0,0:0:0:0:
64,192,262747,1,0,0:0:0:0:
448,192,262747,1,0,0:0:0:0:
192,192,262870,1,0,0:0:0:0:
64,192,262993,1,2,0:0:0:0:
320,192,262993,1,8,0:0:0:0:
448,192,262993,1,0,0:0:0:0:
192,192,263239,1,0,0:0:0:0:
320,192,263239,1,0,0:0:0:0:
64,192,263484,1,2,0:0:0:0:
192,192,263484,1,0,0:0:0:0:
320,192,263730,1,0,0:0:0:0:
448,192,263730,1,0,0:0:0:0:
192,192,263853,1,0,0:0:0:0:
64,192,263976,1,2,0:0:0:0:
320,192,263976,1,8,0:0:0:0:
448,192,263976,1,0,0:0:0:0:
64,192,264222,1,0,0:0:0:0:
192,192,264222,1,0,0:0:0:0:
192,192,264468,1,2,0:0:0:0:
320,192,264468,1,0,0:0:0:0:
448,192,264714,1,0,0:0:0:70:12_F#7_122_480.wav
320,192,264837,1,0,0:0:0:70:12_G7_122_480.wav
64,192,264960,1,10,0:0:0:0:
448,192,264960,1,0,0:0:0:70:12_F#7_122_480.wav
192,192,265083,1,0,0:0:0:70:12_E7_122_480.wav
320,192,265206,1,0,0:0:0:70:12_E7_122_480.wav
64,192,265329,1,8,0:0:0:0:
192,192,265329,1,0,0:0:0:70:12_D7_122_480.wav
320,192,265452,1,10,0:0:0:0:
448,192,265452,1,0,0:0:0:70:12_A6_122_960.wav
64,192,265698,1,0,0:0:0:0:
192,192,265821,1,2,0:0:0:0:
320,192,265821,1,8,0:0:0:0:
448,192,265821,1,0,0:0:0:70:12_B6_122_480.wav
64,192,265943,1,0,0:0:0:0:
64,192,266189,1,8,0:0:0:0:
192,192,266189,1,2,0:0:0:0:
320,192,266189,1,0,0:0:0:70:12_D7_122_480.wav
448,192,266763,1,0,0:0:0:0:
320,192,266835,1,0,0:0:0:0:
192,192,266896,1,0,0:0:0:0:
64,192,266968,128,0,274304:0:0:0:0:
320,192,270370,128,0,274304:0:0:0:0:
