osu file format v14

[General]
AudioFilename: audio.mp3
AudioLeadIn: 0
PreviewTime: 122561
Countdown: 0
SampleSet: Soft
StackLeniency: 0.7
Mode: 3
LetterboxInBreaks: 0
SpecialStyle: 0
WidescreenStoryboard: 0

[Editor]
Bookmarks: 41966,62723,83480,103912,153209
DistanceSpacing: 1.2
BeatDivisor: 4
GridSize: 4
TimelineZoom: 1

[Metadata]
Title:Pupe Pipe
TitleUnicode:ぷぺぴぺ
Artist:Hiina
ArtistUnicode:柊南
Creator:R e m u r i n g
Version:Pa Pa Pa Pa
Source:
Tags:Ibrahim
BeatmapID:1170873
BeatmapSetID:552938

[Difficulty]
HPDrainRate:8
CircleSize:4
OverallDifficulty:8
ApproachRate:5
SliderMultiplier:1.4
SliderTickRate:1

[Events]
//Background and Video events
0,0,"yoo.jpg",0,0
//Break Periods
//Storyboard Layer 0 (Background)
//Storyboard Layer 1 (Fail)
//Storyboard Layer 2 (Pass)
//Storyboard Layer 3 (Foreground)
//Storyboard Sound Samples

[TimingPoints]
453,324.324324324324,4,2,0,40,1,0
41966,-100,4,2,0,40,0,1
62723,-100,4,2,0,40,0,0
83480,-100,4,2,0,40,0,1
103912,-100,4,2,0,40,0,0
122561,-100,4,2,0,40,0,1
143155,-100,4,2,0,40,0,0
143642,-100,4,2,0,40,0,1
153371,-100,4,2,0,40,0,0

[HitObjects]
448,192,453,5,0,0:0:0:0:
320,192,615,1,0,0:0:0:0:
192,192,777,1,0,0:0:0:0:
320,192,939,1,0,0:0:0:0:
448,192,1101,1,0,0:0:0:0:
64,192,1263,1,0,0:0:0:0:
192,192,1425,1,0,0:0:0:0:
320,192,1588,1,0,0:0:0:0:
192,192,1750,1,0,0:0:0:0:
64,192,1912,1,0,0:0:0:0:
320,192,2074,1,0,0:0:0:0:
448,192,2236,128,0,2561:0:0:0:0:
64,192,2398,1,0,0:0:0:0:
192,192,2561,1,0,0:0:0:0:
320,192,2723,1,0,0:0:0:0:
64,192,2885,128,0,4020:0:0:0:0:
448,192,3047,1,0,0:0:0:0:
192,192,3209,1,0,0:0:0:0:
448,192,3371,1,0,0:0:0:0:
320,192,3534,1,0,0:0:0:0:
192,192,3696,1,0,0:0:0:0:
320,192,3858,1,0,0:0:0:0:
448,192,4020,1,0,0:0:0:0:
192,192,4182,1,0,0:0:0:0:
192,192,4507,1,0,0:0:0:0:
448,192,4669,1,0,0:0:0:0:
64,192,4831,1,0,0:0:0:0:
64,192,4993,1,0,0:0:0:0:
448,192,5155,1,0,0:0:0:0:
448,192,5317,1,0,0:0:0:0:
192,192,5480,1,0,0:0:0:0:
320,192,5642,1,0,0:0:0:0:
192,192,5804,1,0,0:0:0:0:
64,192,5966,1,0,0:0:0:0:
192,192,6128,1,0,0:0:0:0:
448,192,6290,1,0,0:0:0:0:
320,192,6452,1,0,0:0:0:0:
64,192,6615,1,0,0:0:0:0:
320,192,6777,128,0,6939:0:0:0:0:
320,192,7101,128,0,7263:0:0:0:0:
192,192,7263,1,0,0:0:0:0:
448,192,7425,128,0,7750:0:0:0:0:
192,192,7588,1,0,0:0:0:0:
320,192,7750,128,0,7912:0:0:0:0:
192,192,7912,1,0,0:0:0:0:
64,192,8074,128,0,9209:0:0:0:0:
448,192,8236,1,0,0:0:0:0:
192,192,8398,1,0,0:0:0:0:
448,192,8561,1,0,0:0:0:0:
320,192,8723,1,0,0:0:0:0:
192,192,8885,1,0,0:0:0:0:
320,192,9047,1,0,0:0:0:0:
448,192,9209,1,0,0:0:0:0:
192,192,9371,1,0,0:0:0:0:
320,192,9534,128,0,10507:0:0:0:0:
192,192,10182,128,0,10507:0:0:0:0:
64,192,10507,1,0,0:0:0:0:
448,192,10507,1,0,0:0:0:0:
192,192,10669,1,0,0:0:0:0:
320,192,10750,1,0,0:0:0:0:
448,192,10831,1,0,0:0:0:0:
64,192,10831,1,0,0:0:0:0:
192,192,10993,1,0,0:0:0:0:
448,192,11155,1,0,0:0:0:0:
64,192,11155,1,0,0:0:0:0:
320,192,11155,1,0,0:0:0:0:
192,192,11317,1,0,0:0:0:0:
64,192,11317,1,0,0:0:0:0:
320,192,11480,1,0,0:0:0:0:
448,192,11480,1,0,0:0:0:0:
64,192,11642,1,0,0:0:0:0:
192,192,11804,1,0,0:0:0:0:
320,192,11804,1,0,0:0:0:0:
448,192,11804,1,0,0:0:0:0:
64,192,11966,1,0,0:0:0:0:
320,192,11966,1,0,0:0:0:0:
192,192,12128,1,0,0:0:0:0:
320,192,12290,1,0,0:0:0:0:
448,192,12290,1,0,0:0:0:0:
64,192,12452,1,0,0:0:0:0:
192,192,12452,1,0,0:0:0:0:
448,192,12452,1,0,0:0:0:0:
320,192,12615,128,0,12939:0:0:0:0:
64,192,12777,1,0,0:0:0:0:
192,192,12777,1,0,0:0:0:0:
64,192,12939,1,0,0:0:0:0:
192,192,12939,1,0,0:0:0:0:
448,192,12939,128,0,13101:0:0:0:0:
320,192,13101,1,0,0:0:0:0:
64,192,13101,1,0,0:0:0:0:
192,192,13101,1,0,0:0:0:0:
448,192,13263,128,0,14398:0:0:0:0:
64,192,13425,1,0,0:0:0:0:
192,192,13425,1,0,0:0:0:0:
320,192,13588,1,0,0:0:0:0:
64,192,13750,1,0,0:0:0:0:
192,192,13750,1,0,0:0:0:0:
320,192,13750,1,0,0:0:0:0:
64,192,13912,1,0,0:0:0:0:
192,192,14074,1,0,0:0:0:0:
320,192,14074,1,0,0:0:0:0:
64,192,14236,1,0,0:0:0:0:
64,192,14398,1,0,0:0:0:0:
192,192,14398,1,0,0:0:0:0:
320,192,14398,1,0,0:0:0:0:
448,192,14561,1,0,0:0:0:0:
320,192,14561,1,0,0:0:0:0:
192,192,14723,1,0,0:0:0:0:
64,192,14885,1,0,0:0:0:0:
448,192,14885,1,0,0:0:0:0:
320,192,15047,1,0,0:0:0:0:
192,192,15047,1,0,0:0:0:0:
64,192,15047,1,0,0:0:0:0:
320,192,15209,1,0,0:0:0:0:
448,192,15371,1,0,0:0:0:0:
192,192,15371,1,0,0:0:0:0:
64,192,15534,1,0,0:0:0:0:
320,192,15534,1,0,0:0:0:0:
192,192,15696,1,0,0:0:0:0:
64,192,15696,1,0,0:0:0:0:
448,192,15696,1,0,0:0:0:0:
320,192,15858,1,0,0:0:0:0:
64,192,16020,1,0,0:0:0:0:
448,192,16020,1,0,0:0:0:0:
448,192,16182,1,0,0:0:0:0:
320,192,16344,1,0,0:0:0:0:
192,192,16344,1,0,0:0:0:0:
64,192,16344,1,0,0:0:0:0:
320,192,16507,1,0,0:0:0:0:
64,192,16669,1,0,0:0:0:0:
192,192,16669,1,0,0:0:0:0:
448,192,16831,1,0,0:0:0:0:
64,192,16993,1,0,0:0:0:0:
192,192,16993,1,0,0:0:0:0:
320,192,16993,1,0,0:0:0:0:
448,192,17155,1,0,0:0:0:0:
64,192,17155,1,0,0:0:0:0:
320,192,17317,1,0,0:0:0:0:
64,192,17480,1,0,0:0:0:0:
192,192,17480,1,0,0:0:0:0:
448,192,17642,1,0,0:0:0:0:
320,192,17642,1,0,0:0:0:0:
64,192,17642,1,0,0:0:0:0:
192,192,17804,128,0,18128:0:0:0:0:
64,192,17966,1,0,0:0:0:0:
448,192,17966,1,0,0:0:0:0:
320,192,18128,128,0,18290:0:0:0:0:
64,192,18290,1,0,0:0:0:0:
448,192,18290,1,0,0:0:0:0:
192,192,18290,1,0,0:0:0:0:
320,192,18452,128,0,19588:0:0:0:0:
192,192,18615,1,0,0:0:0:0:
448,192,18615,1,0,0:0:0:0:
64,192,18777,1,0,0:0:0:0:
192,192,18939,1,0,0:0:0:0:
448,192,18939,1,0,0:0:0:0:
64,192,18939,1,0,0:0:0:0:
448,192,19101,1,0,0:0:0:0:
192,192,19101,1,0,0:0:0:0:
64,192,19263,1,0,0:0:0:0:
448,192,19263,1,0,0:0:0:0:
192,192,19425,1,0,0:0:0:0:
448,192,19588,1,0,0:0:0:0:
64,192,19588,1,0,0:0:0:0:
192,192,19588,1,0,0:0:0:0:
448,192,19750,1,0,0:0:0:0:
320,192,19750,1,0,0:0:0:0:
192,192,19912,1,0,0:0:0:0:
64,192,20074,1,0,0:0:0:0:
448,192,20074,1,0,0:0:0:0:
64,192,20236,1,0,0:0:0:0:
192,192,20236,1,0,0:0:0:0:
320,192,20236,1,0,0:0:0:0:
448,192,20398,1,0,0:0:0:0:
320,192,20480,1,0,0:0:0:0:
192,192,20561,1,0,0:0:0:0:
64,192,20723,1,0,0:0:0:0:
192,192,20804,1,0,0:0:0:0:
320,192,20885,1,0,0:0:0:0:
448,192,20966,1,0,0:0:0:0:
192,192,21047,1,0,0:0:0:0:
64,192,21128,1,0,0:0:0:0:
320,192,21209,1,0,0:0:0:0:
192,192,21534,1,0,0:0:0:0:
320,192,21696,1,0,0:0:0:0:
64,192,21858,1,0,0:0:0:0:
448,192,22020,1,0,0:0:0:0:
192,192,22182,1,0,0:0:0:0:
448,192,22344,1,0,0:0:0:0:
320,192,22507,128,0,22669:0:0:0:0:
64,192,22669,128,0,22831:0:0:0:0:
448,192,22831,128,0,22993:0:0:0:0:
192,192,22993,128,0,23155:0:0:0:0:
320,192,23155,128,0,23317:0:0:0:0:
64,192,23317,128,0,23480:0:0:0:0:
448,192,23480,128,0,23642:0:0:0:0:
192,192,23642,128,0,23804:0:0:0:0:
64,192,23804,1,0,0:0:0:0:
448,192,23804,1,0,0:0:0:0:
320,192,23966,1,0,0:0:0:0:
192,192,24128,1,0,0:0:0:0:
64,192,24128,1,0,0:0:0:0:
448,192,24128,1,0,0:0:0:0:
192,192,24290,1,0,0:0:0:0:
320,192,24452,1,0,0:0:0:0:
64,192,24615,1,0,0:0:0:0:
448,192,24615,1,0,0:0:0:0:
64,192,24777,1,0,0:0:0:0:
192,192,24777,1,0,0:0:0:0:
320,192,24777,1,0,0:0:0:0:
448,192,24939,1,0,0:0:0:0:
320,192,25101,1,0,0:0:0:0:
192,192,25101,1,0,0:0:0:0:
64,192,25263,1,0,0:0:0:0:
192,192,25425,1,0,0:0:0:0:
320,192,25425,1,0,0:0:0:0:
448,192,25425,1,0,0:0:0:0:
448,192,25588,1,0,0:0:0:0:
320,192,25750,1,0,0:0:0:0:
64,192,25912,1,0,0:0:0:0:
192,192,25912,1,0,0:0:0:0:
64,192,26074,1,0,0:0:0:0:
320,192,26074,1,0,0:0:0:0:
448,192,26074,128,0,26398:0:0:0:0:
192,192,26236,1,0,0:0:0:0:
64,192,26398,1,0,0:0:0:0:
192,192,26723,1,0,0:0:0:0:
320,192,26885,1,0,0:0:0:0:
64,192,27047,1,0,0:0:0:0:
320,192,27209,1,0,0:0:0:0:
448,192,27371,1,0,0:0:0:0:
192,192,27534,1,0,0:0:0:0:
448,192,27696,128,0,27858:0:0:0:0:
64,192,27858,128,0,28020:0:0:0:0:
320,192,28020,128,0,28182:0:0:0:0:
64,192,28182,128,0,28344:0:0:0:0:
192,192,28344,128,0,28507:0:0:0:0:
448,192,28507,128,0,28669:0:0:0:0:
320,192,28669,128,0,28831:0:0:0:0:
192,192,28831,128,0,28993:0:0:0:0:
64,192,28993,1,0,0:0:0:0:
448,192,28993,1,0,0:0:0:0:
192,192,29155,1,0,0:0:0:0:
320,192,29317,1,0,0:0:0:0:
448,192,29317,1,0,0:0:0:0:
64,192,29317,1,0,0:0:0:0:
192,192,29480,1,0,0:0:0:0:
320,192,29642,1,0,0:0:0:0:
64,192,29804,1,0,0:0:0:0:
192,192,29804,1,0,0:0:0:0:
448,192,29966,1,0,0:0:0:0:
64,192,29966,1,0,0:0:0:0:
320,192,29966,1,0,0:0:0:0:
192,192,30128,1,0,0:0:0:0:
64,192,30290,1,0,0:0:0:0:
320,192,30290,1,0,0:0:0:0:
448,192,30452,1,0,0:0:0:0:
64,192,30615,1,0,0:0:0:0:
192,192,30615,1,0,0:0:0:0:
320,192,30615,1,0,0:0:0:0:
320,192,30777,1,0,0:0:0:0:
192,192,30939,1,0,0:0:0:0:
64,192,31101,1,0,0:0:0:0:
448,192,31101,1,0,0:0:0:0:
64,192,31263,1,0,0:0:0:0:
192,192,31263,1,0,0:0:0:0:
320,192,31263,1,0,0:0:0:0:
320,192,31425,1,0,0:0:0:0:
64,192,31588,1,0,0:0:0:0:
192,192,31588,1,0,0:0:0:0:
320,192,31750,1,0,0:0:0:0:
64,192,31912,1,0,0:0:0:0:
192,192,31912,1,0,0:0:0:0:
448,192,31912,1,0,0:0:0:0:
448,192,32074,1,0,0:0:0:0:
192,192,32074,1,0,0:0:0:0:
320,192,32236,1,0,0:0:0:0:
64,192,32236,128,0,32561:0:0:0:0:
448,192,32398,1,0,0:0:0:0:
192,192,32398,1,0,0:0:0:0:
192,192,32561,1,0,0:0:0:0:
320,192,32561,1,0,0:0:0:0:
448,192,32561,1,0,0:0:0:0:
320,192,32723,1,0,0:0:0:0:
64,192,32885,1,0,0:0:0:0:
192,192,32885,1,0,0:0:0:0:
448,192,33047,1,0,0:0:0:0:
64,192,33209,1,0,0:0:0:0:
192,192,33209,1,0,0:0:0:0:
320,192,33209,1,0,0:0:0:0:
192,192,33371,1,0,0:0:0:0:
448,192,33371,1,0,0:0:0:0:
320,192,33534,1,0,0:0:0:0:
64,192,33534,1,0,0:0:0:0:
192,192,33696,1,0,0:0:0:0:
448,192,33696,1,0,0:0:0:0:
320,192,33858,1,0,0:0:0:0:
448,192,33858,1,0,0:0:0:0:
64,192,33858,1,0,0:0:0:0:
192,192,34020,1,0,0:0:0:0:
320,192,34182,1,0,0:0:0:0:
64,192,34182,1,0,0:0:0:0:
448,192,34344,1,0,0:0:0:0:
64,192,34507,1,0,0:0:0:0:
192,192,34507,1,0,0:0:0:0:
320,192,34507,1,0,0:0:0:0:
320,192,34669,1,0,0:0:0:0:
448,192,34669,1,0,0:0:0:0:
64,192,34831,1,0,0:0:0:0:
192,192,34831,1,0,0:0:0:0:
448,192,34993,1,0,0:0:0:0:
320,192,34993,1,0,0:0:0:0:
320,192,35155,1,0,0:0:0:0:
448,192,35155,1,0,0:0:0:0:
64,192,35155,1,0,0:0:0:0:
192,192,35317,1,0,0:0:0:0:
320,192,35480,1,0,0:0:0:0:
64,192,35480,1,0,0:0:0:0:
192,192,35642,1,0,0:0:0:0:
320,192,35804,1,0,0:0:0:0:
448,192,35804,1,0,0:0:0:0:
64,192,35804,1,0,0:0:0:0:
192,192,35966,1,0,0:0:0:0:
320,192,35966,1,0,0:0:0:0:
64,192,36128,1,0,0:0:0:0:
448,192,36128,1,0,0:0:0:0:
320,192,36290,1,0,0:0:0:0:
192,192,36290,1,0,0:0:0:0:
64,192,36452,1,0,0:0:0:0:
320,192,36452,1,0,0:0:0:0:
448,192,36452,1,0,0:0:0:0:
192,192,36615,1,0,0:0:0:0:
64,192,36777,1,0,0:0:0:0:
448,192,36777,1,0,0:0:0:0:
320,192,36939,1,0,0:0:0:0:
64,192,37101,1,0,0:0:0:0:
448,192,37101,1,0,0:0:0:0:
192,192,37101,1,0,0:0:0:0:
320,192,37263,1,0,0:0:0:0:
192,192,37263,1,0,0:0:0:0:
64,192,37425,1,0,0:0:0:0:
448,192,37425,1,0,0:0:0:0:
192,192,37588,1,0,0:0:0:0:
320,192,37588,1,0,0:0:0:0:
192,192,37750,1,0,0:0:0:0:
320,192,37750,1,0,0:0:0:0:
64,192,37750,1,0,0:0:0:0:
448,192,37912,1,0,0:0:0:0:
64,192,38074,1,0,0:0:0:0:
192,192,38074,1,0,0:0:0:0:
320,192,38236,1,0,0:0:0:0:
448,192,38398,1,0,0:0:0:0:
64,192,38398,1,0,0:0:0:0:
192,192,38398,1,0,0:0:0:0:
448,192,38561,1,0,0:0:0:0:
320,192,38561,1,0,0:0:0:0:
64,192,38723,1,0,0:0:0:0:
192,192,38723,1,0,0:0:0:0:
320,192,38885,1,0,0:0:0:0:
448,192,38885,1,0,0:0:0:0:
320,192,39047,1,0,0:0:0:0:
448,192,39047,1,0,0:0:0:0:
64,192,39047,1,0,0:0:0:0:
192,192,39209,1,0,0:0:0:0:
64,192,39371,1,0,0:0:0:0:
320,192,39371,1,0,0:0:0:0:
448,192,39534,1,0,0:0:0:0:
192,192,39696,1,0,0:0:0:0:
64,192,39696,1,0,0:0:0:0:
320,192,39858,1,0,0:0:0:0:
64,192,40020,1,0,0:0:0:0:
192,192,40020,1,0,0:0:0:0:
448,192,40182,1,0,0:0:0:0:
192,192,40344,1,0,0:0:0:0:
64,192,40344,1,0,0:0:0:0:
448,192,40507,1,0,0:0:0:0:
64,192,40507,1,0,0:0:0:0:
320,192,40669,1,0,0:0:0:0:
192,192,40669,1,0,0:0:0:0:
64,192,40831,1,0,0:0:0:0:
320,192,40831,1,0,0:0:0:0:
64,192,40993,1,0,0:0:0:0:
448,192,40993,1,0,0:0:0:0:
192,192,40993,1,0,0:0:0:0:
448,192,41155,1,0,0:0:0:0:
320,192,41155,1,0,0:0:0:0:
192,192,41317,1,0,0:0:0:0:
64,192,41317,1,0,0:0:0:0:
192,192,41588,128,0,41966:0:0:0:0:
320,192,41966,1,0,0:0:0:0:
448,192,41966,1,0,0:0:0:0:
192,192,42128,1,0,0:0:0:0:
320,192,42290,1,0,0:0:0:0:
64,192,42290,1,0,0:0:0:0:
448,192,42290,1,0,0:0:0:0:
192,192,42452,1,0,0:0:0:0:
64,192,42615,1,0,0:0:0:0:
320,192,42615,1,0,0:0:0:0:
448,192,42777,1,0,0:0:0:0:
64,192,42939,1,0,0:0:0:0:
192,192,42939,1,0,0:0:0:0:
320,192,42939,1,0,0:0:0:0:
320,192,43101,1,0,0:0:0:0:
64,192,43263,1,0,0:0:0:0:
192,192,43263,1,0,0:0:0:0:
448,192,43425,1,0,0:0:0:0:
64,192,43588,1,0,0:0:0:0:
192,192,43588,1,0,0:0:0:0:
448,192,43588,1,0,0:0:0:0:
320,192,43750,1,0,0:0:0:0:
192,192,43912,1,0,0:0:0:0:
448,192,43912,1,0,0:0:0:0:
64,192,44074,1,0,0:0:0:0:
192,192,44236,1,0,0:0:0:0:
320,192,44236,1,0,0:0:0:0:
448,192,44236,1,0,0:0:0:0:
320,192,44398,1,0,0:0:0:0:
64,192,44561,1,0,0:0:0:0:
448,192,44561,1,0,0:0:0:0:
192,192,44723,1,0,0:0:0:0:
320,192,44885,1,0,0:0:0:0:
448,192,44885,1,0,0:0:0:0:
64,192,44885,1,0,0:0:0:0:
320,192,45047,1,0,0:0:0:0:
64,192,45209,1,0,0:0:0:0:
192,192,45209,1,0,0:0:0:0:
192,192,45371,1,0,0:0:0:0:
64,192,45534,1,0,0:0:0:0:
320,192,45534,1,0,0:0:0:0:
448,192,45534,1,0,0:0:0:0:
320,192,45696,1,0,0:0:0:0:
192,192,45858,1,0,0:0:0:0:
448,192,45858,1,0,0:0:0:0:
320,192,46020,1,0,0:0:0:0:
64,192,46182,1,0,0:0:0:0:
448,192,46182,1,0,0:0:0:0:
192,192,46182,1,0,0:0:0:0:
320,192,46344,1,0,0:0:0:0:
64,192,46507,1,0,0:0:0:0:
192,192,46507,1,0,0:0:0:0:
320,192,46669,1,0,0:0:0:0:
320,192,46831,1,0,0:0:0:0:
448,192,46831,1,0,0:0:0:0:
192,192,46831,1,0,0:0:0:0:
64,192,46993,1,0,0:0:0:0:
192,192,47155,1,0,0:0:0:0:
448,192,47155,1,0,0:0:0:0:
64,192,47317,1,0,0:0:0:0:
64,192,47480,1,0,0:0:0:0:
320,192,47480,1,0,0:0:0:0:
448,192,47480,1,0,0:0:0:0:
192,192,47642,1,0,0:0:0:0:
64,192,47804,1,0,0:0:0:0:
320,192,47804,1,0,0:0:0:0:
448,192,47966,1,0,0:0:0:0:
64,192,48128,1,0,0:0:0:0:
192,192,48128,1,0,0:0:0:0:
320,192,48128,1,0,0:0:0:0:
192,192,48290,1,0,0:0:0:0:
64,192,48452,1,0,0:0:0:0:
448,192,48452,1,0,0:0:0:0:
320,192,48615,1,0,0:0:0:0:
64,192,48777,1,0,0:0:0:0:
192,192,48777,1,0,0:0:0:0:
448,192,48777,1,0,0:0:0:0:
320,192,48939,1,0,0:0:0:0:
64,192,49101,1,0,0:0:0:0:
448,192,49101,1,0,0:0:0:0:
192,192,49263,1,0,0:0:0:0:
64,192,49425,1,0,0:0:0:0:
320,192,49425,1,0,0:0:0:0:
448,192,49425,1,0,0:0:0:0:
192,192,49588,1,0,0:0:0:0:
64,192,49750,1,0,0:0:0:0:
448,192,49750,1,0,0:0:0:0:
192,192,49912,1,0,0:0:0:0:
320,192,50074,1,0,0:0:0:0:
448,192,50074,1,0,0:0:0:0:
64,192,50074,1,0,0:0:0:0:
320,192,50236,1,0,0:0:0:0:
64,192,50398,1,0,0:0:0:0:
192,192,50398,1,0,0:0:0:0:
448,192,50561,1,0,0:0:0:0:
448,192,50723,1,0,0:0:0:0:
64,192,50723,1,0,0:0:0:0:
192,192,50723,1,0,0:0:0:0:
320,192,50885,1,0,0:0:0:0:
64,192,51047,1,0,0:0:0:0:
192,192,51047,1,0,0:0:0:0:
448,192,51209,1,0,0:0:0:0:
64,192,51371,1,0,0:0:0:0:
320,192,51371,1,0,0:0:0:0:
192,192,51371,1,0,0:0:0:0:
320,192,51534,1,0,0:0:0:0:
64,192,51696,1,0,0:0:0:0:
192,192,51696,1,0,0:0:0:0:
448,192,51858,1,0,0:0:0:0:
448,192,52020,1,0,0:0:0:0:
320,192,52020,1,0,0:0:0:0:
64,192,52020,1,0,0:0:0:0:
192,192,52182,1,0,0:0:0:0:
448,192,52344,1,0,0:0:0:0:
320,192,52507,1,0,0:0:0:0:
64,192,52669,1,0,0:0:0:0:
192,192,52669,1,0,0:0:0:0:
448,192,52669,1,0,0:0:0:0:
448,192,52831,1,0,0:0:0:0:
320,192,52993,1,0,0:0:0:0:
192,192,52993,1,0,0:0:0:0:
64,192,53155,1,0,0:0:0:0:
192,192,53317,1,0,0:0:0:0:
448,192,53317,1,0,0:0:0:0:
64,192,53317,1,0,0:0:0:0:
320,192,53480,1,0,0:0:0:0:
64,192,53642,1,0,0:0:0:0:
192,192,53642,1,0,0:0:0:0:
448,192,53804,1,0,0:0:0:0:
320,192,53966,1,0,0:0:0:0:
64,192,53966,1,0,0:0:0:0:
192,192,53966,1,0,0:0:0:0:
320,192,54128,1,0,0:0:0:0:
64,192,54290,1,0,0:0:0:0:
192,192,54290,1,0,0:0:0:0:
320,192,54452,1,0,0:0:0:0:
64,192,54615,1,0,0:0:0:0:
192,192,54615,1,0,0:0:0:0:
448,192,54615,1,0,0:0:0:0:
192,192,54777,1,0,0:0:0:0:
64,192,54939,1,0,0:0:0:0:
448,192,54939,1,0,0:0:0:0:
320,192,55101,128,0,55263:0:0:0:0:
64,192,55263,1,0,0:0:0:0:
192,192,55263,1,0,0:0:0:0:
448,192,55263,1,0,0:0:0:0:
320,192,55425,128,0,55588:0:0:0:0:
192,192,55588,1,0,0:0:0:0:
448,192,55588,1,0,0:0:0:0:
320,192,55750,128,0,55912:0:0:0:0:
64,192,55912,1,0,0:0:0:0:
192,192,55912,1,0,0:0:0:0:
448,192,55912,1,0,0:0:0:0:
320,192,56074,1,0,0:0:0:0:
192,192,56236,128,0,56398:0:0:0:0:
448,192,56236,1,0,0:0:0:0:
320,192,56398,1,0,0:0:0:0:
64,192,56561,128,0,56723:0:0:0:0:
192,192,56561,1,0,0:0:0:0:
448,192,56561,1,0,0:0:0:0:
320,192,56723,1,0,0:0:0:0:
192,192,56885,128,0,57047:0:0:0:0:
64,192,56885,1,0,0:0:0:0:
448,192,56885,1,0,0:0:0:0:
320,192,57047,1,0,0:0:0:0:
64,192,57209,128,0,57371:0:0:0:0:
448,192,57209,1,0,0:0:0:0:
192,192,57209,1,0,0:0:0:0:
320,192,57371,1,0,0:0:0:0:
64,192,57534,1,0,0:0:0:0:
192,192,57534,1,0,0:0:0:0:
320,192,57696,1,0,0:0:0:0:
448,192,57858,1,0,0:0:0:0:
64,192,57858,1,0,0:0:0:0:
192,192,57858,1,0,0:0:0:0:
192,192,58020,1,0,0:0:0:0:
320,192,58182,1,0,0:0:0:0:
64,192,58182,1,0,0:0:0:0:
448,192,58344,1,0,0:0:0:0:
64,192,58507,1,0,0:0:0:0:
192,192,58507,1,0,0:0:0:0:
448,192,58507,1,0,0:0:0:0:
320,192,58669,1,0,0:0:0:0:
64,192,58831,1,0,0:0:0:0:
192,192,58831,1,0,0:0:0:0:
448,192,58993,1,0,0:0:0:0:
64,192,59155,1,0,0:0:0:0:
192,192,59155,1,0,0:0:0:0:
320,192,59155,1,0,0:0:0:0:
192,192,59317,1,0,0:0:0:0:
64,192,59480,1,0,0:0:0:0:
448,192,59480,1,0,0:0:0:0:
192,192,59642,1,0,0:0:0:0:
320,192,59804,1,0,0:0:0:0:
64,192,59804,1,0,0:0:0:0:
448,192,59804,1,0,0:0:0:0:
320,192,59966,1,0,0:0:0:0:
64,192,60128,1,0,0:0:0:0:
192,192,60128,1,0,0:0:0:0:
320,192,60290,128,0,60452:0:0:0:0:
64,192,60452,1,0,0:0:0:0:
192,192,60452,1,0,0:0:0:0:
448,192,60452,1,0,0:0:0:0:
320,192,60615,128,0,60777:0:0:0:0:
192,192,60777,1,0,0:0:0:0:
448,192,60777,1,0,0:0:0:0:
320,192,60939,128,0,61101:0:0:0:0:
192,192,61101,1,0,0:0:0:0:
448,192,61101,1,0,0:0:0:0:
64,192,61101,1,0,0:0:0:0:
320,192,61263,1,0,0:0:0:0:
192,192,61425,128,0,61588:0:0:0:0:
448,192,61425,1,0,0:0:0:0:
320,192,61588,1,0,0:0:0:0:
448,192,61750,1,0,0:0:0:0:
64,192,61750,1,0,0:0:0:0:
192,192,61912,1,0,0:0:0:0:
320,192,61993,1,0,0:0:0:0:
448,192,62074,1,0,0:0:0:0:
64,192,62074,1,0,0:0:0:0:
192,192,62236,1,0,0:0:0:0:
320,192,62317,1,0,0:0:0:0:
448,192,62398,1,0,0:0:0:0:
64,192,62480,1,0,0:0:0:0:
192,192,62561,1,0,0:0:0:0:
320,192,62642,1,0,0:0:0:0:
448,192,62723,1,0,0:0:0:0:
320,192,63047,1,0,0:0:0:0:
192,192,63209,1,0,0:0:0:0:
448,192,63371,1,0,0:0:0:0:
64,192,63534,1,0,0:0:0:0:
320,192,63696,1,0,0:0:0:0:
192,192,63858,1,0,0:0:0:0:
448,192,64020,128,0,64182:0:0:0:0:
64,192,64182,128,0,64344:0:0:0:0:
448,192,64344,128,0,64507:0:0:0:0:
64,192,64507,128,0,64669:0:0:0:0:
320,192,64669,128,0,64831:0:0:0:0:
192,192,64831,128,0,64993:0:0:0:0:
320,192,64993,128,0,65155:0:0:0:0:
448,192,65155,128,0,65317:0:0:0:0:
64,192,65317,1,0,0:0:0:0:
192,192,65317,1,0,0:0:0:0:
320,192,65480,1,0,0:0:0:0:
448,192,65642,1,0,0:0:0:0:
64,192,65642,1,0,0:0:0:0:
192,192,65642,1,0,0:0:0:0:
192,192,65804,1,0,0:0:0:0:
320,192,65966,1,0,0:0:0:0:
64,192,66128,1,0,0:0:0:0:
192,192,66128,1,0,0:0:0:0:
64,192,66290,1,0,0:0:0:0:
320,192,66290,1,0,0:0:0:0:
448,192,66290,1,0,0:0:0:0:
448,192,66452,1,0,0:0:0:0:
192,192,66615,1,0,0:0:0:0:
320,192,66615,1,0,0:0:0:0:
64,192,66777,1,0,0:0:0:0:
64,192,66939,1,0,0:0:0:0:
448,192,66939,1,0,0:0:0:0:
320,192,66939,1,0,0:0:0:0:
192,192,67101,1,0,0:0:0:0:
320,192,67263,1,0,0:0:0:0:
448,192,67425,1,0,0:0:0:0:
192,192,67425,1,0,0:0:0:0:
64,192,67588,1,0,0:0:0:0:
320,192,67588,1,0,0:0:0:0:
448,192,67588,1,0,0:0:0:0:
192,192,67750,1,0,0:0:0:0:
448,192,67912,1,0,0:0:0:0:
192,192,68236,1,0,0:0:0:0:
320,192,68398,1,0,0:0:0:0:
64,192,68561,1,0,0:0:0:0:
448,192,68723,1,0,0:0:0:0:
192,192,68885,1,0,0:0:0:0:
448,192,69047,1,0,0:0:0:0:
64,192,69209,128,0,69371:0:0:0:0:
448,192,69371,128,0,69534:0:0:0:0:
192,192,69534,128,0,69696:0:0:0:0:
320,192,69696,128,0,69858:0:0:0:0:
64,192,69858,128,0,70020:0:0:0:0:
448,192,70020,128,0,70182:0:0:0:0:
320,192,70182,128,0,70344:0:0:0:0:
192,192,70344,128,0,70507:0:0:0:0:
64,192,70507,1,0,0:0:0:0:
448,192,70507,1,0,0:0:0:0:
320,192,70669,1,0,0:0:0:0:
64,192,70831,1,0,0:0:0:0:
192,192,70831,1,0,0:0:0:0:
448,192,70831,1,0,0:0:0:0:
192,192,70993,1,0,0:0:0:0:
320,192,71155,1,0,0:0:0:0:
64,192,71317,1,0,0:0:0:0:
192,192,71317,1,0,0:0:0:0:
64,192,71480,1,0,0:0:0:0:
320,192,71480,1,0,0:0:0:0:
448,192,71480,1,0,0:0:0:0:
320,192,71642,1,0,0:0:0:0:
64,192,71804,1,0,0:0:0:0:
192,192,71804,1,0,0:0:0:0:
448,192,71966,1,0,0:0:0:0:
320,192,72128,1,0,0:0:0:0:
192,192,72128,1,0,0:0:0:0:
64,192,72128,1,0,0:0:0:0:
320,192,72290,1,0,0:0:0:0:
192,192,72452,1,0,0:0:0:0:
64,192,72615,1,0,0:0:0:0:
448,192,72615,1,0,0:0:0:0:
64,192,72777,1,0,0:0:0:0:
192,192,72777,1,0,0:0:0:0:
448,192,72777,1,0,0:0:0:0:
320,192,72939,1,0,0:0:0:0:
64,192,73101,1,0,0:0:0:0:
192,192,73101,1,0,0:0:0:0:
448,192,73263,1,0,0:0:0:0:
320,192,73425,1,0,0:0:0:0:
192,192,73425,1,0,0:0:0:0:
64,192,73425,1,0,0:0:0:0:
320,192,73588,1,0,0:0:0:0:
448,192,73588,1,0,0:0:0:0:
64,192,73750,1,0,0:0:0:0:
192,192,73750,1,0,0:0:0:0:
320,192,73912,1,0,0:0:0:0:
448,192,73912,1,0,0:0:0:0:
192,192,74074,1,0,0:0:0:0:
64,192,74074,1,0,0:0:0:0:
448,192,74074,1,0,0:0:0:0:
320,192,74236,1,0,0:0:0:0:
64,192,74398,1,0,0:0:0:0:
192,192,74398,1,0,0:0:0:0:
448,192,74561,1,0,0:0:0:0:
320,192,74723,1,0,0:0:0:0:
192,192,74723,1,0,0:0:0:0:
64,192,74723,1,0,0:0:0:0:
448,192,74885,1,0,0:0:0:0:
320,192,74885,1,0,0:0:0:0:
64,192,75047,1,0,0:0:0:0:
192,192,75047,1,0,0:0:0:0:
320,192,75209,1,0,0:0:0:0:
448,192,75209,1,0,0:0:0:0:
64,192,75371,1,0,0:0:0:0:
192,192,75371,1,0,0:0:0:0:
448,192,75371,1,0,0:0:0:0:
320,192,75534,1,0,0:0:0:0:
192,192,75696,1,0,0:0:0:0:
448,192,75696,1,0,0:0:0:0:
64,192,75858,1,0,0:0:0:0:
64,192,76020,1,0,0:0:0:0:
320,192,76020,1,0,0:0:0:0:
448,192,76020,1,0,0:0:0:0:
192,192,76182,1,0,0:0:0:0:
320,192,76182,1,0,0:0:0:0:
64,192,76344,1,0,0:0:0:0:
192,192,76344,1,0,0:0:0:0:
448,192,76507,1,0,0:0:0:0:
320,192,76507,1,0,0:0:0:0:
64,192,76669,1,0,0:0:0:0:
192,192,76669,1,0,0:0:0:0:
448,192,76669,1,0,0:0:0:0:
320,192,76831,1,0,0:0:0:0:
192,192,76993,1,0,0:0:0:0:
64,192,76993,1,0,0:0:0:0:
320,192,77155,1,0,0:0:0:0:
64,192,77317,1,0,0:0:0:0:
192,192,77317,1,0,0:0:0:0:
448,192,77317,1,0,0:0:0:0:
448,192,77480,1,0,0:0:0:0:
320,192,77480,1,0,0:0:0:0:
64,192,77642,1,0,0:0:0:0:
192,192,77642,1,0,0:0:0:0:
448,192,77804,1,0,0:0:0:0:
320,192,77804,1,0,0:0:0:0:
64,192,77966,1,0,0:0:0:0:
448,192,77966,1,0,0:0:0:0:
320,192,77966,1,0,0:0:0:0:
192,192,78128,1,0,0:0:0:0:
64,192,78290,1,0,0:0:0:0:
448,192,78290,1,0,0:0:0:0:
320,192,78452,1,0,0:0:0:0:
64,192,78615,1,0,0:0:0:0:
192,192,78615,1,0,0:0:0:0:
448,192,78615,1,0,0:0:0:0:
320,192,78777,1,0,0:0:0:0:
192,192,78777,1,0,0:0:0:0:
320,192,78939,1,0,0:0:0:0:
448,192,78939,1,0,0:0:0:0:
64,192,79101,1,0,0:0:0:0:
192,192,79101,1,0,0:0:0:0:
64,192,79263,1,0,0:0:0:0:
192,192,79263,1,0,0:0:0:0:
448,192,79263,1,0,0:0:0:0:
320,192,79425,1,0,0:0:0:0:
64,192,79588,1,0,0:0:0:0:
192,192,79588,1,0,0:0:0:0:
320,192,79750,1,0,0:0:0:0:
64,192,79912,1,0,0:0:0:0:
448,192,79912,1,0,0:0:0:0:
192,192,79912,1,0,0:0:0:0:
320,192,80074,1,0,0:0:0:0:
192,192,80074,1,0,0:0:0:0:
320,192,80236,1,0,0:0:0:0:
448,192,80236,1,0,0:0:0:0:
64,192,80398,1,0,0:0:0:0:
192,192,80398,1,0,0:0:0:0:
64,192,80561,1,0,0:0:0:0:
320,192,80561,1,0,0:0:0:0:
448,192,80561,1,0,0:0:0:0:
192,192,80723,1,0,0:0:0:0:
64,192,80885,1,0,0:0:0:0:
448,192,80885,1,0,0:0:0:0:
192,192,81047,1,0,0:0:0:0:
64,192,81209,1,0,0:0:0:0:
448,192,81209,1,0,0:0:0:0:
320,192,81371,1,0,0:0:0:0:
64,192,81534,1,0,0:0:0:0:
448,192,81534,1,0,0:0:0:0:
192,192,81696,1,0,0:0:0:0:
320,192,81858,1,0,0:0:0:0:
448,192,81858,1,0,0:0:0:0:
192,192,82020,1,0,0:0:0:0:
64,192,82182,1,0,0:0:0:0:
320,192,82182,1,0,0:0:0:0:
448,192,82344,128,0,82507:0:0:0:0:
192,192,82344,1,0,0:0:0:0:
320,192,82507,128,0,82669:0:0:0:0:
64,192,82507,1,0,0:0:0:0:
192,192,82669,128,0,82831:0:0:0:0:
448,192,82669,1,0,0:0:0:0:
64,192,82831,128,0,83155:0:0:0:0:
320,192,82831,1,0,0:0:0:0:
448,192,83155,128,0,83480:0:0:0:0:
64,192,83480,1,0,0:0:0:0:
320,192,83480,1,0,0:0:0:0:
192,192,83642,1,0,0:0:0:0:
320,192,83804,1,0,0:0:0:0:
448,192,83804,1,0,0:0:0:0:
64,192,83804,1,0,0:0:0:0:
320,192,83966,1,0,0:0:0:0:
448,192,84128,1,0,0:0:0:0:
192,192,84128,1,0,0:0:0:0:
64,192,84290,1,0,0:0:0:0:
64,192,84452,1,0,0:0:0:0:
320,192,84452,1,0,0:0:0:0:
448,192,84452,1,0,0:0:0:0:
192,192,84615,1,0,0:0:0:0:
320,192,84777,1,0,0:0:0:0:
448,192,84777,1,0,0:0:0:0:
192,192,84939,1,0,0:0:0:0:
64,192,85101,1,0,0:0:0:0:
448,192,85101,1,0,0:0:0:0:
320,192,85101,1,0,0:0:0:0:
320,192,85263,1,0,0:0:0:0:
64,192,85425,1,0,0:0:0:0:
192,192,85425,1,0,0:0:0:0:
448,192,85588,1,0,0:0:0:0:
64,192,85750,1,0,0:0:0:0:
192,192,85750,1,0,0:0:0:0:
320,192,85750,1,0,0:0:0:0:
192,192,85912,1,0,0:0:0:0:
64,192,86074,1,0,0:0:0:0:
320,192,86074,1,0,0:0:0:0:
448,192,86236,1,0,0:0:0:0:
64,192,86398,1,0,0:0:0:0:
192,192,86398,1,0,0:0:0:0:
448,192,86398,1,0,0:0:0:0:
320,192,86561,1,0,0:0:0:0:
64,192,86723,1,0,0:0:0:0:
448,192,86723,1,0,0:0:0:0:
192,192,86885,1,0,0:0:0:0:
320,192,87047,1,0,0:0:0:0:
448,192,87047,1,0,0:0:0:0:
64,192,87047,1,0,0:0:0:0:
320,192,87209,1,0,0:0:0:0:
64,192,87371,1,0,0:0:0:0:
192,192,87371,128,0,87696:0:0:0:0:
448,192,87534,1,0,0:0:0:0:
320,192,87696,128,0,88020:0:0:0:0:
64,192,87696,1,0,0:0:0:0:
192,192,87858,1,0,0:0:0:0:
448,192,88020,128,0,88344:0:0:0:0:
64,192,88020,1,0,0:0:0:0:
192,192,88182,1,0,0:0:0:0:
320,192,88344,1,0,0:0:0:0:
64,192,88344,1,0,0:0:0:0:
192,192,88507,1,0,0:0:0:0:
320,192,88669,1,0,0:0:0:0:
448,192,88669,1,0,0:0:0:0:
192,192,88831,1,0,0:0:0:0:
64,192,88993,1,0,0:0:0:0:
448,192,88993,1,0,0:0:0:0:
320,192,88993,1,0,0:0:0:0:
320,192,89155,1,0,0:0:0:0:
64,192,89317,1,0,0:0:0:0:
192,192,89317,1,0,0:0:0:0:
320,192,89480,1,0,0:0:0:0:
64,192,89642,1,0,0:0:0:0:
192,192,89642,1,0,0:0:0:0:
448,192,89642,1,0,0:0:0:0:
448,192,89804,1,0,0:0:0:0:
64,192,89966,1,0,0:0:0:0:
320,192,89966,1,0,0:0:0:0:
192,192,90128,1,0,0:0:0:0:
64,192,90290,1,0,0:0:0:0:
448,192,90290,1,0,0:0:0:0:
320,192,90290,1,0,0:0:0:0:
320,192,90452,1,0,0:0:0:0:
192,192,90615,1,0,0:0:0:0:
448,192,90615,1,0,0:0:0:0:
64,192,90777,1,0,0:0:0:0:
64,192,90939,1,0,0:0:0:0:
320,192,90939,1,0,0:0:0:0:
448,192,90939,1,0,0:0:0:0:
192,192,91101,1,0,0:0:0:0:
320,192,91263,1,0,0:0:0:0:
64,192,91263,1,0,0:0:0:0:
448,192,91425,1,0,0:0:0:0:
64,192,91588,1,0,0:0:0:0:
192,192,91588,1,0,0:0:0:0:
320,192,91588,1,0,0:0:0:0:
192,192,91750,1,0,0:0:0:0:
320,192,91912,1,0,0:0:0:0:
448,192,91912,1,0,0:0:0:0:
320,192,92074,1,0,0:0:0:0:
64,192,92236,1,0,0:0:0:0:
192,192,92236,1,0,0:0:0:0:
448,192,92236,1,0,0:0:0:0:
448,192,92398,1,0,0:0:0:0:
64,192,92561,128,0,92885:0:0:0:0:
320,192,92723,128,0,92885:0:0:0:0:
192,192,92885,128,0,93209:0:0:0:0:
448,192,93047,128,0,93209:0:0:0:0:
320,192,93209,128,0,93534:0:0:0:0:
64,192,93371,128,0,93534:0:0:0:0:
192,192,93534,1,0,0:0:0:0:
448,192,93534,1,0,0:0:0:0:
320,192,93696,1,0,0:0:0:0:
64,192,93858,1,0,0:0:0:0:
192,192,93858,1,0,0:0:0:0:
448,192,94020,1,0,0:0:0:0:
192,192,94182,1,0,0:0:0:0:
320,192,94182,1,0,0:0:0:0:
64,192,94344,1,0,0:0:0:0:
320,192,94507,1,0,0:0:0:0:
448,192,94507,1,0,0:0:0:0:
192,192,94669,1,0,0:0:0:0:
64,192,94831,1,0,0:0:0:0:
448,192,94831,1,0,0:0:0:0:
320,192,94993,1,0,0:0:0:0:
64,192,95155,1,0,0:0:0:0:
192,192,95155,1,0,0:0:0:0:
320,192,95317,1,0,0:0:0:0:
448,192,95480,1,0,0:0:0:0:
64,192,95480,1,0,0:0:0:0:
192,192,95642,1,0,0:0:0:0:
320,192,95804,1,0,0:0:0:0:
448,192,95804,1,0,0:0:0:0:
192,192,95966,1,0,0:0:0:0:
320,192,96128,1,0,0:0:0:0:
64,192,96128,1,0,0:0:0:0:
448,192,96290,1,0,0:0:0:0:
64,192,96452,1,0,0:0:0:0:
192,192,96452,1,0,0:0:0:0:
320,192,96615,1,0,0:0:0:0:
448,192,96777,1,0,0:0:0:0:
64,192,96777,1,0,0:0:0:0:
192,192,96939,1,0,0:0:0:0:
320,192,97101,1,0,0:0:0:0:
448,192,97101,1,0,0:0:0:0:
192,192,97263,1,0,0:0:0:0:
64,192,97425,1,0,0:0:0:0:
448,192,97425,1,0,0:0:0:0:
320,192,97588,1,0,0:0:0:0:
64,192,97750,1,0,0:0:0:0:
192,192,97750,1,0,0:0:0:0:
448,192,97912,1,0,0:0:0:0:
192,192,98074,1,0,0:0:0:0:
320,192,98074,1,0,0:0:0:0:
64,192,98236,1,0,0:0:0:0:
320,192,98398,1,0,0:0:0:0:
448,192,98398,1,0,0:0:0:0:
192,192,98561,1,0,0:0:0:0:
64,192,98723,1,0,0:0:0:0:
448,192,98723,1,0,0:0:0:0:
320,192,98885,1,0,0:0:0:0:
64,192,99047,1,0,0:0:0:0:
192,192,99047,1,0,0:0:0:0:
448,192,99209,1,0,0:0:0:0:
320,192,99371,1,0,0:0:0:0:
64,192,99371,1,0,0:0:0:0:
192,192,99534,1,0,0:0:0:0:
64,192,99696,1,0,0:0:0:0:
448,192,99696,1,0,0:0:0:0:
320,192,99858,1,0,0:0:0:0:
64,192,100020,1,0,0:0:0:0:
192,192,100020,1,0,0:0:0:0:
320,192,100182,1,0,0:0:0:0:
448,192,100344,1,0,0:0:0:0:
192,192,100344,1,0,0:0:0:0:
64,192,100507,1,0,0:0:0:0:
320,192,100669,1,0,0:0:0:0:
448,192,100669,1,0,0:0:0:0:
192,192,100831,1,0,0:0:0:0:
64,192,100993,1,0,0:0:0:0:
320,192,100993,1,0,0:0:0:0:
192,192,101155,1,0,0:0:0:0:
64,192,101317,1,0,0:0:0:0:
448,192,101317,1,0,0:0:0:0:
192,192,101480,1,0,0:0:0:0:
320,192,101642,1,0,0:0:0:0:
448,192,101642,1,0,0:0:0:0:
192,192,101804,1,0,0:0:0:0:
64,192,101804,1,0,0:0:0:0:
320,192,101966,1,0,0:0:0:0:
448,192,101966,1,0,0:0:0:0:
64,192,102128,1,0,0:0:0:0:
192,192,102128,1,0,0:0:0:0:
320,192,102290,1,0,0:0:0:0:
448,192,102290,1,0,0:0:0:0:
64,192,102452,1,0,0:0:0:0:
192,192,102452,1,0,0:0:0:0:
320,192,102615,1,0,0:0:0:0:
448,192,102615,1,0,0:0:0:0:
64,192,102777,1,0,0:0:0:0:
192,192,102777,1,0,0:0:0:0:
320,192,102939,1,0,0:0:0:0:
448,192,102939,1,0,0:0:0:0:
192,192,103020,1,0,0:0:0:0:
64,192,103101,1,0,0:0:0:0:
448,192,103182,1,0,0:0:0:0:
320,192,103263,1,0,0:0:0:0:
64,192,103344,1,0,0:0:0:0:
192,192,103425,1,0,0:0:0:0:
320,192,103507,1,0,0:0:0:0:
448,192,103588,1,0,0:0:0:0:
64,192,103669,1,0,0:0:0:0:
192,192,103709,1,0,0:0:0:0:
448,192,103750,1,0,0:0:0:0:
320,192,103790,1,0,0:0:0:0:
64,192,103831,1,0,0:0:0:0:
192,192,103871,1,0,0:0:0:0:
320,192,103912,1,0,0:0:0:0:
448,192,103912,1,0,0:0:0:0:
64,192,104236,128,0,106831:0:0:0:0:
320,192,104561,128,0,104885:0:0:0:0:
192,192,104885,128,0,105371:0:0:0:0:
320,192,105209,1,0,0:0:0:0:
448,192,105371,128,0,105858:0:0:0:0:
320,192,105696,1,0,0:0:0:0:
192,192,105858,1,0,0:0:0:0:
320,192,106020,1,0,0:0:0:0:
448,192,106182,1,0,0:0:0:0:
192,192,106344,1,0,0:0:0:0:
448,192,106507,1,0,0:0:0:0:
320,192,106669,1,0,0:0:0:0:
320,192,106993,1,0,0:0:0:0:
192,192,107155,1,0,0:0:0:0:
448,192,107317,1,0,0:0:0:0:
64,192,107480,1,0,0:0:0:0:
192,192,107642,1,0,0:0:0:0:
448,192,107804,1,0,0:0:0:0:
192,192,107966,1,0,0:0:0:0:
448,192,108128,1,0,0:0:0:0:
320,192,108290,1,0,0:0:0:0:
64,192,108452,1,0,0:0:0:0:
192,192,108615,1,0,0:0:0:0:
448,192,108777,1,0,0:0:0:0:
320,192,108939,1,0,0:0:0:0:
64,192,109101,1,0,0:0:0:0:
192,192,109263,1,0,0:0:0:0:
320,192,109425,1,0,0:0:0:0:
64,192,109588,1,0,0:0:0:0:
448,192,109750,1,0,0:0:0:0:
320,192,109912,1,0,0:0:0:0:
64,192,110074,1,0,0:0:0:0:
320,192,110236,1,0,0:0:0:0:
192,192,110398,1,0,0:0:0:0:
64,192,110561,1,0,0:0:0:0:
448,192,110723,1,0,0:0:0:0:
320,192,110885,1,0,0:0:0:0:
64,192,111047,1,0,0:0:0:0:
448,192,111209,1,0,0:0:0:0:
320,192,111371,1,0,0:0:0:0:
192,192,111534,1,0,0:0:0:0:
64,192,111696,1,0,0:0:0:0:
448,192,111858,1,0,0:0:0:0:
192,192,112020,1,0,0:0:0:0:
64,192,112182,1,0,0:0:0:0:
320,192,112344,1,0,0:0:0:0:
448,192,112507,1,0,0:0:0:0:
192,192,112669,1,0,0:0:0:0:
448,192,112831,1,0,0:0:0:0:
320,192,112993,1,0,0:0:0:0:
64,192,113155,1,0,0:0:0:0:
192,192,113317,1,0,0:0:0:0:
448,192,113480,1,0,0:0:0:0:
320,192,113642,1,0,0:0:0:0:
448,192,113804,1,0,0:0:0:0:
64,192,113966,1,0,0:0:0:0:
192,192,114128,1,0,0:0:0:0:
320,192,114290,1,0,0:0:0:0:
64,192,114452,1,0,0:0:0:0:
448,192,114615,1,0,0:0:0:0:
192,192,114777,1,0,0:0:0:0:
320,192,114939,1,0,0:0:0:0:
64,192,115101,1,0,0:0:0:0:
192,192,115263,1,0,0:0:0:0:
448,192,115425,1,0,0:0:0:0:
320,192,115588,1,0,0:0:0:0:
192,192,115750,1,0,0:0:0:0:
64,192,115912,1,0,0:0:0:0:
320,192,116074,1,0,0:0:0:0:
448,192,116236,1,0,0:0:0:0:
192,192,116398,1,0,0:0:0:0:
320,192,116561,1,0,0:0:0:0:
448,192,116723,1,0,0:0:0:0:
64,192,116885,1,0,0:0:0:0:
192,192,117047,1,0,0:0:0:0:
320,192,117209,1,0,0:0:0:0:
448,192,117371,1,0,0:0:0:0:
64,192,117534,1,0,0:0:0:0:
320,192,117696,1,0,0:0:0:0:
192,192,117858,1,0,0:0:0:0:
64,192,118020,1,0,0:0:0:0:
448,192,118182,1,0,0:0:0:0:
320,192,118344,1,0,0:0:0:0:
64,192,118507,1,0,0:0:0:0:
320,192,118669,1,0,0:0:0:0:
192,192,118831,1,0,0:0:0:0:
448,192,118993,1,0,0:0:0:0:
192,192,119155,1,0,0:0:0:0:
448,192,119317,1,0,0:0:0:0:
320,192,119480,1,0,0:0:0:0:
64,192,119642,1,0,0:0:0:0:
448,192,119804,1,0,0:0:0:0:
192,192,119966,1,0,0:0:0:0:
448,192,120128,1,0,0:0:0:0:
64,192,120290,1,0,0:0:0:0:
320,192,120452,1,0,0:0:0:0:
448,192,120615,1,0,0:0:0:0:
192,192,120777,1,0,0:0:0:0:
64,192,120939,1,0,0:0:0:0:
448,192,121101,1,0,0:0:0:0:
64,192,121263,1,0,0:0:0:0:
320,192,121263,1,0,0:0:0:0:
192,192,121425,1,0,0:0:0:0:
320,192,121588,1,0,0:0:0:0:
448,192,121588,1,0,0:0:0:0:
64,192,121750,1,0,0:0:0:0:
192,192,121831,1,0,0:0:0:0:
320,192,121912,1,0,0:0:0:0:
448,192,121993,1,0,0:0:0:0:
192,192,122074,1,0,0:0:0:0:
64,192,122155,1,0,0:0:0:0:
320,192,122236,1,0,0:0:0:0:
448,192,122236,1,0,0:0:0:0:
64,192,122561,1,0,0:0:0:0:
192,192,122561,1,0,0:0:0:0:
320,192,122723,1,0,0:0:0:0:
448,192,122885,1,0,0:0:0:0:
64,192,122885,1,0,0:0:0:0:
192,192,122885,1,0,0:0:0:0:
192,192,123047,1,0,0:0:0:0:
320,192,123209,1,0,0:0:0:0:
448,192,123209,1,0,0:0:0:0:
192,192,123371,1,0,0:0:0:0:
64,192,123534,1,0,0:0:0:0:
320,192,123534,1,0,0:0:0:0:
448,192,123534,1,0,0:0:0:0:
192,192,123696,1,0,0:0:0:0:
64,192,123858,1,0,0:0:0:0:
448,192,123858,1,0,0:0:0:0:
320,192,124020,1,0,0:0:0:0:
64,192,124182,1,0,0:0:0:0:
192,192,124182,1,0,0:0:0:0:
448,192,124182,1,0,0:0:0:0:
192,192,124344,1,0,0:0:0:0:
64,192,124507,1,0,0:0:0:0:
320,192,124507,1,0,0:0:0:0:
448,192,124669,1,0,0:0:0:0:
64,192,124831,1,0,0:0:0:0:
192,192,124831,1,0,0:0:0:0:
320,192,124831,1,0,0:0:0:0:
320,192,124993,1,0,0:0:0:0:
64,192,125155,1,0,0:0:0:0:
192,192,125155,1,0,0:0:0:0:
448,192,125317,1,0,0:0:0:0:
448,192,125480,1,0,0:0:0:0:
64,192,125480,1,0,0:0:0:0:
192,192,125480,1,0,0:0:0:0:
320,192,125642,1,0,0:0:0:0:
64,192,125804,1,0,0:0:0:0:
192,192,125804,1,0,0:0:0:0:
320,192,125966,1,0,0:0:0:0:
448,192,126128,1,0,0:0:0:0:
192,192,126128,1,0,0:0:0:0:
64,192,126128,1,0,0:0:0:0:
192,192,126290,1,0,0:0:0:0:
64,192,126452,1,0,0:0:0:0:
320,192,126452,1,0,0:0:0:0:
192,192,126615,1,0,0:0:0:0:
320,192,126777,1,0,0:0:0:0:
64,192,126777,1,0,0:0:0:0:
448,192,126777,1,0,0:0:0:0:
320,192,126939,1,0,0:0:0:0:
64,192,127101,1,0,0:0:0:0:
192,192,127101,1,0,0:0:0:0:
448,192,127263,1,0,0:0:0:0:
320,192,127425,1,0,0:0:0:0:
192,192,127425,1,0,0:0:0:0:
64,192,127425,1,0,0:0:0:0:
320,192,127588,1,0,0:0:0:0:
64,192,127750,1,0,0:0:0:0:
192,192,127750,1,0,0:0:0:0:
320,192,127912,1,0,0:0:0:0:
64,192,128074,1,0,0:0:0:0:
192,192,128074,1,0,0:0:0:0:
448,192,128074,1,0,0:0:0:0:
448,192,128236,1,0,0:0:0:0:
320,192,128398,1,0,0:0:0:0:
192,192,128398,1,0,0:0:0:0:
64,192,128561,1,0,0:0:0:0:
64,192,128723,1,0,0:0:0:0:
320,192,128723,1,0,0:0:0:0:
448,192,128723,1,0,0:0:0:0:
192,192,128885,1,0,0:0:0:0:
320,192,129047,1,0,0:0:0:0:
448,192,129047,1,0,0:0:0:0:
64,192,129209,1,0,0:0:0:0:
448,192,129371,1,0,0:0:0:0:
192,192,129371,1,0,0:0:0:0:
320,192,129371,1,0,0:0:0:0:
320,192,129534,1,0,0:0:0:0:
64,192,129696,1,0,0:0:0:0:
192,192,129696,1,0,0:0:0:0:
448,192,129858,1,0,0:0:0:0:
64,192,130020,1,0,0:0:0:0:
192,192,130020,1,0,0:0:0:0:
320,192,130020,1,0,0:0:0:0:
448,192,130182,1,0,0:0:0:0:
192,192,130344,1,0,0:0:0:0:
320,192,130344,1,0,0:0:0:0:
64,192,130507,1,0,0:0:0:0:
64,192,130669,1,0,0:0:0:0:
320,192,130669,1,0,0:0:0:0:
448,192,130669,1,0,0:0:0:0:
320,192,130831,1,0,0:0:0:0:
64,192,130993,1,0,0:0:0:0:
192,192,130993,1,0,0:0:0:0:
448,192,131155,1,0,0:0:0:0:
320,192,131317,1,0,0:0:0:0:
64,192,131317,1,0,0:0:0:0:
448,192,131317,1,0,0:0:0:0:
192,192,131480,1,0,0:0:0:0:
64,192,131642,128,0,131966:0:0:0:0:
448,192,131642,1,0,0:0:0:0:
192,192,131804,1,0,0:0:0:0:
320,192,131966,128,0,132290:0:0:0:0:
448,192,131966,1,0,0:0:0:0:
192,192,132128,1,0,0:0:0:0:
448,192,132290,128,0,132615:0:0:0:0:
64,192,132290,1,0,0:0:0:0:
192,192,132452,1,0,0:0:0:0:
64,192,132615,1,0,0:0:0:0:
192,192,132669,1,0,0:0:0:0:
448,192,132750,1,0,0:0:0:0:
320,192,132831,1,0,0:0:0:0:
64,192,132939,1,0,0:0:0:0:
192,192,132939,1,0,0:0:0:0:
320,192,133101,1,0,0:0:0:0:
64,192,133263,1,0,0:0:0:0:
448,192,133263,1,0,0:0:0:0:
192,192,133263,1,0,0:0:0:0:
192,192,133425,1,0,0:0:0:0:
320,192,133588,1,0,0:0:0:0:
448,192,133588,1,0,0:0:0:0:
320,192,133750,1,0,0:0:0:0:
64,192,133912,1,0,0:0:0:0:
192,192,133912,1,0,0:0:0:0:
448,192,133912,1,0,0:0:0:0:
320,192,134074,1,0,0:0:0:0:
64,192,134236,1,0,0:0:0:0:
192,192,134236,1,0,0:0:0:0:
448,192,134398,1,0,0:0:0:0:
64,192,134561,1,0,0:0:0:0:
192,192,134561,1,0,0:0:0:0:
320,192,134561,1,0,0:0:0:0:
320,192,134723,1,0,0:0:0:0:
64,192,134885,1,0,0:0:0:0:
192,192,134885,1,0,0:0:0:0:
192,192,135047,1,0,0:0:0:0:
320,192,135209,1,0,0:0:0:0:
448,192,135209,1,0,0:0:0:0:
64,192,135209,1,0,0:0:0:0:
448,192,135371,1,0,0:0:0:0:
64,192,135534,1,0,0:0:0:0:
320,192,135534,1,0,0:0:0:0:
192,192,135696,128,0,135858:0:0:0:0:
320,192,135858,1,0,0:0:0:0:
448,192,135858,1,0,0:0:0:0:
64,192,135858,1,0,0:0:0:0:
192,192,136020,128,0,136182:0:0:0:0:
64,192,136182,1,0,0:0:0:0:
320,192,136182,1,0,0:0:0:0:
192,192,136344,128,0,136507:0:0:0:0:
64,192,136507,1,0,0:0:0:0:
448,192,136507,1,0,0:0:0:0:
320,192,136507,1,0,0:0:0:0:
192,192,136669,1,0,0:0:0:0:
448,192,136831,128,0,136993:0:0:0:0:
320,192,136831,1,0,0:0:0:0:
64,192,136993,1,0,0:0:0:0:
192,192,137155,1,0,0:0:0:0:
320,192,137155,128,0,137317:0:0:0:0:
448,192,137155,1,0,0:0:0:0:
64,192,137317,1,0,0:0:0:0:
448,192,137480,128,0,137642:0:0:0:0:
192,192,137480,1,0,0:0:0:0:
320,192,137642,1,0,0:0:0:0:
320,192,137804,128,0,137966:0:0:0:0:
64,192,137804,1,0,0:0:0:0:
192,192,137804,1,0,0:0:0:0:
448,192,137966,1,0,0:0:0:0:
64,192,138128,1,0,0:0:0:0:
320,192,138128,1,0,0:0:0:0:
192,192,138128,1,0,0:0:0:0:
192,192,138290,1,0,0:0:0:0:
64,192,138452,1,0,0:0:0:0:
320,192,138452,1,0,0:0:0:0:
448,192,138452,1,0,0:0:0:0:
448,192,138615,1,0,0:0:0:0:
192,192,138777,1,0,0:0:0:0:
320,192,138777,1,0,0:0:0:0:
64,192,138939,1,0,0:0:0:0:
192,192,139101,1,0,0:0:0:0:
448,192,139101,1,0,0:0:0:0:
64,192,139101,1,0,0:0:0:0:
320,192,139263,1,0,0:0:0:0:
64,192,139425,1,0,0:0:0:0:
192,192,139425,1,0,0:0:0:0:
448,192,139588,1,0,0:0:0:0:
64,192,139750,1,0,0:0:0:0:
192,192,139750,1,0,0:0:0:0:
320,192,139750,1,0,0:0:0:0:
320,192,139912,1,0,0:0:0:0:
64,192,140074,1,0,0:0:0:0:
192,192,140074,1,0,0:0:0:0:
192,192,140236,1,0,0:0:0:0:
64,192,140398,1,0,0:0:0:0:
320,192,140398,1,0,0:0:0:0:
448,192,140398,1,0,0:0:0:0:
192,192,140561,1,0,0:0:0:0:
320,192,140723,1,0,0:0:0:0:
448,192,140723,1,0,0:0:0:0:
192,192,140885,128,0,141047:0:0:0:0:
64,192,141047,1,0,0:0:0:0:
320,192,141047,1,0,0:0:0:0:
448,192,141047,1,0,0:0:0:0:
192,192,141209,128,0,141371:0:0:0:0:
64,192,141371,1,0,0:0:0:0:
320,192,141371,1,0,0:0:0:0:
192,192,141534,128,0,141696:0:0:0:0:
64,192,141696,1,0,0:0:0:0:
448,192,141696,1,0,0:0:0:0:
320,192,141696,1,0,0:0:0:0:
192,192,141858,1,0,0:0:0:0:
320,192,142020,1,0,0:0:0:0:
448,192,142020,128,0,142182:0:0:0:0:
192,192,142182,1,0,0:0:0:0:
320,192,142344,128,0,142507:0:0:0:0:
64,192,142344,1,0,0:0:0:0:
448,192,142344,1,0,0:0:0:0:
192,192,142507,1,0,0:0:0:0:
448,192,142669,128,0,142831:0:0:0:0:
320,192,142669,1,0,0:0:0:0:
192,192,142831,1,0,0:0:0:0:
320,192,142993,128,0,143155:0:0:0:0:
64,192,142993,1,0,0:0:0:0:
448,192,142993,1,0,0:0:0:0:
192,192,143155,1,0,0:0:0:0:
320,192,143480,128,0,143642:0:0:0:0:
64,192,143642,1,0,0:0:0:0:
448,192,143642,1,0,0:0:0:0:
192,192,143642,1,0,0:0:0:0:
320,192,143804,128,0,143966:0:0:0:0:
64,192,143966,1,0,0:0:0:0:
192,192,143966,1,0,0:0:0:0:
448,192,143966,1,0,0:0:0:0:
320,192,144128,128,0,144290:0:0:0:0:
64,192,144290,1,0,0:0:0:0:
192,192,144290,1,0,0:0:0:0:
448,192,144290,1,0,0:0:0:0:
320,192,144452,1,0,0:0:0:0:
448,192,144615,1,0,0:0:0:0:
64,192,144615,128,0,144777:0:0:0:0:
192,192,144615,1,0,0:0:0:0:
320,192,144777,1,0,0:0:0:0:
192,192,144939,128,0,145101:0:0:0:0:
64,192,144939,1,0,0:0:0:0:
448,192,144939,1,0,0:0:0:0:
320,192,145101,1,0,0:0:0:0:
64,192,145263,128,0,145425:0:0:0:0:
448,192,145263,1,0,0:0:0:0:
192,192,145263,1,0,0:0:0:0:
320,192,145425,1,0,0:0:0:0:
192,192,145588,128,0,145750:0:0:0:0:
64,192,145588,1,0,0:0:0:0:
448,192,145588,1,0,0:0:0:0:
320,192,145750,1,0,0:0:0:0:
64,192,145912,1,0,0:0:0:0:
448,192,145912,1,0,0:0:0:0:
192,192,145912,1,0,0:0:0:0:
320,192,146074,128,0,146236:0:0:0:0:
64,192,146236,1,0,0:0:0:0:
192,192,146236,1,0,0:0:0:0:
448,192,146236,1,0,0:0:0:0:
320,192,146398,128,0,146561:0:0:0:0:
64,192,146561,1,0,0:0:0:0:
192,192,146561,1,0,0:0:0:0:
448,192,146561,1,0,0:0:0:0:
320,192,146723,128,0,146885:0:0:0:0:
64,192,146885,1,0,0:0:0:0:
192,192,146885,1,0,0:0:0:0:
448,192,146885,1,0,0:0:0:0:
320,192,147047,1,0,0:0:0:0:
448,192,147209,1,0,0:0:0:0:
192,192,147209,1,0,0:0:0:0:
64,192,147209,128,0,147371:0:0:0:0:
320,192,147371,1,0,0:0:0:0:
192,192,147534,128,0,147696:0:0:0:0:
64,192,147534,1,0,0:0:0:0:
448,192,147534,1,0,0:0:0:0:
320,192,147696,1,0,0:0:0:0:
64,192,147858,128,0,148020:0:0:0:0:
192,192,147858,1,0,0:0:0:0:
448,192,147858,1,0,0:0:0:0:
320,192,148020,1,0,0:0:0:0:
192,192,148182,128,0,148344:0:0:0:0:
64,192,148182,1,0,0:0:0:0:
448,192,148182,1,0,0:0:0:0:
320,192,148344,1,0,0:0:0:0:
448,192,148507,1,0,0:0:0:0:
64,192,148507,1,0,0:0:0:0:
192,192,148507,1,0,0:0:0:0:
448,192,148669,128,0,148831:0:0:0:0:
64,192,148831,1,0,0:0:0:0:
192,192,148831,1,0,0:0:0:0:
320,192,148831,1,0,0:0:0:0:
448,192,148993,128,0,149155:0:0:0:0:
64,192,149155,1,0,0:0:0:0:
192,192,149155,1,0,0:0:0:0:
320,192,149155,1,0,0:0:0:0:
448,192,149317,128,0,149480:0:0:0:0:
64,192,149480,1,0,0:0:0:0:
320,192,149480,1,0,0:0:0:0:
192,192,149480,1,0,0:0:0:0:
448,192,149642,1,0,0:0:0:0:
192,192,149804,128,0,149966:0:0:0:0:
64,192,149804,1,0,0:0:0:0:
320,192,149804,1,0,0:0:0:0:
448,192,149966,1,0,0:0:0:0:
64,192,150128,1,0,0:0:0:0:
320,192,150128,128,0,150290:0:0:0:0:
192,192,150128,1,0,0:0:0:0:
448,192,150290,1,0,0:0:0:0:
192,192,150452,128,0,150615:0:0:0:0:
64,192,150452,1,0,0:0:0:0:
320,192,150452,1,0,0:0:0:0:
448,192,150615,1,0,0:0:0:0:
320,192,150777,128,0,150939:0:0:0:0:
192,192,150777,1,0,0:0:0:0:
64,192,150777,1,0,0:0:0:0:
448,192,150939,1,0,0:0:0:0:
64,192,150939,1,0,0:0:0:0:
192,192,151101,1,0,0:0:0:0:
320,192,151101,1,0,0:0:0:0:
448,192,151101,1,0,0:0:0:0:
64,192,151263,128,0,151425:0:0:0:0:
448,192,151425,1,0,0:0:0:0:
320,192,151425,1,0,0:0:0:0:
192,192,151425,1,0,0:0:0:0:
64,192,151588,128,0,151750:0:0:0:0:
448,192,151750,1,0,0:0:0:0:
320,192,151750,1,0,0:0:0:0:
192,192,151750,1,0,0:0:0:0:
64,192,151912,128,0,152074:0:0:0:0:
448,192,152074,1,0,0:0:0:0:
320,192,152074,1,0,0:0:0:0:
192,192,152074,1,0,0:0:0:0:
64,192,152236,128,0,152398:0:0:0:0:
448,192,152398,1,0,0:0:0:0:
320,192,152398,1,0,0:0:0:0:
192,192,152398,1,0,0:0:0:0:
64,192,152561,1,0,0:0:0:0:
192,192,152723,1,0,0:0:0:0:
320,192,152723,1,0,0:0:0:0:
448,192,152723,1,0,0:0:0:0:
64,192,152885,1,0,0:0:0:0:
192,192,152966,1,0,0:0:0:0:
320,192,153047,1,0,0:0:0:0:
448,192,153209,1,0,0:0:0:0:
320,192,153290,1,0,0:0:0:0:
192,192,153371,1,0,0:0:0:0:
